Чат

⚫︎
Список изменений сайта - https://rips.club/changelog.html (обновлен 24.05.2024)
  • arwis
  • kisa1980
Онлайн (за 10 мин.): 2
  • Tastod: Раздайте, пожалуйста, Загадочная история Бенджамина Баттона / The Curious Case of Benjamin Button (2008) BDRip 1080p [HEVC] 10 bit от Spartanec1308
  • Гл. Админ: Исправил баг, когда после анонса коллекции все анонсы показывались в спойлере, даже если не являлись коллекцией.
  • Гл. Админ: Исправил баг, когда в ЛС не возможно было удалить сообщение.
  • bronsonw200: Гл. Админ, Как по мне, так смотрится приятнее.
  • Гл. Админ: В светлой теме задний фон сделал чуть потемнее, чтобы было не слишком ярко. В темной теме поисковую строку сделал черной (как в светлой теме), чтобы выделялась. Убрал рамки вокруг элементов форм. Прокрутку страницы в начало сделал плавной. ( отредактировано: )
  • Гл. Админ: В ближайшие дни по вечерам начну подправлять дизайн.
  • Гл. Админ: Готово.
  • Гл. Админ: Управление релизами закончил, но не буду выкладывать на ночь глядя. Утром протестирую на локальном компе, и днем выложу.
  • Гл. Админ: Фон баннера релиз-группы сделал прозрачным и перезалил на внешнем хостинге.
  • OldGamer: было бы неплохо
  • Гл. Админ: Управление релизами наверно сегодня закончу.
  • HANNIBAL: Сообщение удалено (удалил: HANNIBAL)
  • HANNIBAL: Гл. Админ, не привычно
  • Гл. Админ: HANNIBAL, хорошего или плохого?
  • HANNIBAL: эт чей-то вы тут натворили с сайтом ;)
  • Гл. Админ: ExoticDeer, просто в будущем будет несколько новостных строчек и они будут автоматически переключаться по кругу, поэтому не хочется статичную. Могу ещё уменьшить частоту, если всё равно будет отвлекать. ( отредактировано: )
  • Гл. Админ: ExoticDeer, уменьшил частоту мигания с 5 сек. до 10 сек.
  • ExoticDeer: Гл. Админ, про мигание, скорее отвлекает, особенно на тёмной теме. статичная хорошо смотрелась
  • Гл. Админ: Winsent, Исправил. Теперь, при просмотре комментариев конкретного пользователя, эта галочка не играет роли. Спасибо, что сообщили.
  • Гл. Админ: Winsent, сначала не поверил своим глазам. Это было оооочень странно. Но кажется теперь понял в чем проблема. Ошибка появляется, если в настройках не установлена галочка "Получать уведомления о всех комментариях". Причем у разных пользователей проявляется по разному - у кого-то ничего не показывается, а у кого-то показывается часть комментариев. Поэтому мне долго не удавалось воспроизвести ошибку. Сейчас исправлю.
Отправка сообщений доступна только зарегистрированным/авторизованным пользователям.

🎥︎📺︎Банши / Banshee (2016) [4 сезон] BDRip 1080p [HEVC] 10 bit от OldGamer (RG RIPS CLUB)


Обложка Банши / Banshee (2016) [4 сезон] BDRip 1080p [HEVC] 10 bit от OldGamer (RG RIPS CLUB)
HEVC
10 bit
✂︎Сэмпл⤓︎Торрент🧲︎Магнет$Пожертвования

При перезаливке на другие сайты просьба указать автора и релиз-группу.


Год: 2016
Страна: США
Студия: Cinemax, Your Face Goes Here Entertainment
Жанр: Боевик, Триллер, Драма, Криминал
Длительность: 06:52:36

Режиссер: Оле Кристиан Мадсен, Грег Яйтанс, Лони Перистер
В ролях: Энтони Старр, Ивана Миличевич, Ульрих Томсен, Хун Ли, Фрэнки Фэйзон, Лили Симмонс, Триесте Келли Данн, Рас Блэквелл, Мэтт Сервитто, Деметриус Гросс

Описание: Лукас Худ — отбывший наказание в тюрьме вор, который некогда предал своих подельников. После отсидки он приезжает в небольшой городок в Пенсильвании, носящий название Банши, где обманом получает пост местного шерифа. Но это не значит, что он забыл своё криминальное прошлое и теперь служит закону. Гангстеры, которых он когда-то предал, всё еще помнят про него и стремятся отомстить. Назревает жесткое противостояние между новоявленным шерифом и его бывшими приятелями. Спокойствие местного населения нарушается, а убийство следует за убийством, когда шериф начинает «наводить порядок» во вверенном его заботам городке.


Релиз-группа: RIPS CLUB
Видео: 1920x1080, 3622-6896 Kbps
Аудио1: AC3, 6 ch, 384 Kbps - РусскийРусский, MVO (Novamedia по заказу Amedia)
Аудио2: AC3, 6 ch, 384 Kbps - РусскийРусский, MVO (TVShows)
Аудио3: AC3, 6 ch, 384 Kbps - РусскийРусский, MVO (NewStudio без цензуры)
Аудио4: AC3, 6 ch, 640 Kbps - АнглийскийАнглийский
Субтитры: русские, английские (SDH)

Как за несколько секунд удалить ненужные аудиодорожки и субтитры (Внимание! После удаления вы не сможете поддержать раздачу)


Лог (x265 info)x265 info: frame I: 354, Avg QP:17.91 kb/s: 26149.09
x265 info: frame P: 16454, Avg QP:19.30 kb/s: 12977.62
x265 info: frame B: 66123, Avg QP:21.49 kb/s: 3926.41
x265 info: Weighted P-Frames: Y:3.5% UV:2.9%
x265 info: Weighted B-Frames: Y:2.9% UV:2.1%
x265 info: consecutive B-frames: 3.6% 3.7% 20.1% 21.4% 13.3% 20.3% 5.9% 5.1% 2.3% 2.0% 1.2% 0.9%
x265 info: encoded 82931 frames in 132611.45s (0.63 fps), 5817.08 kb/s, Avg QP:21.04
МедиаинфоОбщее
Уникальный идентификатор : 1779983353043952847527115806012782810 (0x156CFF4777116CAF4B1DA22CEBEB8DA)
Полное имя : \\.\Banshee.S04E01.Something.Out.of.the.Bible.mkv
Формат : Matroska
Версия формата : Version 4
Размер файла : 3,07 Гбайт
Продолжительность : 57 м. 38 с.
Общий поток : 7 613 Кбит/сек
Частота кадров : 23,976 кадра/сек
Название фильма : Banshee.S04E01.Something.Out.of.the.Bible / Как персонаж из Библии
Трек/Положение : 4
Кодирование произвёл : OldGamer
Тип содержимого : TV Show
Описание : Прошло два года. Худ ушел в отставку, он живет в уединении в домике в лесу. Брок, новый шериф Банши, случайно находит его и говорит, что Ребекка Боуман была убита. В Банши орудует ритуальный серийный убийца.
Дата выпуска : 2016-04-01
Дата записи : 2016-04-01
Программа кодирования : mkvmerge v82.0 ('I'm The President') 64-bit
Библиотека кодирования : libebml v1.4.5 + libmatroska v1.7.1
Обложка : Yes
Attachments : cover.jpg
ACTOR : Antony Starr, Ivana Miličević, Ulrich Thomsen, Frankie Faison, Hoon Lee, Matthew Rauch, Lili Simmons, Matt Servitto, Ryann Shane, Tom Pelphrey, Chris Coy, Casey LaBow, Jackson Loo, Ana Ayora, Erik King, Cathy O'Dell, Edward Pfeifer, Jayden Blake Coch...
ARTIST : Antony Starr, Ivana Miličević, Ulrich Thomsen, Frankie Faison, Hoon Lee, Matthew Rauch, Lili Simmons, Matt Servitto, Ryann Shane, Tom Pelphrey, Chris Coy, Casey LaBow, Jackson Loo, Ana Ayora, Erik King, Cathy O'Dell, Edward Pfeifer, Jayden Blake Coch...
DIRECTOR : Ole Christian Madsen
EPISODE.PART_NUM : 1
GENRE : криминал, драма
LAW_RATING : TV-MA
PRODUCER : Chad Feehan, Robert F. Phillips
RATING : TV-MA
SCREENPLAY_BY : Jonathan Tropper
SEASON.PART_NUM : 4
SUMMARY : Прошло два года. Худ ушел в отставку, он живет в уединении в домике в лесу. Брок, новый шериф Банши, случайно находит его и говорит, что Ребекка Боуман была убита. В Банши орудует ритуальный серийный убийца.
SYNOPSIS : Прошло два года. Худ ушел в отставку, он живет в уединении в домике в лесу. Брок, новый шериф Банши, случайно находит его и говорит, что Ребекка Боуман была убита. В Банши орудует ритуальный серийный убийца. / / Проктор ведет дела с бандой нацистов , которой управляет Кельвин Банкер. Курт Банкер – его брат , трудится помощником шерифа и спит с женой собственного брата. Кэрри лишили опеки над ее детьми.
WRITTEN_BY : Jonathan Tropper

Видео
Идентификатор : 1
Формат : HEVC
Формат/Информация : High Efficiency Video Coding
Профиль формата : Main 10@L4.1@High
Идентификатор кодека : V_MPEGH/ISO/HEVC
Продолжительность : 57 м. 38 с.
Битрейт : 5 818 Кбит/сек
Ширина : 1 920 пикселей
Высота : 1 080 пикселей
Соотношение сторон : 16:9
Режим частоты кадров : Постоянный
Частота кадров : 23,976 (24000/1001) кадра/сек
Цветовое пространство : YUV
Субдискретизация насыщенности : 4:2:0
Битовая глубина : 10 бит
Бит/(Пиксели*Кадры) : 0.117
Размер потока : 2,34 Гбайт (76%)
Заголовок : Banshee S04E01 / Rip by OldGamer
Библиотека кодирования : x265 2.9+9-f74003e88622:[Mac OS X][clang 10.0.0][64 bit] 10bit
Настройки программы : cpuid=1111039 / frame-threads=14 / wpp / no-pmode / no-pme / no-psnr / no-ssim / log-level=3 / input-csp=1 / input-res=1920x1080 / interlace=0 / total-frames=0 / level-idc=41 / high-tier=1 / uhd-bd=0 / ref=5 / allow-non-conformance / no-repeat-headers / annexb / no-aud / no-hrd / info / hash=0 / no-temporal-layers / open-gop / min-keyint=23 / keyint=240 / gop-lookahead=0 / bframes=11 / b-adapt=2 / b-pyramid / bframe-bias=0 / rc-lookahead=60 / lookahead-slices=6 / scenecut=40 / radl=0 / no-intra-refresh / ctu=64 / min-cu-size=8 / rect / amp / max-tu-size=32 / tu-inter-depth=4 / tu-intra-depth=4 / limit-tu=1 / rdoq-level=2 / dynamic-rd=0.00 / no-ssim-rd / signhide / no-tskip / nr-intra=0 / nr-inter=0 / no-constrained-intra / no-strong-intra-smoothing / max-merge=5 / limit-refs=2 / no-limit-modes / me=3 / subme=7 / merange=57 / temporal-mvp / weightp / weightb / no-analyze-src-pics / deblock=-3:-3 / no-sao / no-sao-non-deblock / rd=6 / no-early-skip / rskip / no-fast-intra / no-tskip-fast / no-cu-lossless / no-b-intra / no-splitrd-skip / rdpenalty=0 / psy-rd=2.00 / psy-rdoq=1.00 / no-rd-refine / no-lossless / cbqpoffs=0 / crqpoffs=0 / rc=crf / crf=20.5 / qcomp=0.65 / qpstep=4 / stats-write=0 / stats-read=0 / vbv-maxrate=50000 / vbv-bufsize=50000 / vbv-init=0.9 / crf-max=0.0 / crf-min=0.0 / ipratio=1.40 / pbratio=1.30 / aq-mode=2 / aq-strength=0.80 / no-cutree / zone-count=0 / no-strict-cbr / qg-size=32 / no-rc-grain / qpmax=69 / qpmin=0 / no-const-vbv / sar=1 / overscan=0 / videoformat=5 / range=0 / colorprim=2 / transfer=2 / colormatrix=2 / chromaloc=0 / display-window=0 / max-cll=0,0 / min-luma=0 / max-luma=1023 / log2-max-poc-lsb=8 / vui-timing-info / vui-hrd-info / slices=1 / no-opt-qp-pps / no-opt-ref-list-length-pps / no-multi-pass-opt-rps / scenecut-bias=0.00 / no-opt-cu-delta-qp / aq-motion / no-hdr / no-hdr-opt / no-dhdr10-opt / no-idr-recovery-sei / analysis-reuse-level=5 / scale-factor=0 / refine-intra=0 / refine-inter=0 / refine-mv=0 / no-limit-sao / ctu-info=0 / no-lowpass-dct / refine-mv-type=0 / copy-pic=1 / max-ausize-factor=1.0 / no-dynamic-refine / no-single-sei
Язык : English
Default : Да
Forced : Нет
Цветовой диапазон : Limited

Аудио #1
Идентификатор : 2
Формат : AC-3
Формат/Информация : Audio Coding 3
Коммерческое название : Dolby Digital
Идентификатор кодека : A_AC3
Продолжительность : 57 м. 38 с.
Вид битрейта : Постоянный
Битрейт : 384 Кбит/сек
Каналы : 6 каналов
Channel layout : L R C LFE Ls Rs
Частота : 48,0 КГц
Частота кадров : 31,250 кадров/сек (1536 SPF)
Метод сжатия : С потерями
Размер потока : 158 Мбайт (5%)
Заголовок : MVO (Пифагор по заказу Amedia)
Язык : Russian
Service kind : Complete Main
Default : Да
Forced : Нет

Аудио #2
Идентификатор : 3
Формат : AC-3
Формат/Информация : Audio Coding 3
Коммерческое название : Dolby Digital
Идентификатор кодека : A_AC3
Продолжительность : 57 м. 38 с.
Вид битрейта : Постоянный
Битрейт : 384 Кбит/сек
Каналы : 6 каналов
Channel layout : L R C LFE Ls Rs
Частота : 48,0 КГц
Частота кадров : 31,250 кадров/сек (1536 SPF)
Метод сжатия : С потерями
Размер потока : 158 Мбайт (5%)
Заголовок : MVO (TVShows)
Язык : Russian
Service kind : Complete Main
Default : Нет
Forced : Нет

Аудио #3
Идентификатор : 4
Формат : AC-3
Формат/Информация : Audio Coding 3
Коммерческое название : Dolby Digital
Идентификатор кодека : A_AC3
Продолжительность : 57 м. 38 с.
Вид битрейта : Постоянный
Битрейт : 384 Кбит/сек
Каналы : 6 каналов
Channel layout : L R C LFE Ls Rs
Частота : 48,0 КГц
Частота кадров : 31,250 кадров/сек (1536 SPF)
Метод сжатия : С потерями
Размер потока : 158 Мбайт (5%)
Заголовок : MVO (NewStudio без цензуры)
Язык : Russian
Service kind : Complete Main
Default : Нет
Forced : Нет

Аудио #4
Идентификатор : 5
Формат : AC-3
Формат/Информация : Audio Coding 3
Коммерческое название : Dolby Digital
Идентификатор кодека : A_AC3
Продолжительность : 57 м. 38 с.
Вид битрейта : Постоянный
Битрейт : 640 Кбит/сек
Каналы : 6 каналов
Channel layout : L R C LFE Ls Rs
Частота : 48,0 КГц
Частота кадров : 31,250 кадров/сек (1536 SPF)
Метод сжатия : С потерями
Размер потока : 264 Мбайт (8%)
Язык : English
Service kind : Complete Main
Default : Нет
Forced : Нет

Текст #1
Идентификатор : 6
Формат : UTF-8
Идентификатор кодека : S_TEXT/UTF8
Идентификатор кодека/Информация : UTF-8 Plain Text
Продолжительность : 54 м. 42 с.
Битрейт : 61 бит/сек
Частота кадров : 0,190 кадр/сек
Count of elements : 622
Размер потока : 24,6 Кбайт (0%)
Заголовок : Russian @ SRT Amedia
Язык : Russian
Default : Нет
Forced : Нет

Текст #2
Идентификатор : 7
Формат : UTF-8
Идентификатор кодека : S_TEXT/UTF8
Идентификатор кодека/Информация : UTF-8 Plain Text
Продолжительность : 56 м. 17 с.
Битрейт : 48 бит/сек
Частота кадров : 0,205 кадр/сек
Count of elements : 694
Размер потока : 19,8 Кбайт (0%)
Заголовок : English @ SRT SDH
Язык : English
Default : Нет
Forced : Нет

Меню
00:00:00.000 : en:Chapter 1
00:03:51.690 : en:Chapter 2
00:10:36.010 : en:Chapter 3
00:20:04.120 : en:Chapter 4
00:29:27.307 : en:Chapter 5
00:44:16.195 : en:Chapter 6
00:56:24.631 : en:Chapter 7
Загрузка...Cкриншот1 Банши / Banshee (2016) [4 сезон] BDRip 1080p [HEVC] 10 bit от OldGamer (RG RIPS CLUB)Загрузка...Cкриншот2 Банши / Banshee (2016) [4 сезон] BDRip 1080p [HEVC] 10 bit от OldGamer (RG RIPS CLUB)Загрузка...Cкриншот3 Банши / Banshee (2016) [4 сезон] BDRip 1080p [HEVC] 10 bit от OldGamer (RG RIPS CLUB)Загрузка...Cкриншот4 Банши / Banshee (2016) [4 сезон] BDRip 1080p [HEVC] 10 bit от OldGamer (RG RIPS CLUB)
История обновленийВидеоряд без изменений. Добавлен перевод TVShows.
Поблагодарили: 5D16T, ko1ob, maximka, vungtay, Winsent
Файлы: 8
  • Banshee.S04.BDRip-HEVC.1080p
    • 3.07 ГБBanshee.S04E01.Something.Out.of.the.Bible.mkv
    • 2.83 ГБBanshee.S04E02.The.Burden.of.Beauty.mkv
    • 3.07 ГБBanshee.S04E03.The.Book.of.Job.mkv
    • 2.41 ГБBanshee.S04E04.Innocent.Might.Be.a.Bit.of.a.Stretch.mkv
    • 2.29 ГБBanshee.S04E05.A.Little.Late.to.Grow.a.Pair.mkv
    • 1.99 ГБBanshee.S04E06.Only.One.Way.a.Dogfight.Ends.mkv
    • 1.84 ГБBanshee.S04E07.Truths.Other.Than.the.Ones.You.Tell.Yourself.mkv
    • 3.21 ГБBanshee.S04E08.Requiem.mkv

Рейтинги КП и IMDB, кнопки "Раздайте, пожалуйста" и "Спасибо", а также мультитрекерная статистика доступны только зарегистрированным/авторизованным пользователям!

OldGamer
1942100(8) 20.7 ГБ

💬︎ Комментарии

Добавление комментариев доступно только зарегистрированным/авторизованным пользователям.