💬 Мини-чат

OldGamerну и акустические излучатели собрать хорошие, типа Penaudio Legato Signature или похожие, тут надо тщательно собирать систему для прослушивания
OldGamerне помешает ещё посетить отоларинголога для промывки слухового аппарата от серных пробок специализированным сертифицированным раствором, это (промывка) имеет немаловажное значение
OldGamer😆🤐🤐
OldGamerи всё же лучше hi-end, с подключением кабелями типа Analysis-Plus Oval 9 из бескислородной меди и с их предварительным прогревом системой типа Nordost Vidar, иначе всё теряет смысл
XuMuKManson_Fan, не надо hi-end акустики, достаточно hi-fi. "Кристольность" на высоких частотах другая, в DTS кажется более "живым" звук. Но самая большая разница, когда сравниваешь АС3 с каким-нибудь DTS-HD MA
IRITРаздайте, пожалуйста, Байки из склепа: Демон ночи / Tales from the Crypt: Demon Knight (1995) BDRip 1080p [HEVC] 10 bit от druidblack
OldGamerManson_Fan, у меня нет hi-end акустики, поэтому не слушал, не знаю, может и есть разница. За других говорить не буду. В любом случае, продвинутым слухачам будет несложно найти, скачать и прикрепить дорожки требуемого им качества.
mafo2Manson_Fan, не все телевизоры поддерживают DTS. например, мой через встроенный плеер его не воспроизводит. можно конечно смотреть через ПК, но порой хочется и через ТВ.
Manson_FanOldGamer, "Скажите зачем релизёры звук DTS 768 kbps переделывают в AC3 640 kbps" Интересно, а разницу в качестве в фильмах кому то удавалось услышать?😕 мне вот нет
Manson_Fanникто еще не сравнивал HEVC и новый AV1?
IRITРаздайте, пожалуйста, Маньяк-полицейский 3: Знак молчания / Maniac Cop 3: Badge of Silence (1993) BDRip 1080p [HEVC] 10 bit от HANNIBAL
Spartanec1308С Днём Великой Победы!
BrooklynВсех с праздником! С Днем Великой Победы! Ура-Ура-Урааааааа
BrooklynADVOKAT69, Спасибо большое!
ADVOKAT69Операция «Ы» и другие приключения Шурика (1965) раздаю
mafo2С Днем Победы!
joker63Поздравляю всех с Днем Победы!
ADVOKAT69Admin, Спасибо деду за победу!Тебе за поздравление!
AdminADVOKAT69, Дедам спасибо.
ADVOKAT69Admin, спасибо большое!✋
  • Admin
  • corviv
  • Manson_Fan
  • TimofeevP
Отправка сообщений доступна только зарегистрированным/авторизованным пользователям.
Онлайн (за 10 мин.): 4

3 дня на убийство / 3 Days to Kill (2014) BDRip 1080p [HEVC] 10 bit от Joker63

HEVC
10 bit
Обложка 3 дня на убийство / 3 Days to Kill (2014) BDRip 1080p [HEVC] 10 bit от Joker63 Год: 2014
Страна: Франция, США
Жанр: Боевик, Криминал, Драма, Триллер
Продолжительность: 02:02:18

Режиссер: МакДжи
В ролях: Кевин Костнер, Эмбер Хёрд, Хейли Стайнфелд, Конни Нильсен, Томас Лемаркус, Рихард Заммель, Марк Андреони, Бруно Риччи, Йонас Блоке, Эрик Эбони

Описание: Итан Реннер один из лучших агентов. Чтоб не потерять свою семью, в течение 10 лет ему пришлось скрывать от них, чем он занимается. Но из-за этих тайн у него портится отношения с супругой. Вскоре он узнает, что смертельно болен. У него рак мозга последней стадии и жить ему остался не больше 6 месяцев. Он собирается уйти в отставку, чтобы провести последние дни со своей семьей, и наладить с ними отношения. Ему кажется, что с дочкой он быстро найдет общий язык, а вот с супругой Кристен будет труднее, но он не теряет надежды. Реннер рассказывает жене о болезни, и она позволяет ему видеться с дочкой. И к тому же ей нужно уехать, а несовершеннолетнюю девочку не с кем оставить. Вскоре секретная служба вновь находит его, и предлагает сделку. Он должен в кратчайшие сроки найти и убить опасного торговца по кличке Волк, а взамен получает экспериментальный препарат для продления жизни на несколько лет. Итан соглашается, он хочет перебороть опухоль и подольше провести время со своей семьей. Ренн


Видео: 1920x808, 3850 Kbps
Аудио1: AC3, 6 ch, 448 Kbps - РусскийРусский, Дублированный
Аудио2: AC3, 6 ch, 448 Kbps - РусскийРусский, Одноголосый (Гаврилов)
Аудио3: AC3, 6 ch, 448 Kbps - РусскийРусский, Одноголосый (Есарев)
Субтитры: Русские (forced, full), Английские (SDH)

Как за пару секунд удалить ненужные аудиодорожки и субтитры (Внимание! После удаления вы не сможете поддержать раздачу)

Медиаинфо
Общее
Уникальный идентификатор : 330241670975267131109221939644719177955 (0xF8723B781DB0E2C51146C199898420E3)
Полное имя : D:\Кевин Костнер\3 дня на убийство (Расширенная версия) 3 Days to Kill (Extended Cut) 2014 BDRip 1080p [HEVC] 10Bit.mkv
Формат : Matroska
Версия формата : Version 4 / Version 2
Размер файла : 4,44 Гбайт
Продолжительность : 2 ч. 2 м.
Общий поток : 5197 Кбит/сек
Название фильма : / Рип от Joker63 для HEVC - CLUB
Дата кодирования : UTC 2018-08-07 13:06:59
Программа кодирования : mkvmerge v24.0.0 ('Beyond The Pale') 64-bit
Библиотека кодирования : libebml v1.3.6 + libmatroska v1.4.9
Обложка : Yes
Attachments : cover.jpg

Видео
Идентификатор : 1
Формат : HEVC
Формат/Информация : High Efficiency Video Coding
Профиль формата : Main 10@L5.1@High
Идентификатор кодека : V_MPEGH/ISO/HEVC
Продолжительность : 2 ч. 2 м.
Битрейт : 3850 Кбит/сек
Ширина : 1920 пикселей
Высота : 808 пикселей
Соотношение сторон : 2,40:1
Режим частоты кадров : Постоянный
Частота кадров : 23,976 (24000/1001) кадра/сек
Цветовое пространство : YUV
Субдискретизация насыщенности : 4:2:0
Битовая глубина : 10 бит
Бит/(Пиксели*Кадры) : 0.104
Размер потока : 3,29 Гбайт (74%)
Заголовок : BDRemux
Библиотека кодирования : x265 2.8+19-bcdc610cf5f0:[Windows][GCC 7.3.0][64 bit] 10bit
Настройки программы : cpuid=1049583 / frame-threads=5 / numa-pools=4 / wpp / no-pmode / no-pme / no-psnr / no-ssim / log-level=3 / input-csp=1 / input-res=1920x808 / interlace=0 / total-frames=0 / level-idc=51 / high-tier=1 / uhd-bd=0 / ref=5 / allow-non-conformance / no-repeat-headers / annexb / no-aud / no-hrd / info / hash=0 / no-temporal-layers / open-gop / min-keyint=24 / keyint=240 / gop-lookahead=0 / bframes=6 / b-adapt=2 / b-pyramid / bframe-bias=0 / rc-lookahead=20 / lookahead-slices=5 / scenecut=40 / radl=0 / no-intra-refresh / ctu=64 / min-cu-size=8 / no-rect / no-amp / max-tu-size=32 / tu-inter-depth=1 / tu-intra-depth=1 / limit-tu=0 / rdoq-level=0 / dynamic-rd=0.00 / no-ssim-rd / signhide / no-tskip / nr-intra=0 / nr-inter=0 / no-constrained-intra / strong-intra-smoothing / max-merge=2 / limit-refs=3 / no-limit-modes / me=1 / subme=5 / merange=57 / temporal-mvp / weightp / no-weightb / no-analyze-src-pics / deblock=-2:-2 / sao / no-sao-non-deblock / rd=3 / no-early-skip / rskip / no-fast-intra / no-tskip-fast / no-cu-lossless / no-b-intra / no-splitrd-skip / rdpenalty=0 / psy-rd=2.00 / psy-rdoq=0.00 / no-rd-refine / no-lossless / cbqpoffs=0 / crqpoffs=0 / rc=crf / crf=20.0 / qcomp=0.60 / qpstep=4 / stats-write=0 / stats-read=0 / vbv-maxrate=160000 / vbv-bufsize=160000 / vbv-init=0.9 / crf-max=30.0 / crf-min=0.0 / ipratio=1.40 / pbratio=1.30 / aq-mode=1 / aq-strength=1.00 / cutree / zone-count=0 / no-strict-cbr / qg-size=32 / no-rc-grain / qpmax=69 / qpmin=0 / no-const-vbv / sar=1 / overscan=0 / videoformat=5 / range=0 / colorprim=2 / transfer=2 / colormatrix=2 / chromaloc=0 / display-window=0 / max-cll=0,0 / min-luma=0 / max-luma=1023 / log2-max-poc-lsb=8 / vui-timing-info / vui-hrd-info / slices=1 / no-opt-qp-pps / no-opt-ref-list-length-pps / no-multi-pass-opt-rps / scenecut-bias=0.05 / no-opt-cu-delta-qp / no-aq-motion / no-hdr / no-hdr-opt / no-dhdr10-opt / no-idr-recovery-sei / analysis-reuse-level=5 / scale-factor=0 / refine-intra=0 / refine-inter=0 / refine-mv=0 / no-limit-sao / ctu-info=0 / no-lowpass-dct / refine-mv-type=0 / copy-pic=1 / max-ausize-factor=1.0 / no-dynamic-refine / no-single-sei
Язык : English
Default : Да
Forced : Нет

Аудио #1
Идентификатор : 2
Формат : AC-3
Формат/Информация : Audio Coding 3
Идентификатор кодека : A_AC3
Продолжительность : 2 ч. 2 м.
Вид битрейта : Постоянный
Битрейт : 448 Кбит/сек
Каналы : 6 каналов
Расположение каналов : Front: L C R, Side: L R, LFE
Частота : 48,0 КГц
Частота кадров : 31,250 кадров/сек (1536 SPF)
Битовая глубина : 16 бит
Метод сжатия : С потерями
Размер потока : 392 Мбайт (9%)
Заголовок : DUB-Blu-ray Rus
Язык : Russian
ServiceKind/String : Complete Main
Default : Да
Forced : Нет

Аудио #2
Идентификатор : 3
Формат : AC-3
Формат/Информация : Audio Coding 3
Идентификатор кодека : A_AC3
Продолжительность : 2 ч. 2 м.
Вид битрейта : Постоянный
Битрейт : 448 Кбит/сек
Каналы : 6 каналов
Расположение каналов : Front: L C R, Side: L R, LFE
Частота : 48,0 КГц
Частота кадров : 31,250 кадров/сек (1536 SPF)
Битовая глубина : 16 бит
Метод сжатия : С потерями
Размер потока : 392 Мбайт (9%)
Заголовок : AVO-Гаврилов
Язык : Russian
ServiceKind/String : Complete Main
Default : Нет
Forced : Нет

Аудио #3
Идентификатор : 4
Формат : AC-3
Формат/Информация : Audio Coding 3
Идентификатор кодека : A_AC3
Продолжительность : 2 ч. 2 м.
Вид битрейта : Постоянный
Битрейт : 448 Кбит/сек
Каналы : 6 каналов
Расположение каналов : Front: L C R, Side: L R, LFE
Частота : 48,0 КГц
Частота кадров : 31,250 кадров/сек (1536 SPF)
Битовая глубина : 16 бит
Метод сжатия : С потерями
Размер потока : 392 Мбайт (9%)
Заголовок : VO-Есарев
Язык : Russian
ServiceKind/String : Complete Main
Default : Нет
Forced : Нет

Текст #1
Идентификатор : 5
Формат : UTF-8
Идентификатор кодека : S_TEXT/UTF8
Идентификатор кодека/Информация : UTF-8 Plain Text
Продолжительность : 1 ч. 43 м.
Битрейт : 4 бит/сек
ElementCount : 71
Размер потока : 3,75 Кбайт (0%)
Заголовок : Sub-forced
Язык : Russian
Default : Да
Forced : Нет

Текст #2
Идентификатор : 6
Формат : UTF-8
Идентификатор кодека : S_TEXT/UTF8
Идентификатор кодека/Информация : UTF-8 Plain Text
Продолжительность : 1 ч. 54 м.
Битрейт : 79 бит/сек
ElementCount : 1220
Размер потока : 66,4 Кбайт (0%)
Заголовок : Sub-full
Язык : Russian
Default : Нет
Forced : Нет

Текст #3
Идентификатор : 7
Формат : UTF-8
Идентификатор кодека : S_TEXT/UTF8
Идентификатор кодека/Информация : UTF-8 Plain Text
Продолжительность : 1 ч. 55 м.
Битрейт : 54 бит/сек
ElementCount : 1425
Размер потока : 45,7 Кбайт (0%)
Заголовок : Sub-SDH
Язык : English
Default : Нет
Forced : Нет

Меню
00:00:00.000 : :Chapter 1
00:03:35.131 : :Chapter 2
00:06:58.543 : :Chapter 3
00:10:56.572 : :Chapter 4
00:16:00.709 : :Chapter 5
00:20:51.708 : :Chapter 6
00:25:05.962 : :Chapter 7
00:29:24.345
Загрузка...Cкриншот1 3 дня на убийство / 3 Days to Kill (2014) BDRip 1080p [HEVC] 10 bit от Joker63Загрузка...Cкриншот2 3 дня на убийство / 3 Days to Kill (2014) BDRip 1080p [HEVC] 10 bit от Joker63Загрузка...Cкриншот3 3 дня на убийство / 3 Days to Kill (2014) BDRip 1080p [HEVC] 10 bit от Joker63Загрузка...Cкриншот4 3 дня на убийство / 3 Days to Kill (2014) BDRip 1080p [HEVC] 10 bit от Joker63
Сэмпл Торрент🧲 Магнет

Рейтинги КП и IMDB, кнопки "Позвать в чате" и "Спасибо", а также мультитрекерная статистика доступны только зарегистрированным/авторизованным пользователям!

Файлы: 1
  • 3 дня на убийство (Расширенная версия) 3 Days to Kill (Extended Cut) 2014 BDRip 1080p [HEVC] 10Bit.mkv   4.44 ГБ
Поблагодарили: 5
brukvalub, bs158250, mr_nikitin, poletov, SergF
joker63
031004.44 ГБ

Добавление нового комментария

Добавление комментариев доступно только зарегистрированным/авторизованным пользователям.