💬 Мини-чат

ADVOKAT6977carlsson77, скачайте заново торрент файл!разадаю!
77carlsson77Раздайте, пожалуйста, Бездна / The Deep (1977) BDRip 1080p [HEVC] 10 bit от ADVOKAT69
77carlsson77Раздайте, пожалуйста, Бременские музыканты (1969-1973) BDRip 1080p [HEVC] 10 bit от ADVOKAT69
ADVOKAT69Маугли, Джентльмены удачи раздаю!
ADVOKAT69все хорошо!
FijiMAXРаздайте, пожалуйста, Знакомство с родителями: Трилогия / Meet the Parents: Trilogy (2000-2010) BDRip 1080p [HEVC] 10 bit от OldGamer (RG RIPS CLUB)
NiflungРаздайте, пожалуйста, Багровый пик / Crimson Peak (2015) BDRip 1080p [HEVC] 10 bit от -Star-Lord- (RG RIPS CLUB)
NiflungРаздайте, пожалуйста, Маугли (1967-1971) BDRip 1080p [HEVC] 10 bit от ADVOKAT69
NiflungРаздайте, пожалуйста, Волшебник страны Оз / The Wizard of Oz (1939) BDRip 1080p [HEVC] 10 bit от Мичман
77carlsson77Раздайте, пожалуйста, Замёрзшие / Frozen (2010) BDRip 1080p [HEVC] 10 bit от M@kSIMus
StarLordHANNIBAL, привет ✌
joker63HANNIBAL, Привет))
HANNIBALвсем здрасти
Mr. FoxBeebo, не планировал, но подумаю
BeeboMr.Fox, стоит ли ждать рип Чужие серди нас?
StarLordOldGamer, это классика жанра 😄
OldGamerух ты, в anime.club попаль...
  • vash1
Отправка сообщений доступна только зарегистрированным/авторизованным пользователям.
Онлайн (за 10 мин.): 1

Пятница 13-е – Часть 4: Последняя глава / Friday the 13th: The Final Chapter (1984) BDRip 1080p [HEVC] 10 bit от joker63

HEVC
10 bit
Обложка Пятница 13-е – Часть 4: Последняя глава / Friday the 13th: The Final Chapter (1984) BDRip 1080p [HEVC] 10 bit от joker63 Год: 1984
Страна: США
Жанр: Ужасы, Триллер, Детектив
Продолжительность: 01:31:24

Режиссер: Джозеф Зито
В ролях: Кимберли Бек, Питер Бартон, Кори Фельдман, Эрик Андерсон, Криспин Гловер, Алан Хэйес, Барбара Ховард, Лоуренс Моносон, Джоан Фриман, Джуди Аронсон, Камилла Мор, Кэри Мор, Лиза Фриман, Уэйн Грейс, Бонни Хеллман, Фрэнки Хилл, Пол Люкатер, Брюс Малер, Энтони Пондзини, Кёрстен Бейкер

Описание: Отсчет убийств продолжается в следующей, леденящей душу, истории о похождениях Джейсона Вурхиза — зловещего мстителя из ада, который в этой картине вынесет смертный приговор новой компании «несчастных людишек». Кровожадный Джейсон, жуткий призрак «Хрустального Озера», возвращается из морга, куда его отправили в предыдущей картине, чтобы устроить настоящую резню!


Видео: 1920x1080, 6717 Kbps
Аудио1: AC3, 2 ch, 192 Kbps - РусскийРусский, Профессиональный (многоголосый закадровый) (Позитив)
Аудио2: AC3, 2 ch, 192 Kbps - РусскийРусский, Авторский (Юрий Живов)
Аудио3: AC3, 2 ch, 192 Kbps - УкраинскийУкраинский, Профессиональный многоголосый ("Интер"))
Субтитры: Нет

Как за пару секунд удалить ненужные аудиодорожки и субтитры (Внимание! После удаления вы не сможете поддержать раздачу)

Медиаинфо
Общее
Уникальный идентификатор : 323861963009908371953710899280093147428 (0xF3A58B94E809FF600B13CEA8AE2C7124)
Полное имя : E:\Ужасы\Пятница 13 (1-10ч),(1980 - 2009)BDRip 1080p [HEVC] 10 bit\04.Пятница, 13-е (Часть 4) Последняя глава Friday the 13th The Final Chapter (1984)BDRip 1080p [HEVC] 10 bit.mkv
Формат : Matroska
Версия формата : Version 4
Размер файла : 4,75 Гбайт
Продолжительность : 1 ч. 31 м.
Общий поток : 7442 Кбит/сек
Название фильма : Пятница, 13-е (Часть 4) Последняя глава / Friday the 13th: The Final Chapter / 1984 _рип_от_Joker63
Программа кодирования : XviD4PSP 7.0.488 PRO
Библиотека кодирования : Lavf57.71.100
Обложка : Yes
ErrorDetectionType : Per level 1
Attachments : cover.jpg
ENCODING_INFO : MATROSKA,WEBM > MKV 1080p 10-bit / H264 > X265 ABR 7000kbps Very Slow / AC3 > AC3 CBR 192kbps / AC3 > AC3 CBR 192kbps / AC3 > AC3 CBR 192kbps
Язык : und

Видео
Идентификатор : 1
Формат : HEVC
Формат/Информация : High Efficiency Video Coding
Профиль формата : Main 10@L5.1@Main
Идентификатор кодека : V_MPEGH/ISO/HEVC
Продолжительность : 1 ч. 31 м.
Битрейт : 6717 Кбит/сек
Ширина : 1920 пикселей
Высота : 1080 пикселей
Соотношение сторон : 16:9
Режим частоты кадров : Постоянный
Частота кадров : 23,976 (24000/1001) кадра/сек
Цветовое пространство : YUV
Субдискретизация насыщенности : 4:2:0
Битовая глубина : 10 бит
Бит/(Пиксели*Кадры) : 0.135
Размер потока : 4,29 Гбайт (90%)
Библиотека кодирования : x265 2.9+9-f74003e88622:[Windows][GCC 8.2.0][64 bit] 10bit
Настройки программы : cpuid=1111039 / frame-threads=13 / numa-pools=12 / wpp / no-pmode / no-pme / no-psnr / no-ssim / log-level=3 / input-csp=1 / input-res=1920x1080 / interlace=0 / total-frames=0 / level-idc=51 / high-tier=1 / uhd-bd=0 / ref=5 / allow-non-conformance / no-repeat-headers / annexb / no-aud / no-hrd / info / hash=0 / no-temporal-layers / open-gop / min-keyint=24 / keyint=240 / gop-lookahead=0 / bframes=6 / b-adapt=2 / b-pyramid / bframe-bias=0 / rc-lookahead=40 / lookahead-slices=6 / scenecut=40 / radl=0 / no-intra-refresh / ctu=64 / min-cu-size=8 / no-rect / no-amp / max-tu-size=32 / tu-inter-depth=1 / tu-intra-depth=1 / limit-tu=0 / rdoq-level=0 / dynamic-rd=0.00 / no-ssim-rd / signhide / no-tskip / nr-intra=0 / nr-inter=0 / no-constrained-intra / strong-intra-smoothing / max-merge=2 / limit-refs=3 / no-limit-modes / me=3 / subme=5 / merange=57 / temporal-mvp / weightp / weightb / no-analyze-src-pics / deblock=-3:-3 / sao / no-sao-non-deblock / rd=3 / no-early-skip / rskip / no-fast-intra / no-tskip-fast / no-cu-lossless / no-b-intra / no-splitrd-skip / rdpenalty=0 / psy-rd=2.00 / psy-rdoq=0.00 / no-rd-refine / no-lossless / cbqpoffs=0 / crqpoffs=0 / rc=abr / bitrate=7000 / qcomp=0.60 / qpstep=4 / stats-write=0 / stats-read=0 / ipratio=1.40 / pbratio=1.30 / aq-mode=1 / aq-strength=1.00 / cutree / zone-count=0 / no-strict-cbr / qg-size=32 / no-rc-grain / qpmax=69 / qpmin=0 / no-const-vbv / sar=1 / overscan=0 / videoformat=5 / range=0 / colorprim=2 / transfer=2 / colormatrix=2 / chromaloc=0 / display-window=0 / max-cll=0,0 / min-luma=0 / max-luma=1023 / log2-max-poc-lsb=8 / vui-timing-info / vui-hrd-info / slices=1 / no-opt-qp-pps / no-opt-ref-list-length-pps / no-multi-pass-opt-rps / scenecut-bias=0.05 / no-opt-cu-delta-qp / no-aq-motion / no-hdr / no-hdr-opt / no-dhdr10-opt / no-idr-recovery-sei / analysis-reuse-level=5 / scale-factor=0 / refine-intra=0 / refine-inter=0 / refine-mv=0 / no-limit-sao / ctu-info=0 / no-lowpass-dct / refine-mv-type=0 / copy-pic=1 / max-ausize-factor=1.0 / no-dynamic-refine / no-single-sei
Default : Да
Forced : Нет
Цветовой диапазон : Limited

Аудио #1
Идентификатор : 2
Формат : AC-3
Формат/Информация : Audio Coding 3
Коммерческое название : Dolby Digital
Идентификатор кодека : A_AC3
Продолжительность : 1 ч. 31 м.
Вид битрейта : Постоянный
Битрейт : 192 Кбит/сек
Каналы : 2 канала
ChannelLayout : L R
Частота : 48,0 КГц
Частота кадров : 31,250 кадров/сек (1536 SPF)
Битовая глубина : 16 бит
Метод сжатия : С потерями
Размер потока : 126 Мбайт (3%)
Заголовок : Профессиональный (многоголосый закадровый) Позитив
Язык : Russian
ServiceKind/String : Complete Main
Default : Да
Forced : Нет

Аудио #2
Идентификатор : 3
Формат : AC-3
Формат/Информация : Audio Coding 3
Коммерческое название : Dolby Digital
Идентификатор кодека : A_AC3
Продолжительность : 1 ч. 31 м.
Вид битрейта : Постоянный
Битрейт : 192 Кбит/сек
Каналы : 2 канала
ChannelLayout : L R
Частота : 48,0 КГц
Частота кадров : 31,250 кадров/сек (1536 SPF)
Битовая глубина : 16 бит
Метод сжатия : С потерями
Размер потока : 126 Мбайт (3%)
Заголовок : Авторский (Юрий Живов)
Язык : Russian
ServiceKind/String : Complete Main
Default : Нет
Forced : Нет

Аудио #3
Идентификатор : 4
Формат : AC-3
Формат/Информация : Audio Coding 3
Коммерческое название : Dolby Digital
Идентификатор кодека : A_AC3
Продолжительность : 1 ч. 31 м.
Вид битрейта : Постоянный
Битрейт : 192 Кбит/сек
Каналы : 2 канала
ChannelLayout : L R
Частота : 48,0 КГц
Частота кадров : 31,250 кадров/сек (1536 SPF)
Битовая глубина : 16 бит
Метод сжатия : С потерями
Размер потока : 126 Мбайт (3%)
Заголовок : Профессиональный многоголосый ("Интер"))
Язык : Ukrainian
ServiceKind/String : Complete Main
Default : Нет
Forced : Нет
Загрузка...Cкриншот1 Пятница 13-е – Часть 4: Последняя глава / Friday the 13th: The Final Chapter (1984) BDRip 1080p [HEVC] 10 bit от joker63Загрузка...Cкриншот2 Пятница 13-е – Часть 4: Последняя глава / Friday the 13th: The Final Chapter (1984) BDRip 1080p [HEVC] 10 bit от joker63Загрузка...Cкриншот3 Пятница 13-е – Часть 4: Последняя глава / Friday the 13th: The Final Chapter (1984) BDRip 1080p [HEVC] 10 bit от joker63Загрузка...Cкриншот4 Пятница 13-е – Часть 4: Последняя глава / Friday the 13th: The Final Chapter (1984) BDRip 1080p [HEVC] 10 bit от joker63
Сэмпл Торрент🧲 Магнет

Рейтинги КП и IMDB, кнопки "Позвать в чате" и "Спасибо", а также мультитрекерная статистика доступны только зарегистрированным/авторизованным пользователям!

Файлы: 1
  • 04.Пятница, 13-е (Часть 4) Последняя глава Friday the 13th The Final Chapter (1984)BDRip 1080p [HEVC] 10 bit.mkv   4.75 ГБ
Поблагодарили: 9
375509, 77carlsson77, bpisti, Chestnoc, donadar, ivan_1965, LastSurviv0r, SaN161NeK, Vitoss6
joker63
0112014.75 ГБ

Добавление нового комментария

Добавление комментариев доступно только зарегистрированным/авторизованным пользователям.