💬 Мини-чат

BrooklynOldGamer, Ок, спасибо, качаю.
OldGamerBrooklyn, они все на раздаче пока что
BrooklynOldGamer, Пораздавайте, пожалуйста, все сезоны сериала "Гримм" ближайшие 3 дня, очень хочу их забрать. Качество отличное. Заранее Благодарен.
StarLordСообщение удалено (удалил: StarLord)
OldGamerвыводить
mafo2Admin, можно вывести, наглядно будет
StarLordAdmin, +
AdminНадпись HDR выводить на обложку?
OldGamerGiggalo, но лучше всего вообще не затрагивайте этот ключ, по умолчанию будет установлено оптимальное значение
OldGamerGiggalo, но если уж очень хочется то пишите --frame-threads 3
OldGamerGiggalo, а зачем его менять?) нужное значение устанавливается автоматически
GiggaloДобрый вечер всем! OldGamer Покажи пожалуйста почему когда пишу в командной строке frame-threads=3 он не меняется. Какой там стоит 13 он его и держит, а ругие установки спокойно меняет?
AdminStarLord, спасибо. Пока сойдет.
StarLordAdmin, ага, вижу
StarLordAdmin, а как должно брать?
AdminStarLord, ты шаришь?
AdminStarLord, у меня сейчас такая, но с точками беда. Доработать бы (https?://([-\w\.]+)+(:\d+)?(/([-\w/_:%]*(\.\w+)*(\?\S+)?)?)?)
AdminStarLord, скрины в bb некорректно берет
StarLordwww, ftp(s), http(s), #, :, &
StarLordAdmin, все мои кейсы покрыла
  • StarLord
  • Alex302
  • InSpector
  • moonson
Отправка сообщений доступна только зарегистрированным/авторизованным пользователям.
Онлайн (за 10 мин.): 4

Жизнь Пи / Life of Pi (2012) BDRip 1080p [HEVC] 10 bit от Mr. Fox

HEVC
10 bit
Обложка Жизнь Пи / Life of Pi (2012) BDRip 1080p [HEVC] 10 bit от Mr. Fox Год: 2012
Страна: США, Тайвань, Великобритания, Канада
Студия: 20th Century Fox, Haishang Films, Rhythm and Hues
Жанр: Фэнтези, Драма, Приключения
Продолжительность: 02:06:59

Режиссер: Энг Ли
В ролях: Сурадж Шарма, Ирфан Кхан, Аюш Тандон, Гаутам Белур, Адиль Хуссэйн, Табу, Аяан Кхан, Мохд Аббас Халили, Вибиш Шивакумар, Рейф Сполл, Жерар Депардье

Описание: Это история сына владельца одного индийского зоопарка, мальчика по имени Пи. Он познаёт мир, учится отстаивать свои принципы, ищет собственную дорогу к Богу, живя по канонам трёх конфессий, влюбляется… Но волей судьбы его семья вынуждена эмигрировать. На полпути между Индией и Канадой корабль терпит крушение, и Пи остаётся в шлюпке вместе с бенгальским тигром, гиеной, зеброй и орангутангом. Вокруг безбрежная водная гладь, а впереди — неизвестность…


Видео: 1920x1036, ~6251 Kbps
Аудио1: AC3, 6 ch, 640 Kbps - РусскийРусский, Дублированный (Лицензия)
Аудио2: AC3, 6 ch, 640 Kbps - УкраинскийУкраинский, Дублированный (Лицензия)
Аудио3: AC3, 6 ch, 640 Kbps - АнглийскийАнглийский, Оригинал
Субтитры: Русские(Force, Full), Украинские (Full), Английские (Force, Full, SDH Color)

Как за пару секунд удалить ненужные аудиодорожки и субтитры (Внимание! После удаления вы не сможете поддержать раздачу)

Медиаинфо
x265 [info]: frame I: 3312, Avg QP:17.78 kb/s: 20666.46
x265 [info]: frame P: 39173, Avg QP:18.82 kb/s: 10072.57
x265 [info]: frame B: 140201, Avg QP:21.05 kb/s: 4397.54
x265 [info]: consecutive B-frames: 15.9% 6.8% 8.1% 35.8% 8.5% 11.9% 2.5% 4.9% 1.5% 1.9% 0.5% 0.7% 0.2%
Avg QP:20.51

Общее
Уникальный идентификатор : 97939328156287672976179697413237027650 (0x49AE6DB10EC607250F360893D34CB342)
Полное имя : H:InstallUploadLife of Pi (2012) BDRip 1080p [HEVC].mkv
Формат : Matroska
Версия формата : Version 4
Размер файла : 7,08 Гбайт
Продолжительность : 2 ч. 6 м.
Общий поток : 7982 Кбит/сек
Название фильма : Life of Pi (2012)
Дата кодирования : UTC 2019-07-16 16:20:03
Программа кодирования : mkvmerge v35.0.0 ('All The Love In The World') 64-bit
Библиотека кодирования : libebml v1.3.9 + libmatroska v1.5.2
Обложка : Yes
Attachments : cover.jpg

Видео
Идентификатор : 1
Формат : HEVC
Формат/Информация : High Efficiency Video Coding
Профиль формата : Main 10@L4.1@High
Идентификатор кодека : V_MPEGH/ISO/HEVC
Продолжительность : 2 ч. 6 м.
Битрейт : 6251 Кбит/сек
Ширина : 1920 пикселей
Высота : 1036 пикселей
Соотношение сторон : 1,85:1
Режим частоты кадров : Постоянный
Частота кадров : 23,976 (23976/1000) кадра/сек
Частота кадров в оригинале : 23,976 (24000/1001) кадра/сек
Цветовое пространство : YUV
Субдискретизация насыщенности : 4:2:0
Битовая глубина : 10 бит
Бит/(Пиксели*Кадры) : 0.131
Размер потока : 5,54 Гбайт (78%)
Библиотека кодирования : x265 3.0_Au+4-dcbec33bfb0f:[Windows][MSVC 1916][64 bit] 10bit
Настройки программы : cpuid=1111039 / frame-threads=3 / numa-pools=12 / wpp / no-pmode / no-pme / no-psnr / no-ssim / log-level=2 / input-csp=1 / input-res=1920x1036 / interlace=0 / total-frames=171562 / level-idc=41 / high-tier=1 / uhd-bd=0 / ref=5 / no-allow-non-conformance / no-repeat-headers / annexb / no-aud / no-hrd / info / hash=0 / no-temporal-layers / open-gop / min-keyint=23 / keyint=240 / gop-lookahead=0 / bframes=12 / b-adapt=2 / b-pyramid / bframe-bias=0 / rc-lookahead=60 / lookahead-slices=4 / scenecut=40 / radl=0 / no-splice / no-intra-refresh / ctu=32 / min-cu-size=8 / rect / amp / max-tu-size=32 / tu-inter-depth=4 / tu-intra-depth=4 / limit-tu=1 / rdoq-level=2 / dynamic-rd=0.00 / no-ssim-rd / signhide / no-tskip / nr-intra=0 / nr-inter=0 / no-constrained-intra / no-strong-intra-smoothing / max-merge=4 / limit-refs=2 / limit-modes / me=3 / subme=7 / merange=57 / temporal-mvp / weightp / weightb / no-analyze-src-pics / deblock=-3:-3 / no-sao / no-sao-non-deblock / rd=6 / no-early-skip / no-rskip / no-fast-intra / no-tskip-fast / no-cu-lossless / no-b-intra / no-splitrd-skip / rdpenalty=0 / psy-rd=2.00 / psy-rdoq=1.00 / no-rd-refine / no-lossless / cbqpoffs=0 / crqpoffs=0 / rc=crf / crf=21.0 / qcomp=0.60 / qpstep=4 / stats-write=0 / stats-read=0 / vbv-maxrate=50000 / vbv-bufsize=50000 / vbv-init=0.9 / crf-max=0.0 / crf-min=0.0 / ipratio=1.40 / pbratio=1.30 / aq-mode=1 / aq-strength=1.00 / no-cutree / zone-count=0 / no-strict-cbr / qg-size=32 / no-rc-grain / qpmax=69 / qpmin=0 / no-const-vbv / sar=1 / overscan=0 / videoformat=5 / range=0 / colorprim=2 / transfer=2 / colormatrix=2 / chromaloc=0 / display-window=0 / max-cll=0,0 / min-luma=0 / max-luma=1023 / log2-max-poc-lsb=8 / vui-timing-info / vui-hrd-info / slices=1 / no-opt-qp-pps / no-opt-ref-list-length-pps / no-multi-pass-opt-rps / scenecut-bias=0.05 / no-opt-cu-delta-qp / no-aq-motion / no-hdr / no-hdr-opt / no-dhdr10-opt / no-idr-recovery-sei / analysis-reuse-level=5 / scale-factor=0 / refine-intra=0 / refine-inter=0 / refine-mv=0 / refine-ctu-distortion=0 / no-limit-sao / ctu-info=0 / no-lowpass-dct / refine-analysis-type=0 / copy-pic=1 / max-ausize-factor=1.0 / no-dynamic-refine / no-single-sei / no-hevc-aq / qp-adaptation-range=1.00
Default : Да
Forced : Нет

Аудио #1
Идентификатор : 2
Формат : AC-3
Формат/Информация : Audio Coding 3
Коммерческое название : Dolby Digital
Идентификатор кодека : A_AC3
Продолжительность : 2 ч. 6 м.
Вид битрейта : Постоянный
Битрейт : 640 Кбит/сек
Каналы : 6 каналов
Channel layout : L R C LFE Ls Rs
Частота : 48,0 КГц
Частота кадров : 31,250 кадров/сек (1536 SPF)
Битовая глубина : 16 бит
Метод сжатия : С потерями
Размер потока : 581 Мбайт (8%)
Заголовок : AC3 / 5.1 ch / 640 kbps / Русский дубляж, R5
Язык : Russian
ServiceKind : Complete Main
Default : Да
Forced : Нет

Аудио #2
Идентификатор : 3
Формат : AC-3
Формат/Информация : Audio Coding 3
Коммерческое название : Dolby Digital
Идентификатор кодека : A_AC3
Продолжительность : 2 ч. 6 м.
Вид битрейта : Постоянный
Битрейт : 448 Кбит/сек
Каналы : 6 каналов
Channel layout : L R C LFE Ls Rs
Частота : 48,0 КГц
Частота кадров : 31,250 кадров/сек (1536 SPF)
Битовая глубина : 16 бит
Метод сжатия : С потерями
Размер потока : 407 Мбайт (6%)
Заголовок : AC3 / 5.1 ch / 448 kbps / Украинский дубляж, R5
Язык : Ukrainian
ServiceKind : Complete Main
Default : Нет
Forced : Нет

Аудио #3
Идентификатор : 4
Формат : AC-3
Формат/Информация : Audio Coding 3
Коммерческое название : Dolby Digital
Идентификатор кодека : A_AC3
Продолжительность : 2 ч. 6 м.
Вид битрейта : Постоянный
Битрейт : 640 Кбит/сек
Каналы : 6 каналов
Channel layout : L R C LFE Ls Rs
Частота : 48,0 КГц
Частота кадров : 31,250 кадров/сек (1536 SPF)
Битовая глубина : 16 бит
Метод сжатия : С потерями
Размер потока : 581 Мбайт (8%)
Заголовок : AC3 / 5.1 ch / 640 kbps / Английский Original, BD
Язык : English
ServiceKind : Complete Main
Default : Нет
Forced : Нет

Текст #1
Идентификатор : 5
Формат : UTF-8
Идентификатор кодека : S_TEXT/UTF8
Идентификатор кодека/Информация : UTF-8 Plain Text
Продолжительность : 1 ч. 36 м.
Битрейт : 2 бит/сек
ElementCount : 32
Размер потока : 1,59 Кбайт (0%)
Заголовок : Forced
Язык : Russian
Default : Да
Forced : Нет

Текст #2
Идентификатор : 6
Формат : UTF-8
Идентификатор кодека : S_TEXT/UTF8
Идентификатор кодека/Информация : UTF-8 Plain Text
Продолжительность : 2 ч. 2 м.
Битрейт : 60 бит/сек
ElementCount : 909
Размер потока : 54,5 Кбайт (0%)
Заголовок : Full
Язык : Russian
Default : Нет
Forced : Нет

Текст #3
Идентификатор : 7
Формат : UTF-8
Идентификатор кодека : S_TEXT/UTF8
Идентификатор кодека/Информация : UTF-8 Plain Text
Продолжительность : 2 ч. 2 м.
Битрейт : 57 бит/сек
ElementCount : 898
Размер потока : 51,4 Кбайт (0%)
Заголовок : Full
Язык : Ukrainian
Default : Нет
Forced : Нет

Текст #4
Идентификатор : 8
Формат : UTF-8
Идентификатор кодека : S_TEXT/UTF8
Идентификатор кодека/Информация : UTF-8 Plain Text
Продолжительность : 1 ч. 36 м.
Битрейт : 1 бит/сек
ElementCount : 32
Размер потока : 978 байт (0%)
Заголовок : Forced
Язык : English
Default : Нет
Forced : Нет

Текст #5
Идентификатор : 9
Формат : UTF-8
Идентификатор кодека : S_TEXT/UTF8
Идентификатор кодека/Информация : UTF-8 Plain Text
Продолжительность : 1 ч. 54 м.
Битрейт : 40 бит/сек
ElementCount : 968
Размер потока : 33,6 Кбайт (0%)
Заголовок : Full
Язык : English
Default : Нет
Forced : Нет

Текст #6
Идентификатор : 10
Формат : UTF-8
Идентификатор кодека : S_TEXT/UTF8
Идентификатор кодека/Информация : UTF-8 Plain Text
Продолжительность : 1 ч. 58 м.
Битрейт : 49 бит/сек
ElementCount : 1142
Размер потока : 42,9 Кбайт (0%)
Заголовок : SDH Color
Язык : English
Default : Нет
Forced : Нет

Меню
00:00:00.000 : :Chapter 01
00:03:58.821 : :Chapter 02
00:11:13.172 : :Chapter 03
00:15:24.924 : :Chapter 04
00:21:29.621 : :Chapter 05
00:25:44.542 : :Chapter 06
00:29:46.826 : :Chapter 07
00:31:31.014 : :Chapter 08
00:35:34.298 : :Chapter 09
00:45:24.346 : :Chapter 10
00:50:21.893 : :Chapter 11
00:54:13.333 : :Chapter 12
00:57:18.351 : :Chapter 13
01:00:07.395 : :Chapter 14
01:04:12.056 : :Chapter 15
01:09:32.084 : :Chapter 16
01:11:48.053 : :Chapter 17
01:13:34.284 : :Chapter 18
01:16:47.561 : :Chapter 19
01:21:31.177 : :Chapter 20
01:23:10.026 : :Chapter 21
01:26:30.852 : :Chapter 22
01:31:21.434 : :Chapter 23
01:34:13.856 : :Chapter 24
01:43:42.674 : :Chapter 25
01:47:38.660 : :Chapter 26
01:55:20.079 : :Chapter 27
01:59:16.274 : :Chapter 28
Загрузка...Cкриншот1 Жизнь Пи / Life of Pi (2012) BDRip 1080p [HEVC] 10 bit от Mr. FoxЗагрузка...Cкриншот2 Жизнь Пи / Life of Pi (2012) BDRip 1080p [HEVC] 10 bit от Mr. FoxЗагрузка...Cкриншот3 Жизнь Пи / Life of Pi (2012) BDRip 1080p [HEVC] 10 bit от Mr. FoxЗагрузка...Cкриншот4 Жизнь Пи / Life of Pi (2012) BDRip 1080p [HEVC] 10 bit от Mr. Fox
Сэмпл Торрент🧲 Магнет

Рейтинги КП и IMDB, кнопки "Позвать в чате" и "Спасибо", а также мультитрекерная статистика сидов и пиров доступны только зарегистрированным/авторизованным пользователям!

Файлы: 1
  • Life of Pi (2012) BDRip 1080p [HEVC].mkv   7.08 ГБ
Поблагодарили: 7
375509, icesnoop, Ierfanta, makss333, MIGRANT, mixeyvrn84, mvclub
OldGamer
02380227.08 ГБ

Добавление нового комментария

Добавление комментариев доступно только зарегистрированным/авторизованным пользователям.