💬 Мини-чат

Убедительная просьба не обсуждать тут политику.
AdminЛёшикоБэст, вроде потихоньку идёт. Подождем, если не докачается, то встану.
AdminЛёшикоБэст, перекачайте торрент, а то в профиле не отображается ждете или уже нет
ЛёшикоБэстРаздайте, пожалуйста, Неудержимые / The Expendables (2010) [Theatrical Cut] BDRip 1080p [HEVC] 10 bit от Spartanec1308
OldGamerДа, есть.
ЛёшикоБэстДоброго вечера) Скажите пожалуйста, есть ли в планах сделать релиз дилогии "Зорро" с Антонио Бандерасом?
HANNIBALAdmin, 👍
AdminГоро, встал
ГороРаздайте, пожалуйста, Хищники / Predators (2010) BDRip 1080p [HEVC] 10 bit от HANNIBAL
AdminHANNIBAL, привет. Не помню за сколько брал, но продление в этот раз обошлось примерно в $14 со всякими комиссиями. А аренда VDS обходится примерно в $30-35 за год. Не исключено, что всё это подорожает. Пока что пожертвования с трудом покрывают расходы. Иногда если требуется и со своего кармана оплачиваю, не страшно. Прорвемся.
HANNIBALсколько сейчас стоит
HANNIBALAdmin, ПРИВЕТ
AdminНаконец-то получил банковскую карту. Продлил доменное имя (адрес сайта) на год.
  • ivan_1965
Отправка сообщений доступна только зарегистрированным/авторизованным пользователям.
Онлайн (за 10 мин.): 1

Видок: Охотник на призраков / L'Empereur de Paris (2018) BDRip 1080p [HEVC] 10 bit от HANNIBAL

HEVC
10 bit
Обложка Видок: Охотник на призраков / L'Empereur de Paris (2018) BDRip 1080p [HEVC] 10 bit от HANNIBAL Год: 2018
Страна: Франция
Студия: Mandarin Films, Gaumont, France 2 Cinéma
Жанр: Триллер, Криминал, Приключения, История
Продолжительность: 02:00:05

Режиссер: Жан-Франсуа Рише
В ролях: Венсан Кассель, Патрик Шене, Аугуст Диль, Ольга Куриленко, Дени Лаван, Фрейя Мавор, Дени Меноше, Жером Пули, Джеймс Тьерре, Фабрис Лукини

Описание: Реальная история легендарного французского сыщика XIX века Эжена Франсуа Видока. Ловкий преступник и мастер по части побегов из тюрем Видок менял города и профессии, пока не был нанят наполеоновским правительством очистить улицы Парижа от криминала. Зная преступный мир изнутри, Видок стал самым успешным детективом своей эпохи и настоящим Императором Парижа.


Видео: 1920x804, 9487 Kbps
Аудио: AC3, 2 ch, 192 Kbps - РусскийРусский, Многоголосый (HDRezka Studio)
Субтитры: нет

Медиаинфо
General
Unique ID : 28902409505944130931744017849334996583 (0x15BE66CED09950F1C632E0C326159E67)
Complete name : E:\L'Empereur de Paris (2018) BDRip 1080p [HEVC] 10bit.mkv
Format : Matroska
Format version : Version 4
File size : 8.12 GiB
Duration : 2 h 0 min
Overall bit rate : 9 682 kb/s
Movie name : Видок: Охотник на призраков
Encoded date : UTC 2019-06-17 19:31:37
Writing application : mkvmerge v25.0.0 ('Prog Noir') 64-bit
Writing library : libebml v1.3.6 + libmatroska v1.4.9 / Lavf57.71.100
Attachments : poster.jpg
ACTORS : Ольга Куриленко, Венсан Кассель,
COUNTRY : Франция
DATE : 2018
DIRECTOR : Жан-Франсуа Рише
ENCODING_INFO : MATROSKA,WEBM > MKV / H264 > X265 CRF 19.5 Пользовательский 2
GENRE : приключения, история
HD_VIDEO : 1
Language : und
MEDIA_TYPE : 9
ORIGINAL_TITLE : L'Empereur de Paris

Video
ID : 1
Format : HEVC
Format/Info : High Efficiency Video Coding
Format profile : Main 10@L4.1@High
Codec ID : V_MPEGH/ISO/HEVC
Duration : 2 h 0 min
Bit rate : 9 487 kb/s
Width : 1 920 pixels
Height : 804 pixels
Display aspect ratio : 2.40:1
Frame rate mode : Constant
Frame rate : 23.976 (24000/1001) FPS
Color space : YUV
Chroma subsampling : 4:2:0
Bit depth : 10 bits
Bits/(Pixel*Frame) : 0.256
Stream size : 7.96 GiB (98%)
Writing library : x265 2.9+9-f74003e88622:[Windows][GCC 8.2.0][64 bit] 10bit
Encoding settings : cpuid=1111039 / frame-threads=13 / numa-pools=12 / wpp / no-pmode / no-pme / no-psnr / no-ssim / log-level=3 / input-csp=1 / input-res=1920x804 / interlace=0 / total-frames=0 / level-idc=41 / high-tier=1 / uhd-bd=0 / ref=5 / allow-non-conformance / no-repeat-headers / annexb / no-aud / no-hrd / info / hash=0 / no-temporal-layers / open-gop / min-keyint=23 / keyint=240 / gop-lookahead=0 / bframes=8 / b-adapt=2 / b-pyramid / bframe-bias=0 / rc-lookahead=60 / lookahead-slices=4 / scenecut=40 / radl=0 / no-intra-refresh / ctu=64 / min-cu-size=8 / rect / amp / max-tu-size=32 / tu-inter-depth=4 / tu-intra-depth=4 / limit-tu=0 / rdoq-level=2 / dynamic-rd=0.00 / no-ssim-rd / signhide / no-tskip / nr-intra=0 / nr-inter=0 / no-constrained-intra / no-strong-intra-smoothing / max-merge=5 / limit-refs=2 / limit-modes / me=3 / subme=7 / merange=57 / temporal-mvp / weightp / weightb / no-analyze-src-pics / deblock=-3:-3 / no-sao / no-sao-non-deblock / rd=6 / no-early-skip / rskip / no-fast-intra / no-tskip-fast / no-cu-lossless / b-intra / no-splitrd-skip / rdpenalty=0 / psy-rd=2.00 / psy-rdoq=1.00 / no-rd-refine / no-lossless / cbqpoffs=0 / crqpoffs=0 / rc=crf / crf=19.5 / qcomp=0.70 / qpstep=4 / stats-write=0 / stats-read=0 / vbv-maxrate=50000 / vbv-bufsize=50000 / vbv-init=0.9 / crf-max=0.0 / crf-min=0.0 / ipratio=1.40 / pbratio=1.30 / aq-mode=2 / aq-strength=1.00 / no-cutree / zone-count=0 / no-strict-cbr / qg-size=32 / no-rc-grain / qpmax=69 / qpmin=0 / no-const-vbv / sar=1 / overscan=0 / videoformat=5 / range=0 / colorprim=1 / transfer=1 / colormatrix=1 / chromaloc=0 / display-window=0 / max-cll=0,0 / min-luma=0 / max-luma=1023 / log2-max-poc-lsb=8 / vui-timing-info / vui-hrd-info / slices=1 / no-opt-qp-pps / no-opt-ref-list-length-pps / no-multi-pass-opt-rps / scenecut-bias=0.05 / no-opt-cu-delta-qp / aq-motion / no-hdr / no-hdr-opt / no-dhdr10-opt / no-idr-recovery-sei / analysis-reuse-level=5 / scale-factor=0 / refine-intra=0 / refine-inter=0 / refine-mv=0 / no-limit-sao / ctu-info=0 / no-lowpass-dct / refine-mv-type=0 / copy-pic=1 / max-ausize-factor=1.0 / no-dynamic-refine / no-single-sei
Language : French
Default : Yes
Forced : No
Color range : Limited
Color primaries : BT.709
Transfer characteristics : BT.709
Matrix coefficients : BT.709

Audio
ID : 2
Format : AC-3
Format/Info : Audio Coding 3
Commercial name : Dolby Digital
Codec ID : A_AC3
Duration : 2 h 0 min
Bit rate mode : Constant
Bit rate : 192 kb/s
Channel(s) : 2 channels
Channel layout : L R
Sampling rate : 48.0 kHz
Frame rate : 31.250 FPS (1536 SPF)
Bit depth : 16 bits
Compression mode : Lossy
Stream size : 165 MiB (2%)
Title : MVO HDrezka Studio
Language : Russian
Service kind : Complete Main
Default : Yes
Forced : No

Menu
00:00:00.000 : :Chapter 1
00:10:12.821 : :Chapter 2
00:19:20.493 : :Chapter 3
00:30:27.325 : :Chapter 4
00:41:02.293 : :Chapter 5
00:54:33.020 : :Chapter 6
01:06:07.338 : :Chapter 7
01:15:48.335 : :Chapter 8
01:23:11.778 : :Chapter 9
01:32:59.240 : :Chapter 10
01:42:15.504 : :Chapter 11
01:54:05.213 : :Chapter 12
Загрузка...Cкриншот1 Видок: Охотник на призраков / L'Empereur de Paris (2018) BDRip 1080p [HEVC] 10 bit от HANNIBALЗагрузка...Cкриншот2 Видок: Охотник на призраков / L'Empereur de Paris (2018) BDRip 1080p [HEVC] 10 bit от HANNIBALЗагрузка...Cкриншот3 Видок: Охотник на призраков / L'Empereur de Paris (2018) BDRip 1080p [HEVC] 10 bit от HANNIBALЗагрузка...Cкриншот4 Видок: Охотник на призраков / L'Empereur de Paris (2018) BDRip 1080p [HEVC] 10 bit от HANNIBAL
Торрент🧲 Магнет

Рейтинги КП и IMDB, кнопки "Позвать в чате" и "Спасибо", а также мультитрекерная статистика доступны только зарегистрированным/авторизованным пользователям!

Файлы: 1
  • L'Empereur de Paris (2018) BDRip 1080p [HEVC] 10bit.mkv   8.12 ГБ
Поблагодарили: 5
alusston, Dmitrrry, LastSurviv0r, Nuclear70, ostfamily
Admin
02018.12 ГБ

Добавление нового комментария

Добавление комментариев доступно только зарегистрированным/авторизованным пользователям.