💬 Мини-чат

GiggaloСообщение удалено (удалил: Giggalo)
StarLordOldGamer, как дела?)
StarLordOldGamer, ура, вернулся 😄
OldGamerRezident, можете скачать этот фильм от другого релизёра, там невелика разница, а раздающие точно есть
OldGamerGiggalo, https://tsya.ru/mnemonic.html
NoMaDСообщение удалено (удалил: NoMaD)
NoMaDСообщение удалено (удалил: NoMaD)
GiggaloСообщение удалено (удалил: Giggalo)
GiggaloСообщение удалено (удалил: Giggalo)
Spartanec1308Был днём
StarLordGiggalo, наверное отрубало беднягу, целый день его нету 😅
GiggaloСообщение удалено (удалил: Giggalo)
OldGamerДоброе. Работы много, некогда на перинах валяться.
GiggaloСообщение удалено (удалил: Giggalo)
GiggaloСообщение удалено (удалил: Giggalo)
  • StarLord
  • mr_nikitin
Отправка сообщений доступна только зарегистрированным/авторизованным пользователям.
Онлайн (за 10 мин.): 2

Гарри Поттер: Антология / Harry Potter: Anthology (2001-2011) BDRip 1080p [HEVC] 10 bit от Mr. Fox

HEVC
10 bit
Обложка Гарри Поттер: Антология / Harry Potter: Anthology (2001-2011) BDRip 1080p [HEVC] 10 bit от Mr. Fox Год: 2001-2011
Страна: Великобритания, США
Студия: Warner Bros., Heyday Films, 1492 Pictures
Жанр: Фэнтези, Приключения, Семейный

1. Гарри Поттер и философский камень / Harry Potter and the Sorcerer's Stone (2001) [Extended Edition] BDRip 1080p [HEVC] 10 bit от Mr. Fox
HEVC
10 bit
Обложка Гарри Поттер и философский камень / Harry Potter and the Sorcerer's Stone (2001) [Extended Edition] BDRip 1080p [HEVC] 10 bit от Mr. Fox Год: 2001
Страна: Великобритания, США
Студия: Warner Bros., Heyday Films, 1492 Pictures
Жанр: Фэнтези, Приключения, Семейный
Продолжительность: 02:38:50

Режиссер: Крис Коламбус
В ролях: Дэниэл Рэдклифф, Руперт Гринт, Эмма Уотсон, Ричард Харрис, Алан Рикман, Мэгги Смит, Робби Колтрейн, Том Фелтон, Мэттью Льюис, Иэн Харт

Описание: Жизнь десятилетнего Гарри Поттера нельзя назвать сладкой: его родители умерли, едва ему исполнился год, а от дяди и тётки, взявших сироту на воспитание, достаются лишь тычки да подзатыльники. Но в одиннадцатый день рождения Гарри всё меняется. Странный гость, неожиданно появившийся на пороге, приносит письмо, из которого мальчик узнаёт, что на самом деле он волшебник и принят в Хогвартс — школу магии. А уже через пару недель Гарри будет мчаться в поезде Хогвартс-экспресс навстречу новой жизни, где его ждут невероятные приключения, верные друзья и самое главное — ключ к разгадке тайны смерти его родителей.


Видео: 1920x796, 6812 Kbps
Аудио1: AC3, 6 ch, 448 Kbps - РусскийРусский, Дублированный
Аудио2: AC3, 6 ch, 640 Kbps - АнглийскийАнглийский, Оригинал
Субтитры: Русские, английские

Как за пару секунд удалить ненужные аудиодорожки и субтитры (Внимание! После удаления вы не сможете поддержать раздачу)

Медиаинфо
x265 [info]: frame I: Avg QP:17.82
x265 [info]: frame P: Avg QP:19.00
x265 [info]: frame B: Avg QP:20.98
x265 [info]: consecutive B-frames: 15.4% 4.0% 7.7% 12.8% 14.8% 26.7% 5.3% 5.1% 2.0% 0.8% 1.8% 1.4% 0.4%

Avg QP:20.57

Общее
Уникальный идентификатор : 302214719329830622701932613435700819893 (0xE35C7010FC7EA0BD1FFAFC8AAF4837B5)
Полное имя : H:InstallUpload1. Harry Potter and the Sorcerer's Stone (2001) BDRip 1080p [HEVC].mkv
Формат : Matroska
Версия формата : Version 4
Размер файла : 8,77 Гбайт
Продолжительность : 2 ч. 38 м.
Общий поток : 7902 Кбит/сек
Название фильма : Harry Potter and the Sorcerer's Stone (2001)
Дата кодирования : UTC 2019-08-02 05:08:25
Программа кодирования : mkvmerge v35.0.0 ('All The Love In The World') 64-bit
Библиотека кодирования : libebml v1.3.9 + libmatroska v1.5.2
Обложка : Yes
Attachments : cover.jpg

Видео
Идентификатор : 1
Формат : HEVC
Формат/Информация : High Efficiency Video Coding
Профиль формата : Main 10@L4.1@High
Идентификатор кодека : V_MPEGH/ISO/HEVC
Продолжительность : 2 ч. 38 м.
Битрейт : 6812 Кбит/сек
Ширина : 1920 пикселей
Высота : 796 пикселей
Соотношение сторон : 2,40:1
Режим частоты кадров : Постоянный
Частота кадров : 23,976 (24000/1001) кадра/сек
Цветовое пространство : YUV
Субдискретизация насыщенности : 4:2:0
Битовая глубина : 10 бит
Бит/(Пиксели*Кадры) : 0.186
Размер потока : 7,56 Гбайт (86%)
Библиотека кодирования : x265 3.0_Au+4-dcbec33bfb0f:[Windows][MSVC 1916][64 bit] 10bit
Настройки программы : cpuid=1111039 / frame-threads=3 / numa-pools=12 / wpp / no-pmode / no-pme / no-psnr / no-ssim / log-level=2 / input-csp=1 / input-res=1920x796 / interlace=0 / total-frames=216678 / level-idc=41 / high-tier=1 / uhd-bd=0 / ref=5 / no-allow-non-conformance / no-repeat-headers / annexb / no-aud / no-hrd / info / hash=0 / no-temporal-layers / open-gop / min-keyint=23 / keyint=240 / gop-lookahead=0 / bframes=12 / b-adapt=2 / b-pyramid / bframe-bias=0 / rc-lookahead=60 / lookahead-slices=4 / scenecut=40 / radl=0 / no-splice / no-intra-refresh / ctu=32 / min-cu-size=8 / rect / amp / max-tu-size=32 / tu-inter-depth=4 / tu-intra-depth=4 / limit-tu=1 / rdoq-level=2 / dynamic-rd=0.00 / no-ssim-rd / signhide / no-tskip / nr-intra=0 / nr-inter=0 / no-constrained-intra / no-strong-intra-smoothing / max-merge=4 / limit-refs=2 / limit-modes / me=3 / subme=7 / merange=57 / temporal-mvp / weightp / weightb / no-analyze-src-pics / deblock=-3:-3 / no-sao / no-sao-non-deblock / rd=6 / no-early-skip / no-rskip / no-fast-intra / no-tskip-fast / no-cu-lossless / no-b-intra / no-splitrd-skip / rdpenalty=0 / psy-rd=2.00 / psy-rdoq=1.00 / no-rd-refine / no-lossless / cbqpoffs=0 / crqpoffs=0 / rc=crf / crf=21.0 / qcomp=0.70 / qpstep=4 / stats-write=0 / stats-read=0 / vbv-maxrate=50000 / vbv-bufsize=50000 / vbv-init=0.9 / crf-max=0.0 / crf-min=0.0 / ipratio=1.40 / pbratio=1.30 / aq-mode=1 / aq-strength=1.00 / no-cutree / zone-count=0 / no-strict-cbr / qg-size=32 / no-rc-grain / qpmax=69 / qpmin=0 / no-const-vbv / sar=1 / overscan=0 / videoformat=5 / range=0 / colorprim=2 / transfer=2 / colormatrix=2 / chromaloc=0 / display-window=0 / max-cll=0,0 / min-luma=0 / max-luma=1023 / log2-max-poc-lsb=8 / vui-timing-info / vui-hrd-info / slices=1 / no-opt-qp-pps / no-opt-ref-list-length-pps / no-multi-pass-opt-rps / scenecut-bias=0.05 / no-opt-cu-delta-qp / no-aq-motion / no-hdr / no-hdr-opt / no-dhdr10-opt / no-idr-recovery-sei / analysis-reuse-level=5 / scale-factor=0 / refine-intra=0 / refine-inter=0 / refine-mv=0 / refine-ctu-distortion=0 / no-limit-sao / ctu-info=0 / no-lowpass-dct / refine-analysis-type=0 / copy-pic=1 / max-ausize-factor=1.0 / no-dynamic-refine / no-single-sei / no-hevc-aq / qp-adaptation-range=1.00
Default : Да
Forced : Нет

Аудио #1
Идентификатор : 2
Формат : AC-3
Формат/Информация : Audio Coding 3
Коммерческое название : Dolby Digital
Идентификатор кодека : A_AC3
Продолжительность : 2 ч. 38 м.
Вид битрейта : Постоянный
Битрейт : 448 Кбит/сек
Каналы : 6 каналов
Channel layout : L R C LFE Ls Rs
Частота : 48,0 КГц
Частота кадров : 31,250 кадров/сек (1536 SPF)
Битовая глубина : 16 бит
Метод сжатия : С потерями
Размер потока : 509 Мбайт (6%)
Заголовок : Дубляж
Язык : Russian
ServiceKind : Complete Main
Default : Да
Forced : Нет

Аудио #2
Идентификатор : 3
Формат : AC-3
Формат/Информация : Audio Coding 3
Коммерческое название : Dolby Digital
Идентификатор кодека : A_AC3
Продолжительность : 2 ч. 38 м.
Вид битрейта : Постоянный
Битрейт : 640 Кбит/сек
Каналы : 6 каналов
Channel layout : L R C LFE Ls Rs
Частота : 48,0 КГц
Частота кадров : 31,250 кадров/сек (1536 SPF)
Битовая глубина : 16 бит
Метод сжатия : С потерями
Размер потока : 727 Мбайт (8%)
Заголовок : Original
Язык : English
ServiceKind : Complete Main
Default : Нет
Forced : Нет

Текст #1
Идентификатор : 4
Формат : UTF-8
Идентификатор кодека : S_TEXT/UTF8
Идентификатор кодека/Информация : UTF-8 Plain Text
Продолжительность : 2 ч. 29 м.
Битрейт : 74 бит/сек
ElementCount : 1315
Размер потока : 82,2 Кбайт (0%)
Язык : Russian
Default : Нет
Forced : Нет

Текст #2
Идентификатор : 5
Формат : UTF-8
Идентификатор кодека : S_TEXT/UTF8
Идентификатор кодека/Информация : UTF-8 Plain Text
Продолжительность : 2 ч. 37 м.
Битрейт : 41 бит/сек
ElementCount : 1293
Размер потока : 47,3 Кбайт (0%)
Язык : English
Default : Нет
Forced : Нет

Меню
00:00:00.000 : :Глава 01
00:10:00.000 : :Глава 02
00:20:00.000 : :Глава 03
00:30:00.000 : :Глава 04
00:40:00.000 : :Глава 05
00:50:00.000 : :Глава 06
01:00:00.000 : :Глава 07
01:10:00.000 : :Глава 08
01:20:00.000 : :Глава 09
01:30:00.000 : :Глава 10
01:40:00.000 : :Глава 11
01:50:00.000 : :Глава 12
02:00:00.000 : :Глава 13
02:10:00.000 : :Глава 14
02:20:00.000 : :Глава 15
02:30:00.000 : :Глава 16
Загрузка...Cкриншот1 Гарри Поттер и философский камень / Harry Potter and the Sorcerer's Stone (2001) [Extended Edition] BDRip 1080p [HEVC] 10 bit от Mr. FoxЗагрузка...Cкриншот2 Гарри Поттер и философский камень / Harry Potter and the Sorcerer's Stone (2001) [Extended Edition] BDRip 1080p [HEVC] 10 bit от Mr. FoxЗагрузка...Cкриншот3 Гарри Поттер и философский камень / Harry Potter and the Sorcerer's Stone (2001) [Extended Edition] BDRip 1080p [HEVC] 10 bit от Mr. FoxЗагрузка...Cкриншот4 Гарри Поттер и философский камень / Harry Potter and the Sorcerer's Stone (2001) [Extended Edition] BDRip 1080p [HEVC] 10 bit от Mr. Fox
2. Гарри Поттер и Тайная комната / Harry Potter and the Chamber of Secrets (2002) [Extended Edition] BDRip 1080p [HEVC] 10 bit от Mr. Fox
HEVC
10 bit
Обложка Гарри Поттер и Тайная комната / Harry Potter and the Chamber of Secrets (2002) [Extended Edition] BDRip 1080p [HEVC] 10 bit от Mr. Fox Год: 2002
Страна: Великобритания, США, Германия
Студия: Warner Bros., Heyday Films, 1492 Pictures, Miracle Productions GmbH
Жанр: Фэнтези, Приключения, Семейный
Продолжительность: 02:54:25

Режиссер: Крис Коламбус
В ролях: Дэниэл Рэдклифф, Руперт Гринт, Эмма Уотсон, Том Фелтон, Кеннет Брана, Бонни Райт, Алан Рикман, Ричард Харрис, Мэгги Смит, Робби Колтрейн

Описание: Гарри Поттер переходит на второй курс Школы чародейства и волшебства Хогвартс. Эльф Добби предупреждает Гарри об опасности, которая поджидает его там, и просит больше не возвращаться в школу. Юный волшебник не следует совету эльфа и становится свидетелем таинственных событий, разворачивающихся в Хогвартсе. Вскоре Гарри и его друзья узнают о существовании Тайной Комнаты и сталкиваются с новыми приключениями, пытаясь победить темные силы.


Видео: 1920x800, 5889 Kbps
Аудио1: AC3, 6 ch, 640 Kbps - РусскийРусский, Дублированный
Аудио2: AC3, 6 ch, 640 Kbps - АнглийскийАнглийский, Оригинал
Субтитры: Русские, английские

Как за пару секунд удалить ненужные аудиодорожки и субтитры (Внимание! После удаления вы не сможете поддержать раздачу)

Медиаинфо
x265 [info]: frame I: Avg QP:17.77
x265 [info]: frame P: Avg QP:19.00
x265 [info]: frame B: Avg QP:20.92
x265 [info]: consecutive B-frames: 9.2% 3.4% 5.2% 14.5% 7.9% 39.0% 4.8% 5.4% 1.9% 1.9% 2.2% 4.0% 0.5%

Avg QP:20.55

Общее
Уникальный идентификатор : 16893616459236863896070894618389923567 (0xCB5979928EB75A5CC67F7EB60FE46EF)
Полное имя : H:InstallUpload2. Harry Potter and the Chamber of Secrets (2002) BDRip 1080p [HEVC].mkv
Формат : Matroska
Версия формата : Version 4
Размер файла : 8,74 Гбайт
Продолжительность : 2 ч. 54 м.
Общий поток : 7171 Кбит/сек
Название фильма : Harry Potter and the Chamber of Secrets (2002)
Дата кодирования : UTC 2019-08-04 03:04:12
Программа кодирования : mkvmerge v35.0.0 ('All The Love In The World') 64-bit
Библиотека кодирования : libebml v1.3.9 + libmatroska v1.5.2
Обложка : Yes
Attachments : cover.jpg

Видео
Идентификатор : 1
Формат : HEVC
Формат/Информация : High Efficiency Video Coding
Профиль формата : Main 10@L4.1@High
Идентификатор кодека : V_MPEGH/ISO/HEVC
Продолжительность : 2 ч. 54 м.
Битрейт : 5889 Кбит/сек
Ширина : 1920 пикселей
Высота : 800 пикселей
Соотношение сторон : 2,40:1
Режим частоты кадров : Постоянный
Частота кадров : 23,976 (23976/1000) кадра/сек
Частота кадров в оригинале : 23,976 (24000/1001) кадра/сек
Цветовое пространство : YUV
Субдискретизация насыщенности : 4:2:0
Битовая глубина : 10 бит
Бит/(Пиксели*Кадры) : 0.160
Размер потока : 7,17 Гбайт (82%)
Библиотека кодирования : x265 3.0_Au+4-dcbec33bfb0f:[Windows][MSVC 1916][64 bit] 10bit
Настройки программы : cpuid=1111039 / frame-threads=3 / numa-pools=12 / wpp / no-pmode / no-pme / no-psnr / no-ssim / log-level=2 / input-csp=1 / input-res=1920x800 / interlace=0 / total-frames=237580 / level-idc=41 / high-tier=1 / uhd-bd=0 / ref=5 / no-allow-non-conformance / no-repeat-headers / annexb / no-aud / no-hrd / info / hash=0 / no-temporal-layers / open-gop / min-keyint=23 / keyint=240 / gop-lookahead=0 / bframes=12 / b-adapt=2 / b-pyramid / bframe-bias=0 / rc-lookahead=60 / lookahead-slices=4 / scenecut=40 / radl=0 / no-splice / no-intra-refresh / ctu=32 / min-cu-size=8 / rect / amp / max-tu-size=32 / tu-inter-depth=4 / tu-intra-depth=4 / limit-tu=1 / rdoq-level=2 / dynamic-rd=0.00 / no-ssim-rd / signhide / no-tskip / nr-intra=0 / nr-inter=0 / no-constrained-intra / no-strong-intra-smoothing / max-merge=4 / limit-refs=2 / limit-modes / me=3 / subme=7 / merange=57 / temporal-mvp / weightp / weightb / no-analyze-src-pics / deblock=-3:-3 / no-sao / no-sao-non-deblock / rd=6 / no-early-skip / no-rskip / no-fast-intra / no-tskip-fast / no-cu-lossless / no-b-intra / no-splitrd-skip / rdpenalty=0 / psy-rd=2.00 / psy-rdoq=1.00 / no-rd-refine / no-lossless / cbqpoffs=0 / crqpoffs=0 / rc=crf / crf=21.0 / qcomp=0.70 / qpstep=4 / stats-write=0 / stats-read=0 / vbv-maxrate=50000 / vbv-bufsize=50000 / vbv-init=0.9 / crf-max=0.0 / crf-min=0.0 / ipratio=1.40 / pbratio=1.30 / aq-mode=1 / aq-strength=1.00 / no-cutree / zone-count=0 / no-strict-cbr / qg-size=32 / no-rc-grain / qpmax=69 / qpmin=0 / no-const-vbv / sar=1 / overscan=0 / videoformat=5 / range=0 / colorprim=2 / transfer=2 / colormatrix=2 / chromaloc=0 / display-window=0 / max-cll=0,0 / min-luma=0 / max-luma=1023 / log2-max-poc-lsb=8 / vui-timing-info / vui-hrd-info / slices=1 / no-opt-qp-pps / no-opt-ref-list-length-pps / no-multi-pass-opt-rps / scenecut-bias=0.05 / no-opt-cu-delta-qp / no-aq-motion / no-hdr / no-hdr-opt / no-dhdr10-opt / no-idr-recovery-sei / analysis-reuse-level=5 / scale-factor=0 / refine-intra=0 / refine-inter=0 / refine-mv=0 / refine-ctu-distortion=0 / no-limit-sao / ctu-info=0 / no-lowpass-dct / refine-analysis-type=0 / copy-pic=1 / max-ausize-factor=1.0 / no-dynamic-refine / no-single-sei / no-hevc-aq / qp-adaptation-range=1.00
Default : Да
Forced : Нет

Аудио #1
Идентификатор : 2
Формат : AC-3
Формат/Информация : Audio Coding 3
Коммерческое название : Dolby Digital
Идентификатор кодека : A_AC3
Продолжительность : 2 ч. 54 м.
Вид битрейта : Постоянный
Битрейт : 640 Кбит/сек
Каналы : 6 каналов
Channel layout : L R C LFE Ls Rs
Частота : 48,0 КГц
Частота кадров : 31,250 кадров/сек (1536 SPF)
Битовая глубина : 16 бит
Метод сжатия : С потерями
Размер потока : 798 Мбайт (9%)
Заголовок : Дубляж
Язык : Russian
ServiceKind : Complete Main
Default : Да
Forced : Нет

Аудио #2
Идентификатор : 3
Формат : AC-3
Формат/Информация : Audio Coding 3
Коммерческое название : Dolby Digital
Идентификатор кодека : A_AC3
Продолжительность : 2 ч. 54 м.
Вид битрейта : Постоянный
Битрейт : 640 Кбит/сек
Каналы : 6 каналов
Channel layout : L R C LFE Ls Rs
Частота : 48,0 КГц
Частота кадров : 31,250 кадров/сек (1536 SPF)
Битовая глубина : 16 бит
Метод сжатия : С потерями
Размер потока : 798 Мбайт (9%)
Язык : English
ServiceKind : Complete Main
Default : Нет
Forced : Нет

Текст #1
Идентификатор : 4
Формат : UTF-8
Идентификатор кодека : S_TEXT/UTF8
Идентификатор кодека/Информация : UTF-8 Plain Text
Продолжительность : 2 ч. 44 м.
Битрейт : 89 бит/сек
ElementCount : 1759
Размер потока : 108 Кбайт (0%)
Язык : Russian
Default : Нет
Forced : Нет

Текст #2
Идентификатор : 5
Формат : UTF-8
Идентификатор кодека : S_TEXT/UTF8
Идентификатор кодека/Информация : UTF-8 Plain Text
Продолжительность : 2 ч. 53 м.
Битрейт : 47 бит/сек
ElementCount : 1637
Размер потока : 60,6 Кбайт (0%)
Язык : English
Default : Нет
Forced : Нет

Меню
00:00:00.000 : :Глава 01
00:10:00.000 : :Глава 02
00:20:00.000 : :Глава 03
00:30:00.000 : :Глава 04
00:40:00.000 : :Глава 05
00:50:00.000 : :Глава 06
01:00:00.000 : :Глава 07
01:10:00.000 : :Глава 08
01:20:00.000 : :Глава 09
01:30:00.000 : :Глава 10
01:40:00.000 : :Глава 11
01:50:00.000 : :Глава 12
02:00:00.000 : :Глава 13
02:10:00.000 : :Глава 14
02:20:00.000 : :Глава 15
02:30:00.000 : :Глава 16
02:40:00.000 : :Глава 17
02:50:00.000 : :Глава 18
Загрузка...Cкриншот1 Гарри Поттер и Тайная комната / Harry Potter and the Chamber of Secrets (2002) [Extended Edition] BDRip 1080p [HEVC] 10 bit от Mr. FoxЗагрузка...Cкриншот2 Гарри Поттер и Тайная комната / Harry Potter and the Chamber of Secrets (2002) [Extended Edition] BDRip 1080p [HEVC] 10 bit от Mr. FoxЗагрузка...Cкриншот3 Гарри Поттер и Тайная комната / Harry Potter and the Chamber of Secrets (2002) [Extended Edition] BDRip 1080p [HEVC] 10 bit от Mr. FoxЗагрузка...Cкриншот4 Гарри Поттер и Тайная комната / Harry Potter and the Chamber of Secrets (2002) [Extended Edition] BDRip 1080p [HEVC] 10 bit от Mr. Fox
3. Гарри Поттер и узник Азкабана / Harry Potter and the Prisoner of Azkaban (2004) BDRip 1080p [HEVC] 10 bit от Mr. Fox
HEVC
10 bit
Обложка Гарри Поттер и узник Азкабана / Harry Potter and the Prisoner of Azkaban (2004) BDRip 1080p [HEVC] 10 bit от Mr. Fox Год: 2004
Страна: Великобритания, США
Студия: Warner Bros., Heyday Films, 1492 Pictures, P of A Productions Limited
Жанр: Фэнтези, Приключения, Семейный
Продолжительность: 02:21:42

Режиссер: Альфонсо Куарон
В ролях: Дэниэл Рэдклифф, Руперт Гринт, Эмма Уотсон, Робби Колтрейн, Том Фелтон, Гари Олдман, Дэвид Тьюлис, Майкл Гэмбон, Ричард Гриффитс, Пэм Феррис

Описание: В третьей части истории о юном волшебнике полюбившиеся всем герои — Гарри Поттер, Рон и Гермиона — возвращаются уже на третий курс школы чародейства и волшебства Хогвартс. На этот раз они должны раскрыть тайну узника, сбежавшего из зловещей тюрьмы Азкабан, чье пребывание на воле создает для Гарри смертельную опасность…


Видео: 1920x800, 5950 Kbps
Аудио1: AC3, 6 ch, 640 Kbps - РусскийРусский, Дублированный
Аудио2: AC3, 2 ch, 192 Kbps - УкраинскийУкраинский, Многоголосый (Интер)
Аудио3: AC3, 6 ch, 640 Kbps - АнглийскийАнглийский, Оригинал
Субтитры: Русские (форсированные, полные), украинские, английские (полные, SDH)

Как за пару секунд удалить ненужные аудиодорожки и субтитры (Внимание! После удаления вы не сможете поддержать раздачу)

Медиаинфо
x265 [info]: frame I: Avg QP:16.58
x265 [info]: frame P: Avg QP:18.40
x265 [info]: frame B: Avg QP:20.63
x265 [info]: consecutive B-frames: 13.8% 4.4% 4.8% 18.4% 14.6% 23.6% 5.0% 8.8% 2.4% 1.8% 0.6% 1.2% 0.2%

Avg QP:20.15

Общее
Уникальный идентификатор : 96612514101868558997266399553643388031 (0x48AEE4B547FFA8B5054327EBA0709C7F)
Полное имя : H:InstallUpload3. Harry Potter and the Prisoner of Azkaban (2004) BDRip 1080p [HEVC].mkv
Формат : Matroska
Версия формата : Version 4
Размер файла : 7,35 Гбайт
Продолжительность : 2 ч. 21 м.
Общий поток : 7426 Кбит/сек
Название фильма : Harry Potter and the Prisoner of Azkaban (2004)
Дата кодирования : UTC 2019-08-05 17:00:58
Программа кодирования : mkvmerge v35.0.0 ('All The Love In The World') 64-bit
Библиотека кодирования : libebml v1.3.9 + libmatroska v1.5.2
Обложка : Yes
Attachments : cover.jpg

Видео
Идентификатор : 1
Формат : HEVC
Формат/Информация : High Efficiency Video Coding
Профиль формата : Main 10@L4.1@High
Идентификатор кодека : V_MPEGH/ISO/HEVC
Продолжительность : 2 ч. 21 м.
Битрейт : 5950 Кбит/сек
Ширина : 1920 пикселей
Высота : 800 пикселей
Соотношение сторон : 2,40:1
Режим частоты кадров : Постоянный
Частота кадров : 23,976 (23976/1000) кадра/сек
Частота кадров в оригинале : 23,976 (24000/1001) кадра/сек
Цветовое пространство : YUV
Субдискретизация насыщенности : 4:2:0
Битовая глубина : 10 бит
Бит/(Пиксели*Кадры) : 0.162
Размер потока : 5,89 Гбайт (80%)
Библиотека кодирования : x265 3.0_Au+4-dcbec33bfb0f:[Windows][MSVC 1916][64 bit] 10bit
Настройки программы : cpuid=1111039 / frame-threads=3 / numa-pools=12 / wpp / no-pmode / no-pme / no-psnr / no-ssim / log-level=2 / input-csp=1 / input-res=1920x800 / interlace=0 / total-frames=186682 / level-idc=41 / high-tier=1 / uhd-bd=0 / ref=5 / no-allow-non-conformance / no-repeat-headers / annexb / no-aud / no-hrd / info / hash=0 / no-temporal-layers / open-gop / min-keyint=23 / keyint=240 / gop-lookahead=0 / bframes=12 / b-adapt=2 / b-pyramid / bframe-bias=0 / rc-lookahead=60 / lookahead-slices=4 / scenecut=40 / radl=0 / no-splice / no-intra-refresh / ctu=32 / min-cu-size=8 / rect / amp / max-tu-size=32 / tu-inter-depth=4 / tu-intra-depth=4 / limit-tu=1 / rdoq-level=2 / dynamic-rd=0.00 / no-ssim-rd / signhide / no-tskip / nr-intra=0 / nr-inter=0 / no-constrained-intra / no-strong-intra-smoothing / max-merge=4 / limit-refs=2 / limit-modes / me=3 / subme=7 / merange=57 / temporal-mvp / weightp / weightb / no-analyze-src-pics / deblock=-3:-3 / no-sao / no-sao-non-deblock / rd=6 / no-early-skip / no-rskip / no-fast-intra / no-tskip-fast / no-cu-lossless / no-b-intra / no-splitrd-skip / rdpenalty=0 / psy-rd=2.00 / psy-rdoq=1.00 / no-rd-refine / no-lossless / cbqpoffs=0 / crqpoffs=0 / rc=crf / crf=21.0 / qcomp=0.70 / qpstep=4 / stats-write=0 / stats-read=0 / vbv-maxrate=50000 / vbv-bufsize=50000 / vbv-init=0.9 / crf-max=0.0 / crf-min=0.0 / ipratio=1.40 / pbratio=1.30 / aq-mode=1 / aq-strength=1.00 / no-cutree / zone-count=0 / no-strict-cbr / qg-size=32 / no-rc-grain / qpmax=69 / qpmin=0 / no-const-vbv / sar=1 / overscan=0 / videoformat=5 / range=0 / colorprim=2 / transfer=2 / colormatrix=2 / chromaloc=0 / display-window=0 / max-cll=0,0 / min-luma=0 / max-luma=1023 / log2-max-poc-lsb=8 / vui-timing-info / vui-hrd-info / slices=1 / no-opt-qp-pps / no-opt-ref-list-length-pps / no-multi-pass-opt-rps / scenecut-bias=0.05 / no-opt-cu-delta-qp / no-aq-motion / no-hdr / no-hdr-opt / no-dhdr10-opt / no-idr-recovery-sei / analysis-reuse-level=5 / scale-factor=0 / refine-intra=0 / refine-inter=0 / refine-mv=0 / refine-ctu-distortion=0 / no-limit-sao / ctu-info=0 / no-lowpass-dct / refine-analysis-type=0 / copy-pic=1 / max-ausize-factor=1.0 / no-dynamic-refine / no-single-sei / no-hevc-aq / qp-adaptation-range=1.00
Default : Да
Forced : Нет

Аудио #1
Идентификатор : 2
Формат : AC-3
Формат/Информация : Audio Coding 3
Коммерческое название : Dolby Digital
Идентификатор кодека : A_AC3
Продолжительность : 2 ч. 21 м.
Вид битрейта : Постоянный
Битрейт : 640 Кбит/сек
Каналы : 6 каналов
Channel layout : L R C LFE Ls Rs
Частота : 48,0 КГц
Частота кадров : 31,250 кадров/сек (1536 SPF)
Битовая глубина : 16 бит
Метод сжатия : С потерями
Размер потока : 649 Мбайт (9%)
Заголовок : Dub, Blu-ray CEE
Язык : Russian
ServiceKind : Complete Main
Default : Да
Forced : Нет

Аудио #2
Идентификатор : 3
Формат : AC-3
Формат/Информация : Audio Coding 3
Коммерческое название : Dolby Digital
Идентификатор кодека : A_AC3
Продолжительность : 2 ч. 21 м.
Вид битрейта : Постоянный
Битрейт : 192 Кбит/сек
Каналы : 2 канала
Channel layout : L R
Частота : 48,0 КГц
Частота кадров : 31,250 кадров/сек (1536 SPF)
Битовая глубина : 16 бит
Метод сжатия : С потерями
Размер потока : 195 Мбайт (3%)
Заголовок : MVO, Интер
Язык : Ukrainian
ServiceKind : Complete Main
Default : Нет
Forced : Нет

Аудио #3
Идентификатор : 4
Формат : AC-3
Формат/Информация : Audio Coding 3
Коммерческое название : Dolby Digital
Идентификатор кодека : A_AC3
Продолжительность : 2 ч. 21 м.
Вид битрейта : Постоянный
Битрейт : 640 Кбит/сек
Каналы : 6 каналов
Channel layout : L R C LFE Ls Rs
Частота : 48,0 КГц
Частота кадров : 31,250 кадров/сек (1536 SPF)
Битовая глубина : 16 бит
Метод сжатия : С потерями
Размер потока : 649 Мбайт (9%)
Язык : English
ServiceKind : Complete Main
Default : Нет
Forced : Нет

Текст #1
Идентификатор : 5
Формат : UTF-8
Идентификатор кодека : S_TEXT/UTF8
Идентификатор кодека/Информация : UTF-8 Plain Text
Продолжительность : 2 ч. 10 м.
Битрейт : 0 бит/сек
ElementCount : 3
Размер потока : 98,0 байт (0%)
Заголовок : captions
Язык : Russian
Default : Да
Forced : Нет

Текст #2
Идентификатор : 6
Формат : UTF-8
Идентификатор кодека : S_TEXT/UTF8
Идентификатор кодека/Информация : UTF-8 Plain Text
Продолжительность : 2 ч. 21 м.
Битрейт : 86 бит/сек
ElementCount : 1418
Размер потока : 89,8 Кбайт (0%)
Язык : Russian
Default : Нет
Forced : Нет

Текст #3
Идентификатор : 7
Формат : UTF-8
Идентификатор кодека : S_TEXT/UTF8
Идентификатор кодека/Информация : UTF-8 Plain Text
Продолжительность : 2 ч. 20 м.
Битрейт : 81 бит/сек
ElementCount : 1415
Размер потока : 83,6 Кбайт (0%)
Язык : Ukrainian
Default : Нет
Forced : Нет

Текст #4
Идентификатор : 8
Формат : UTF-8
Идентификатор кодека : S_TEXT/UTF8
Идентификатор кодека/Информация : UTF-8 Plain Text
Продолжительность : 2 ч. 20 м.
Битрейт : 51 бит/сек
ElementCount : 1417
Размер потока : 53,3 Кбайт (0%)
Язык : English
Default : Нет
Forced : Нет

Текст #5
Идентификатор : 9
Формат : UTF-8
Идентификатор кодека : S_TEXT/UTF8
Идентификатор кодека/Информация : UTF-8 Plain Text
Продолжительность : 2 ч. 21 м.
Битрейт : 54 бит/сек
ElementCount : 1611
Размер потока : 56,0 Кбайт (0%)
Заголовок : SDH
Язык : English
Default : Нет
Forced : Нет

Меню
00:00:00.000 : en:Under Covers Prologue
00:01:40.100 : en:Aunt Marge's Big Mistake
00:06:36.229 : en:The Knight Bus
00:12:45.931 : en:The Leaky Cauldron
00:14:52.516 : en:The Monster Book of Monsters
00:16:12.513 : en:In Grave Danger
00:18:56.218 : en:The Dementor
00:23:50.387 : en:Welcome and Warning
00:28:50.729 : en:Tea Leaves
00:31:21.838 : en:Buckbeak
00:38:50.161 : en:Boggart in the Wardrobe
00:44:45.307 : en:Talent for Trouble
00:47:37.813 : en:Flight of the Fat Lady
00:49:39.935 : en:Substitute Teacher
00:53:42.844 : en:Grim Defeat
00:57:28.403 : en:The Marauder's Map
01:01:23.721 : en:Who's There
01:03:22.924 : en:I Hope He Finds Me
01:07:10.985 : en:The Patronus
01:11:53.475 : en:Seeing the Impossible
01:19:10.078 : en:Professor Trelawney's Prediction
01:22:29.945 : en:Witnesses to an Execution
01:27:30.870 : en:The Whomping Willow
01:30:13.366 : en:Sirius Black
01:34:19.028 : en:Peter Pettigrew
01:36:56.894 : en:Friends Become Foes
01:42:24.471 : en:The Dementor's Kiss
01:45:40.334 : en:Hermione's Secret
01:50:03.597 : en:Onlookers to the Rescue
01:55:33.343 : en:Saving Lives
02:00:07.408 : en:Truly Seen, Truly Free
02:03:16.055 : en:Two Places at Once
02:06:02.513 : en:Mischief Managed
02:08:42.923 : en:The Firebolt
02:09:47.404 : en:End Credits Map
Загрузка...Cкриншот1 Гарри Поттер и узник Азкабана / Harry Potter and the Prisoner of Azkaban (2004) BDRip 1080p [HEVC] 10 bit от Mr. FoxЗагрузка...Cкриншот2 Гарри Поттер и узник Азкабана / Harry Potter and the Prisoner of Azkaban (2004) BDRip 1080p [HEVC] 10 bit от Mr. FoxЗагрузка...Cкриншот3 Гарри Поттер и узник Азкабана / Harry Potter and the Prisoner of Azkaban (2004) BDRip 1080p [HEVC] 10 bit от Mr. FoxЗагрузка...Cкриншот4 Гарри Поттер и узник Азкабана / Harry Potter and the Prisoner of Azkaban (2004) BDRip 1080p [HEVC] 10 bit от Mr. Fox
4. Гарри Поттер и Кубок огня / Harry Potter and the Goblet of Fire (2005) BDRip 1080p [HEVC] 10 bit от Mr. Fox
HEVC
10 bit
Обложка Гарри Поттер и Кубок огня / Harry Potter and the Goblet of Fire (2005) BDRip 1080p [HEVC] 10 bit от Mr. Fox Год: 2005
Страна: Великобритания, США
Студия: Warner Bros., Heyday Films, Patalex IV Productions Limited
Жанр: Фэнтези, Приключения, Семейный
Продолжительность: 02:37:05

Режиссер: Майк Ньюэлл
В ролях: Дэниэл Рэдклифф, Руперт Гринт, Эмма Уотсон, Брендан Глисон, Алан Рикман, Майкл Гэмбон, Рэйф Файнс, Роберт Паттинсон, Робби Колтрейн, Мэгги Смит

Описание: Гарри Поттер, Рон и Гермиона возвращаются на четвёртый курс школы чародейства и волшебства Хогвартс. При таинственных обстоятельствах Гарри был отобран в число участников опасного соревнования — Турнира Трёх Волшебников, однако проблема в том, что все его соперники — намного старше и сильнее. К тому же, знаки указывают на возвращение Лорда Волдеморта. Вскоре Гарри предстоит побороться не только за победу в соревновании, но и, прежде всего, за свою жизнь.


Видео: 1920x800, 5089 Kbps
Аудио1: AC3, 6 ch, 448 Kbps - РусскийРусский, Дублированный
Аудио2: AC3, 2 ch, 192 Kbps - УкраинскийУкраинский, Многоголосый (Интер)
Аудио3: AC3, 6 ch, 640 Kbps - АнглийскийАнглийский, Оригинал
Субтитры: Русские (форсированные, полные), украинские, английские (полные, SDH)

Как за пару секунд удалить ненужные аудиодорожки и субтитры (Внимание! После удаления вы не сможете поддержать раздачу)

Медиаинфо
x265 [info]: frame I: Avg QP:16.35
x265 [info]: frame P: Avg QP:17.75
x265 [info]: frame B: Avg QP:19.87
x265 [info]: consecutive B-frames: 8.7% 4.4% 6.9% 23.5% 15.6% 25.3% 4.6% 7.1% 1.3% 1.4% 0.5% 0.6% 0.1%

Avg QP:19.42

Общее
Уникальный идентификатор : 335399901791644501953652632191678400788 (0xFC53ABE236DDD2CDC69AFA7F305DC914)
Полное имя : H:InstallUpload4. Harry Potter and the Goblet of Fire (2005) BDRip 1080p [HEVC].mkv
Формат : Matroska
Версия формата : Version 4
Размер файла : 6,99 Гбайт
Продолжительность : 2 ч. 37 м.
Общий поток : 6372 Кбит/сек
Название фильма : Harry Potter and the Goblet of Fire (2005)
Дата кодирования : UTC 2019-08-07 11:16:12
Программа кодирования : mkvmerge v35.0.0 ('All The Love In The World') 64-bit
Библиотека кодирования : libebml v1.3.9 + libmatroska v1.5.2
Обложка : Yes
Attachments : cover.jpg / cover.jpg

Видео
Идентификатор : 1
Формат : HEVC
Формат/Информация : High Efficiency Video Coding
Профиль формата : Main 10@L4.1@High
Идентификатор кодека : V_MPEGH/ISO/HEVC
Продолжительность : 2 ч. 37 м.
Битрейт : 5089 Кбит/сек
Ширина : 1920 пикселей
Высота : 800 пикселей
Соотношение сторон : 2,40:1
Режим частоты кадров : Постоянный
Частота кадров : 23,976 (23976/1000) кадра/сек
Частота кадров в оригинале : 23,976 (24000/1001) кадра/сек
Цветовое пространство : YUV
Субдискретизация насыщенности : 4:2:0
Битовая глубина : 10 бит
Бит/(Пиксели*Кадры) : 0.138
Размер потока : 5,58 Гбайт (80%)
Библиотека кодирования : x265 3.0_Au+4-dcbec33bfb0f:[Windows][MSVC 1916][64 bit] 10bit
Настройки программы : cpuid=1111039 / frame-threads=3 / numa-pools=12 / wpp / no-pmode / no-pme / no-psnr / no-ssim / log-level=2 / input-csp=1 / input-res=1920x800 / interlace=0 / total-frames=210826 / level-idc=41 / high-tier=1 / uhd-bd=0 / ref=5 / no-allow-non-conformance / no-repeat-headers / annexb / no-aud / no-hrd / info / hash=0 / no-temporal-layers / open-gop / min-keyint=23 / keyint=240 / gop-lookahead=0 / bframes=12 / b-adapt=2 / b-pyramid / bframe-bias=0 / rc-lookahead=60 / lookahead-slices=4 / scenecut=40 / radl=0 / no-splice / no-intra-refresh / ctu=32 / min-cu-size=8 / rect / amp / max-tu-size=32 / tu-inter-depth=4 / tu-intra-depth=4 / limit-tu=1 / rdoq-level=2 / dynamic-rd=0.00 / no-ssim-rd / signhide / no-tskip / nr-intra=0 / nr-inter=0 / no-constrained-intra / no-strong-intra-smoothing / max-merge=4 / limit-refs=2 / limit-modes / me=3 / subme=7 / merange=57 / temporal-mvp / weightp / weightb / no-analyze-src-pics / deblock=-3:-3 / no-sao / no-sao-non-deblock / rd=6 / no-early-skip / no-rskip / no-fast-intra / no-tskip-fast / no-cu-lossless / no-b-intra / no-splitrd-skip / rdpenalty=0 / psy-rd=2.00 / psy-rdoq=1.00 / no-rd-refine / no-lossless / cbqpoffs=0 / crqpoffs=0 / rc=crf / crf=21.0 / qcomp=0.70 / qpstep=4 / stats-write=0 / stats-read=0 / vbv-maxrate=50000 / vbv-bufsize=50000 / vbv-init=0.9 / crf-max=0.0 / crf-min=0.0 / ipratio=1.40 / pbratio=1.30 / aq-mode=1 / aq-strength=1.00 / no-cutree / zone-count=0 / no-strict-cbr / qg-size=32 / no-rc-grain / qpmax=69 / qpmin=0 / no-const-vbv / sar=1 / overscan=0 / videoformat=5 / range=0 / colorprim=2 / transfer=2 / colormatrix=2 / chromaloc=0 / display-window=0 / max-cll=0,0 / min-luma=0 / max-luma=1023 / log2-max-poc-lsb=8 / vui-timing-info / vui-hrd-info / slices=1 / no-opt-qp-pps / no-opt-ref-list-length-pps / no-multi-pass-opt-rps / scenecut-bias=0.05 / no-opt-cu-delta-qp / no-aq-motion / no-hdr / no-hdr-opt / no-dhdr10-opt / no-idr-recovery-sei / analysis-reuse-level=5 / scale-factor=0 / refine-intra=0 / refine-inter=0 / refine-mv=0 / refine-ctu-distortion=0 / no-limit-sao / ctu-info=0 / no-lowpass-dct / refine-analysis-type=0 / copy-pic=1 / max-ausize-factor=1.0 / no-dynamic-refine / no-single-sei / no-hevc-aq / qp-adaptation-range=1.00
Default : Да
Forced : Нет

Аудио #1
Идентификатор : 2
Формат : AC-3
Формат/Информация : Audio Coding 3
Коммерческое название : Dolby Digital
Идентификатор кодека : A_AC3
Продолжительность : 2 ч. 37 м.
Вид битрейта : Постоянный
Битрейт : 448 Кбит/сек
Каналы : 6 каналов
Channel layout : L R C LFE Ls Rs
Частота : 48,0 КГц
Частота кадров : 31,250 кадров/сек (1536 SPF)
Битовая глубина : 16 бит
Метод сжатия : С потерями
Размер потока : 503 Мбайт (7%)
Заголовок : Dub, Blu-ray CEE
Язык : Russian
ServiceKind : Complete Main
Default : Да
Forced : Нет

Аудио #2
Идентификатор : 3
Формат : AC-3
Формат/Информация : Audio Coding 3
Коммерческое название : Dolby Digital
Идентификатор кодека : A_AC3
Продолжительность : 2 ч. 37 м.
Вид битрейта : Постоянный
Битрейт : 192 Кбит/сек
Каналы : 2 канала
Channel layout : L R
Частота : 48,0 КГц
Частота кадров : 31,250 кадров/сек (1536 SPF)
Битовая глубина : 16 бит
Метод сжатия : С потерями
Размер потока : 216 Мбайт (3%)
Заголовок : MVO, Интер
Язык : Ukrainian
ServiceKind : Complete Main
Default : Нет
Forced : Нет

Аудио #3
Идентификатор : 4
Формат : AC-3
Формат/Информация : Audio Coding 3
Коммерческое название : Dolby Digital
Идентификатор кодека : A_AC3
Продолжительность : 2 ч. 37 м.
Вид битрейта : Постоянный
Битрейт : 640 Кбит/сек
Каналы : 6 каналов
Channel layout : L R C LFE Ls Rs
Частота : 48,0 КГц
Частота кадров : 31,250 кадров/сек (1536 SPF)
Битовая глубина : 16 бит
Метод сжатия : С потерями
Размер потока : 719 Мбайт (10%)
Язык : English
ServiceKind : Complete Main
Default : Нет
Forced : Нет

Текст #1
Идентификатор : 5
Формат : UTF-8
Идентификатор кодека : S_TEXT/UTF8
Идентификатор кодека/Информация : UTF-8 Plain Text
Продолжительность : 2 ч. 36 м.
Битрейт : 0 бит/сек
ElementCount : 13
Размер потока : 482 байт (0%)
Заголовок : captions
Язык : Russian
Default : Да
Forced : Нет

Текст #2
Идентификатор : 6
Формат : UTF-8
Идентификатор кодека : S_TEXT/UTF8
Идентификатор кодека/Информация : UTF-8 Plain Text
Продолжительность : 2 ч. 36 м.
Битрейт : 74 бит/сек
ElementCount : 1557
Размер потока : 85,4 Кбайт (0%)
Язык : Russian
Default : Нет
Forced : Нет

Текст #3
Идентификатор : 7
Формат : UTF-8
Идентификатор кодека : S_TEXT/UTF8
Идентификатор кодека/Информация : UTF-8 Plain Text
Продолжительность : 2 ч. 36 м.
Битрейт : 72 бит/сек
ElementCount : 1530
Размер потока : 82,6 Кбайт (0%)
Язык : Ukrainian
Default : Нет
Forced : Нет

Текст #4
Идентификатор : 8
Формат : UTF-8
Идентификатор кодека : S_TEXT/UTF8
Идентификатор кодека/Информация : UTF-8 Plain Text
Продолжительность : 2 ч. 21 м.
Битрейт : 50 бит/сек
ElementCount : 1553
Размер потока : 52,2 Кбайт (0%)
Язык : English
Default : Нет
Forced : Нет

Текст #5
Идентификатор : 9
Формат : UTF-8
Идентификатор кодека : S_TEXT/UTF8
Идентификатор кодека/Информация : UTF-8 Plain Text
Продолжительность : 2 ч. 36 м.
Битрейт : 48 бит/сек
ElementCount : 1798
Размер потока : 55,7 Кбайт (0%)
Заголовок : SDH
Язык : English
Default : Нет
Forced : Нет

Меню
00:00:00.000 : en:The Riddle House
00:03:46.559 : en:The Hungrian Horntail
00:06:09.369 : en:Sirius Conversation
00:09:50.089 : en:Rita Keeter
00:13:45.324 : en:Let Events Unfold
00:19:14.987 : en:The Four Champions
00:23:09.388 : en:The Unforgivable Curses
00:29:01.573 : en:The Goblet of Fire
00:36:26.684 : en:The Triwizard Tournament
00:39:05.009 : en:The Dark Mark
00:41:32.489 : en:The Quidditch World Cup
00:45:36.400 : en:The Portkey
00:49:07.778 : en:Best Foot Forward
00:54:06.243 : en:The First Task
01:02:46.596 : en:Tranforming Malfoy
01:09:12.982 : en:An Unexpected Challenge
01:14:43.979 : en:The Yule Ball
01:22:27.609 : en:The Egg's Clue
01:30:34.762 : en:The Second Task
01:39:29.296 : en:Never Whole Again
01:42:42.489 : en:The Pensieve
01:47:22.936 : en:Dreams and Suspicions
01:50:19.279 : en:The Third Task
01:58:54.460 : en:Flesh, Blood and Bone
02:02:02.315 : en:The Death Eaters
02:06:36.589 : en:Priori Incantatem
02:10:01.627 : en:Veritaserum
02:17:38.083 : en:Parting Ways
02:23:48.620 : en:End Credits
Загрузка...Cкриншот1 Гарри Поттер и Кубок огня / Harry Potter and the Goblet of Fire (2005) BDRip 1080p [HEVC] 10 bit от Mr. FoxЗагрузка...Cкриншот2 Гарри Поттер и Кубок огня / Harry Potter and the Goblet of Fire (2005) BDRip 1080p [HEVC] 10 bit от Mr. FoxЗагрузка...Cкриншот3 Гарри Поттер и Кубок огня / Harry Potter and the Goblet of Fire (2005) BDRip 1080p [HEVC] 10 bit от Mr. FoxЗагрузка...Cкриншот4 Гарри Поттер и Кубок огня / Harry Potter and the Goblet of Fire (2005) BDRip 1080p [HEVC] 10 bit от Mr. Fox
5. Гарри Поттер и Орден Феникса / Harry Potter and the Order of the Phoenix (2007) BDRip 1080p [HEVC] 10 bit от Mr. Fox
HEVC
10 bit
Обложка Гарри Поттер и Орден Феникса / Harry Potter and the Order of the Phoenix (2007) BDRip 1080p [HEVC] 10 bit от Mr. Fox Год: 2007
Страна: Великобритания, США
Студия: Warner Bros., Heyday Films
Жанр: Фэнтези, Приключения, Семейный
Продолжительность: 02:18:14

Режиссер: Дэвид Йейтс
В ролях: Дэниэл Рэдклифф, Руперт Гринт, Эмма Уотсон, Гари Олдман, Рэйф Файнс, Майкл Гэмбон, Том Фелтон, Имелда Стонтон, Эванна Линч, Алан Рикман

Описание: Гарри проводит свой пятый год в школе Хогвартс и обнаруживает, что многие из членов волшебного сообщества отрицают факт недавнего состязания юного волшебника с воплощением вселенского зла Волдемортом. Все делают вид, что не имеют ни малейшего представления о том, что злодей вернулся. Однако впереди волшебников ждет необычная схватка.


Видео: 1920x800, 5296 Kbps
Аудио1: AC3, 6 ch, 640 Kbps - РусскийРусский, Дублированный
Аудио2: AC3, 6 ch, 640 Kbps - УкраинскийУкраинский, Дублированный
Аудио3: AC3, 6 ch, 640 Kbps - АнглийскийАнглийский, Оригинал
Субтитры: Русские (форсированные, полные), украинские, английские (полные, SDH)

Как за пару секунд удалить ненужные аудиодорожки и субтитры (Внимание! После удаления вы не сможете поддержать раздачу)

Медиаинфо
x265 [info]: frame I: Avg QP:17.01
x265 [info]: frame P: Avg QP:19.25
x265 [info]: frame B: Avg QP:20.34
x265 [info]: consecutive B-frames: 9.4% 4.4% 5.4% 18.9% 11.6% 24.8% 6.6% 13.1% 1.5% 2.3% 0.8% 1.2% 0.1%

Avg QP:19.93

Общее
Уникальный идентификатор : 183845306848960461223605974012841008284 (0x8A4F5172E77272CE5E8BC946E8BD9C9C)
Полное имя : H:InstallUpload5. Harry Potter and the Order of the Phoenix (2007) BDRip 1080p [HEVC].mkv
Формат : Matroska
Версия формата : Version 4
Размер файла : 6,97 Гбайт
Продолжительность : 2 ч. 18 м.
Общий поток : 7219 Кбит/сек
Название фильма : Harry Potter and the Order of the Phoenix (2007)
Дата кодирования : UTC 2019-08-10 12:49:20
Программа кодирования : mkvmerge v35.0.0 ('All The Love In The World') 64-bit
Библиотека кодирования : libebml v1.3.9 + libmatroska v1.5.2
Обложка : Yes
Attachments : cover.jpg

Видео
Идентификатор : 1
Формат : HEVC
Формат/Информация : High Efficiency Video Coding
Профиль формата : Main 10@L4.1@High
Идентификатор кодека : V_MPEGH/ISO/HEVC
Продолжительность : 2 ч. 18 м.
Битрейт : 5296 Кбит/сек
Ширина : 1920 пикселей
Высота : 800 пикселей
Соотношение сторон : 2,40:1
Режим частоты кадров : Постоянный
Частота кадров : 23,976 (23976/1000) кадра/сек
Частота кадров в оригинале : 23,976 (24000/1001) кадра/сек
Цветовое пространство : YUV
Субдискретизация насыщенности : 4:2:0
Битовая глубина : 10 бит
Бит/(Пиксели*Кадры) : 0.144
Размер потока : 5,11 Гбайт (73%)
Библиотека кодирования : x265 3.0_Au+4-dcbec33bfb0f:[Windows][MSVC 1916][64 bit] 10bit
Настройки программы : cpuid=1111039 / frame-threads=3 / numa-pools=12 / wpp / no-pmode / no-pme / no-psnr / no-ssim / log-level=2 / input-csp=1 / input-res=1920x800 / interlace=0 / total-frames=187871 / level-idc=41 / high-tier=1 / uhd-bd=0 / ref=5 / no-allow-non-conformance / no-repeat-headers / annexb / no-aud / no-hrd / info / hash=0 / no-temporal-layers / open-gop / min-keyint=23 / keyint=240 / gop-lookahead=0 / bframes=12 / b-adapt=2 / b-pyramid / bframe-bias=0 / rc-lookahead=60 / lookahead-slices=4 / scenecut=40 / radl=0 / no-splice / no-intra-refresh / ctu=32 / min-cu-size=8 / rect / amp / max-tu-size=32 / tu-inter-depth=4 / tu-intra-depth=4 / limit-tu=1 / rdoq-level=2 / dynamic-rd=0.00 / no-ssim-rd / signhide / no-tskip / nr-intra=0 / nr-inter=0 / no-constrained-intra / no-strong-intra-smoothing / max-merge=4 / limit-refs=2 / limit-modes / me=3 / subme=7 / merange=57 / temporal-mvp / weightp / weightb / no-analyze-src-pics / deblock=-3:-3 / no-sao / no-sao-non-deblock / rd=6 / no-early-skip / no-rskip / no-fast-intra / no-tskip-fast / no-cu-lossless / no-b-intra / no-splitrd-skip / rdpenalty=0 / psy-rd=2.00 / psy-rdoq=1.00 / no-rd-refine / no-lossless / cbqpoffs=0 / crqpoffs=0 / rc=crf / crf=21.0 / qcomp=0.70 / qpstep=4 / stats-write=0 / stats-read=0 / vbv-maxrate=50000 / vbv-bufsize=50000 / vbv-init=0.9 / crf-max=0.0 / crf-min=0.0 / ipratio=1.40 / pbratio=1.30 / aq-mode=1 / aq-strength=1.00 / no-cutree / zone-count=0 / no-strict-cbr / qg-size=32 / no-rc-grain / qpmax=69 / qpmin=0 / no-const-vbv / sar=1 / overscan=0 / videoformat=5 / range=0 / colorprim=2 / transfer=2 / colormatrix=2 / chromaloc=0 / display-window=0 / max-cll=0,0 / min-luma=0 / max-luma=1023 / log2-max-poc-lsb=8 / vui-timing-info / vui-hrd-info / slices=1 / no-opt-qp-pps / no-opt-ref-list-length-pps / no-multi-pass-opt-rps / scenecut-bias=0.05 / no-opt-cu-delta-qp / no-aq-motion / no-hdr / no-hdr-opt / no-dhdr10-opt / no-idr-recovery-sei / analysis-reuse-level=5 / scale-factor=0 / refine-intra=0 / refine-inter=0 / refine-mv=0 / refine-ctu-distortion=0 / no-limit-sao / ctu-info=0 / no-lowpass-dct / refine-analysis-type=0 / copy-pic=1 / max-ausize-factor=1.0 / no-dynamic-refine / no-single-sei / no-hevc-aq / qp-adaptation-range=1.00
Default : Да
Forced : Нет

Аудио #1
Идентификатор : 2
Формат : AC-3
Формат/Информация : Audio Coding 3
Коммерческое название : Dolby Digital
Идентификатор кодека : A_AC3
Продолжительность : 2 ч. 18 м.
Вид битрейта : Постоянный
Битрейт : 640 Кбит/сек
Каналы : 6 каналов
Channel layout : L R C LFE Ls Rs
Частота : 48,0 КГц
Частота кадров : 31,250 кадров/сек (1536 SPF)
Битовая глубина : 16 бит
Метод сжатия : С потерями
Размер потока : 633 Мбайт (9%)
Заголовок : Dub
Язык : Russian
ServiceKind : Complete Main
Default : Да
Forced : Нет

Аудио #2
Идентификатор : 3
Формат : AC-3
Формат/Информация : Audio Coding 3
Коммерческое название : Dolby Digital
Идентификатор кодека : A_AC3
Продолжительность : 2 ч. 18 м.
Вид битрейта : Постоянный
Битрейт : 640 Кбит/сек
Каналы : 6 каналов
Channel layout : L R C LFE Ls Rs
Частота : 48,0 КГц
Частота кадров : 31,250 кадров/сек (1536 SPF)
Битовая глубина : 16 бит
Метод сжатия : С потерями
Размер потока : 633 Мбайт (9%)
Заголовок : Dub
Язык : Ukrainian
ServiceKind : Complete Main
Default : Нет
Forced : Нет

Аудио #3
Идентификатор : 4
Формат : AC-3
Формат/Информация : Audio Coding 3
Коммерческое название : Dolby Digital
Идентификатор кодека : A_AC3
Продолжительность : 2 ч. 18 м.
Вид битрейта : Постоянный
Битрейт : 640 Кбит/сек
Каналы : 6 каналов
Channel layout : L R C LFE Ls Rs
Частота : 48,0 КГц
Частота кадров : 31,250 кадров/сек (1536 SPF)
Битовая глубина : 16 бит
Метод сжатия : С потерями
Размер потока : 633 Мбайт (9%)
Заголовок : Original
Язык : English
ServiceKind : Complete Main
Default : Нет
Forced : Нет

Текст #1
Идентификатор : 5
Формат : UTF-8
Идентификатор кодека : S_TEXT/UTF8
Идентификатор кодека/Информация : UTF-8 Plain Text
Продолжительность : 2 ч. 2 м.
Битрейт : 1 бит/сек
ElementCount : 29
Размер потока : 1,79 Кбайт (0%)
Заголовок : captions
Язык : Russian
Default : Да
Forced : Нет

Текст #2
Идентификатор : 6
Формат : UTF-8
Идентификатор кодека : S_TEXT/UTF8
Идентификатор кодека/Информация : UTF-8 Plain Text
Продолжительность : 2 ч. 17 м.
Битрейт : 86 бит/сек
ElementCount : 1349
Размер потока : 87,7 Кбайт (0%)
Язык : Russian
Default : Нет
Forced : Нет

Текст #3
Идентификатор : 7
Формат : UTF-8
Идентификатор кодека : S_TEXT/UTF8
Идентификатор кодека/Информация : UTF-8 Plain Text
Продолжительность : 2 ч. 10 м.
Битрейт : 81 бит/сек
ElementCount : 1329
Размер потока : 77,3 Кбайт (0%)
Язык : Ukrainian
Default : Нет
Forced : Нет

Текст #4
Идентификатор : 8
Формат : UTF-8
Идентификатор кодека : S_TEXT/UTF8
Идентификатор кодека/Информация : UTF-8 Plain Text
Продолжительность : 2 ч. 17 м.
Битрейт : 46 бит/сек
ElementCount : 1298
Размер потока : 46,6 Кбайт (0%)
Язык : English
Default : Нет
Forced : Нет

Текст #5
Идентификатор : 9
Формат : UTF-8
Идентификатор кодека : S_TEXT/UTF8
Идентификатор кодека/Информация : UTF-8 Plain Text
Продолжительность : 2 ч. 17 м.
Битрейт : 52 бит/сек
ElementCount : 1523
Размер потока : 52,8 Кбайт (0%)
Заголовок : SDH
Язык : English
Default : Нет
Forced : Нет

Меню
00:00:00.000 : en:Dudley Demented
00:04:50.957 : en:The Advance Guard
00:10:16.782 : en:Number Twelve, Grimmauld Place
00:15:19.919 : en:The Order of the Phoenix
00:17:43.228 : en:The Ministry of Magic
00:20:52.417 : en:The Hearing
00:25:33.532 : en:The Originals
00:28:07.352 : en:Luna Lovegood
00:30:20.985 : en:Preserve, Perfect and Prune
00:34:53.925 : en:Professor Umbridge's Class
00:37:41.092 : en:Detention With Dolores
00:41:48.506 : en:Thestrals and Sympathy
00:44:57.528 : en:The Hogwarts High Inquisitor
00:50:57.387 : en:In the Hog's Head
00:56:37.394 : en:Dumbledore's Army
01:03:28.638 : en:Under the Mistletoe
01:07:39.055 : en:Occlumency
01:11:16.105 : en:House of Black
01:16:30.252 : en:Hagrid's Tale
01:19:16.585 : en:Unquiet Escape
01:25:30.959 : en:Grawp
01:31:30.651 : en:Snape's Worst Memory
01:34:49.850 : en:O.W.L.S.
01:37:42.356 : en:Out of the Fire
01:41:40.260 : en:Fight and Flight
01:45:59.353 : en:The Department of Mysteries
01:48:37.177 : en:Beyond the Veil
01:52:40.920 : en:Side by Side
01:57:30.710 : en:Wizards Duel
02:03:33.239 : en:The Lost Prophecy
02:05:50.709 : en:A Way of Coming Back
02:08:26.865 : en:End Credits
Загрузка...Cкриншот1 Гарри Поттер и Орден Феникса / Harry Potter and the Order of the Phoenix (2007) BDRip 1080p [HEVC] 10 bit от Mr. FoxЗагрузка...Cкриншот2 Гарри Поттер и Орден Феникса / Harry Potter and the Order of the Phoenix (2007) BDRip 1080p [HEVC] 10 bit от Mr. FoxЗагрузка...Cкриншот3 Гарри Поттер и Орден Феникса / Harry Potter and the Order of the Phoenix (2007) BDRip 1080p [HEVC] 10 bit от Mr. FoxЗагрузка...Cкриншот4 Гарри Поттер и Орден Феникса / Harry Potter and the Order of the Phoenix (2007) BDRip 1080p [HEVC] 10 bit от Mr. Fox
6. Гарри Поттер и Принц-полукровка / Harry Potter and the Half-Blood Prince (2009) BDRip 1080p [HEVC] 10 bit от Mr. Fox
HEVC
10 bit
Обложка Гарри Поттер и Принц-полукровка / Harry Potter and the Half-Blood Prince (2009) BDRip 1080p [HEVC] 10 bit от Mr. Fox Год: 2009
Страна: Великобритания, США
Студия: Warner Bros., Heyday Films
Жанр: Фэнтези, Приключения, Семейный
Продолжительность: 02:33:31

Режиссер: Дэвид Йейтс
В ролях: Дэниэл Рэдклифф, Руперт Гринт, Эмма Уотсон, Майкл Гэмбон, Джим Бродбент, Бонни Райт, Хелена Бонем Картер, Алан Рикман, Том Фелтон, Эванна Линч

Описание: Теперь не только мир волшебников, но и мир маглов ощущает на себе все возрастающую силу Волан-де-Морта, а Хогвартс уже никак не назовешь надежным убежищем, каким он был раньше. Гарри подозревает, что в самом замке затаилась некая опасность, но Дамблдор больше сосредоточен на том, чтобы подготовить его к финальной схватке, которая, как он знает, уже не за горами. Вместе они пытаются разгадать секрет бессмертия Волан-де-Морта, а для этого Дамблдор приглашает на должность преподавателя по зельеварению своего старинного друга и коллегу — профессора Горация Слизнорта, который обожает устраивать вечеринки для избранных и гордится своими обширными связями в высших кругах. Но этот бонвиван и не подозревает, что как раз от него Дамблдор надеется заполучить самую важную информацию о крестражах. Тем временем учеников атакуют самые разные враги, а подростковые эмоции хлещут через край. Гарри начинает понимать, что становится все более неравнодушным к Джинни, однако, и Дин Томас тоже. А Лаванда Браун вбила себе в голову, что Рон — тот самый единственный, которого она ждет, да вот только не учла волшебного эффекта шоколадных конфет Ромильды Вейн! Ну и, наконец, Гермиона пылает жгучей ревность


Видео: 1920x800, 4955 Kbps
Аудио1: AC3, 6 ch, 448 Kbps - РусскийРусский, Дублированный
Аудио2: AC3, 6 ch, 448 Kbps - УкраинскийУкраинский, Дублированный
Аудио3: AC3, 6 ch, 640 Kbps - АнглийскийАнглийский, Оригинал
Субтитры: Русские (форсированные, полные), украинские, английские

Как за пару секунд удалить ненужные аудиодорожки и субтитры (Внимание! После удаления вы не сможете поддержать раздачу)

Медиаинфо
x265 [info]: frame I: Avg QP:15.63
x265 [info]: frame P: Avg QP:16.86
x265 [info]: frame B: Avg QP:19.48
x265 [info]: consecutive B-frames: 7.4% 2.6% 2.6% 17.0% 5.8% 20.2% 7.8% 23.6% 3.2% 3.4% 1.5% 4.3% 0.7%

Avg QP:19.05

Общее
Уникальный идентификатор : 221272165749561216854563799291916757772 (0xA677780F93191E0FB9EBC9181EE8AB0C)
Полное имя : H:InstallUpload6. Harry Potter and the Half-Blood Prince (2009) BDRip 1080p [HEVC}.mkv
Формат : Matroska
Версия формата : Version 4
Размер файла : 6,96 Гбайт
Продолжительность : 2 ч. 33 м.
Общий поток : 6493 Кбит/сек
Название фильма : Harry Potter and the Half-Blood Prince (2009)
Дата кодирования : UTC 2019-08-10 12:53:09
Программа кодирования : mkvmerge v35.0.0 ('All The Love In The World') 64-bit
Библиотека кодирования : libebml v1.3.9 + libmatroska v1.5.2
Обложка : Yes
Attachments : cover.jpg

Видео
Идентификатор : 1
Формат : HEVC
Формат/Информация : High Efficiency Video Coding
Профиль формата : Main 10@L4.1@High
Идентификатор кодека : V_MPEGH/ISO/HEVC
Продолжительность : 2 ч. 33 м.
Битрейт : 4955 Кбит/сек
Ширина : 1920 пикселей
Высота : 800 пикселей
Соотношение сторон : 2,40:1
Режим частоты кадров : Постоянный
Частота кадров : 23,976 (23976/1000) кадра/сек
Частота кадров в оригинале : 23,976 (24000/1001) кадра/сек
Цветовое пространство : YUV
Субдискретизация насыщенности : 4:2:0
Битовая глубина : 10 бит
Бит/(Пиксели*Кадры) : 0.135
Размер потока : 5,31 Гбайт (76%)
Библиотека кодирования : x265 3.0_Au+4-dcbec33bfb0f:[Windows][MSVC 1916][64 bit] 10bit
Настройки программы : cpuid=1111039 / frame-threads=3 / numa-pools=12 / wpp / no-pmode / no-pme / no-psnr / no-ssim / log-level=2 / input-csp=1 / input-res=1920x800 / interlace=0 / total-frames=210896 / level-idc=41 / high-tier=1 / uhd-bd=0 / ref=5 / no-allow-non-conformance / no-repeat-headers / annexb / no-aud / no-hrd / info / hash=0 / no-temporal-layers / open-gop / min-keyint=23 / keyint=240 / gop-lookahead=0 / bframes=12 / b-adapt=2 / b-pyramid / bframe-bias=0 / rc-lookahead=60 / lookahead-slices=4 / scenecut=40 / radl=0 / no-splice / no-intra-refresh / ctu=32 / min-cu-size=8 / rect / amp / max-tu-size=32 / tu-inter-depth=4 / tu-intra-depth=4 / limit-tu=1 / rdoq-level=2 / dynamic-rd=0.00 / no-ssim-rd / signhide / no-tskip / nr-intra=0 / nr-inter=0 / no-constrained-intra / no-strong-intra-smoothing / max-merge=4 / limit-refs=2 / limit-modes / me=3 / subme=7 / merange=57 / temporal-mvp / weightp / weightb / no-analyze-src-pics / deblock=-3:-3 / no-sao / no-sao-non-deblock / rd=6 / no-early-skip / no-rskip / no-fast-intra / no-tskip-fast / no-cu-lossless / no-b-intra / no-splitrd-skip / rdpenalty=0 / psy-rd=2.00 / psy-rdoq=1.00 / no-rd-refine / no-lossless / cbqpoffs=0 / crqpoffs=0 / rc=crf / crf=21.0 / qcomp=0.70 / qpstep=4 / stats-write=0 / stats-read=0 / vbv-maxrate=50000 / vbv-bufsize=50000 / vbv-init=0.9 / crf-max=0.0 / crf-min=0.0 / ipratio=1.40 / pbratio=1.30 / aq-mode=1 / aq-strength=1.00 / no-cutree / zone-count=0 / no-strict-cbr / qg-size=32 / no-rc-grain / qpmax=69 / qpmin=0 / no-const-vbv / sar=1 / overscan=0 / videoformat=5 / range=0 / colorprim=2 / transfer=2 / colormatrix=2 / chromaloc=0 / display-window=0 / max-cll=0,0 / min-luma=0 / max-luma=1023 / log2-max-poc-lsb=8 / vui-timing-info / vui-hrd-info / slices=1 / no-opt-qp-pps / no-opt-ref-list-length-pps / no-multi-pass-opt-rps / scenecut-bias=0.05 / no-opt-cu-delta-qp / no-aq-motion / no-hdr / no-hdr-opt / no-dhdr10-opt / no-idr-recovery-sei / analysis-reuse-level=5 / scale-factor=0 / refine-intra=0 / refine-inter=0 / refine-mv=0 / refine-ctu-distortion=0 / no-limit-sao / ctu-info=0 / no-lowpass-dct / refine-analysis-type=0 / copy-pic=1 / max-ausize-factor=1.0 / no-dynamic-refine / no-single-sei / no-hevc-aq / qp-adaptation-range=1.00
Default : Да
Forced : Нет

Аудио #1
Идентификатор : 2
Формат : AC-3
Формат/Информация : Audio Coding 3
Коммерческое название : Dolby Digital
Идентификатор кодека : A_AC3
Продолжительность : 2 ч. 33 м.
Вид битрейта : Постоянный
Битрейт : 448 Кбит/сек
Каналы : 6 каналов
Channel layout : L R C LFE Ls Rs
Частота : 48,0 КГц
Частота кадров : 31,250 кадров/сек (1536 SPF)
Битовая глубина : 16 бит
Метод сжатия : С потерями
Размер потока : 492 Мбайт (7%)
Заголовок : Dub, Blu-ray CEE
Язык : Russian
ServiceKind : Complete Main
Default : Да
Forced : Нет

Аудио #2
Идентификатор : 3
Формат : AC-3
Формат/Информация : Audio Coding 3
Коммерческое название : Dolby Digital
Идентификатор кодека : A_AC3
Продолжительность : 2 ч. 33 м.
Вид битрейта : Постоянный
Битрейт : 448 Кбит/сек
Каналы : 6 каналов
Channel layout : L R C LFE Ls Rs
Частота : 48,0 КГц
Частота кадров : 31,250 кадров/сек (1536 SPF)
Битовая глубина : 16 бит
Метод сжатия : С потерями
Размер потока : 492 Мбайт (7%)
Заголовок : Dub, Blu-ray CEE
Язык : Ukrainian
ServiceKind : Complete Main
Default : Нет
Forced : Нет

Аудио #3
Идентификатор : 4
Формат : AC-3
Формат/Информация : Audio Coding 3
Коммерческое название : Dolby Digital
Идентификатор кодека : A_AC3
Продолжительность : 2 ч. 33 м.
Вид битрейта : Постоянный
Битрейт : 640 Кбит/сек
Каналы : 6 каналов
Channel layout : L R C LFE Ls Rs
Частота : 48,0 КГц
Частота кадров : 31,250 кадров/сек (1536 SPF)
Битовая глубина : 16 бит
Метод сжатия : С потерями
Размер потока : 703 Мбайт (10%)
Язык : English
ServiceKind : Complete Main
Default : Нет
Forced : Нет

Текст #1
Идентификатор : 5
Формат : UTF-8
Идентификатор кодека : S_TEXT/UTF8
Идентификатор кодека/Информация : UTF-8 Plain Text
Продолжительность : 2 ч. 30 м.
Битрейт : 0 бит/сек
ElementCount : 19
Размер потока : 934 байт (0%)
Заголовок : captions
Язык : Russian
Default : Да
Forced : Нет

Текст #2
Идентификатор : 6
Формат : UTF-8
Идентификатор кодека : S_TEXT/UTF8
Идентификатор кодека/Информация : UTF-8 Plain Text
Продолжительность : 2 ч. 33 м.
Битрейт : 75 бит/сек
ElementCount : 1493
Размер потока : 84,8 Кбайт (0%)
Язык : Russian
Default : Нет
Forced : Нет

Текст #3
Идентификатор : 7
Формат : UTF-8
Идентификатор кодека : S_TEXT/UTF8
Идентификатор кодека/Информация : UTF-8 Plain Text
Продолжительность : 2 ч. 26 м.
Битрейт : 63 бит/сек
ElementCount : 1438
Размер потока : 67,8 Кбайт (0%)
Язык : Ukrainian
Default : Нет
Forced : Нет

Текст #4
Идентификатор : 8
Формат : UTF-8
Идентификатор кодека : S_TEXT/UTF8
Идентификатор кодека/Информация : UTF-8 Plain Text
Продолжительность : 2 ч. 22 м.
Битрейт : 48 бит/сек
ElementCount : 1437
Размер потока : 50,5 Кбайт (0%)
Язык : English
Default : Нет
Forced : Нет

Меню
00:00:00.000 : en:Who's Harry Potter?
00:05:28.494 : en:Horace Slughorn
00:12:13.941 : en:What Could Be Safer?
00:14:57.146 : en:Snape's Visitors
00:18:43.205 : en:Draco's Detour
00:22:30.515 : en:That's For My Father
00:27:36.029 : en:Dark Forces
00:32:04.631 : en:The Half-Blooded Prince
00:37:48.224 : en:The Secret Riddle
00:44:48.352 : en:Hermione's Helping Hand
00:49:31.760 : en:Cursed Necklace
00:54:55.375 : en:Slug Club
01:00:00.305 : en:Felix Felicis
01:03:09.660 : en:How It Feels
01:05:57.161 : en:Free Agents
01:09:13.691 : en:The Unbreakable Vow
01:14:00.102 : en:Death Eaters Attack
01:21:09.781 : en:A Sluggish Memory
01:26:31.477 : en:Perilous Potions
01:33:37.403 : en:Sectumsempra
01:39:57.324 : en:Hiding the Book
01:43:16.273 : en:Liquid Luck
01:48:24.748 : en:After Aragog's Burial
01:52:30.118 : en:Horcruxes
01:56:53.673 : en:The Cave
02:02:11.741 : en:Inferi Attack
02:08:33.539 : en:The Astronomy Tower
02:15:00.300 : en:Flight of the Princess
02:19:08.048 : en:R.A.B.
02:23:54.125 : en:End Credits
Загрузка...Cкриншот1 Гарри Поттер и Принц-полукровка / Harry Potter and the Half-Blood Prince (2009) BDRip 1080p [HEVC] 10 bit от Mr. FoxЗагрузка...Cкриншот2 Гарри Поттер и Принц-полукровка / Harry Potter and the Half-Blood Prince (2009) BDRip 1080p [HEVC] 10 bit от Mr. FoxЗагрузка...Cкриншот3 Гарри Поттер и Принц-полукровка / Harry Potter and the Half-Blood Prince (2009) BDRip 1080p [HEVC] 10 bit от Mr. FoxЗагрузка...Cкриншот4 Гарри Поттер и Принц-полукровка / Harry Potter and the Half-Blood Prince (2009) BDRip 1080p [HEVC] 10 bit от Mr. Fox
7. Гарри Поттер и Дары Смерти: Часть I / Harry Potter and the Deathly Hallows: Part 1 (2010) BDRip 1080p [HEVC] 10 bit от Mr. Fox
HEVC
10 bit
Обложка Гарри Поттер и Дары Смерти: Часть I / Harry Potter and the Deathly Hallows: Part 1 (2010) BDRip 1080p [HEVC] 10 bit от Mr. Fox Год: 2010
Страна: Великобритания, США
Студия: Warner Bros., Heyday Films
Жанр: Фэнтези, Приключения
Продолжительность: 02:26:05

Режиссер: Дэвид Йейтс
В ролях: Дэниэл Рэдклифф, Руперт Гринт, Эмма Уотсон, Том Фелтон, Бонни Райт, Алан Рикман, Рэйф Файнс, Хелена Бонем Картер, Майкл Гэмбон, Брендан Глисон

Описание: Гарри Поттера ждёт самое страшное испытание в жизни — смертельная схватка с Волан-де-Мортом. Ждать помощи не от кого — Гарри одинок, как никогда… Друзья и враги Гарри предстают в совершенно неожиданном свете. Граница между Добром и Злом становится всё призрачнее…


Видео: 1920x800, 4870 Kbps
Аудио1: AC3, 6 ch, 640 Kbps - РусскийРусский, Дублированный
Аудио2: AC3, 6 ch, 640 Kbps - УкраинскийУкраинский, Дублированный
Аудио3: AC3, 6 ch, 640 Kbps - АнглийскийАнглийский, Оригинал
Субтитры: Русские (форсированные, полные), английские

Как за пару секунд удалить ненужные аудиодорожки и субтитры (Внимание! После удаления вы не сможете поддержать раздачу)

Медиаинфо
x265 [info]: frame I: Avg QP:16.39
x265 [info]: frame P: Avg QP:17.83
x265 [info]: frame B: Avg QP:20.56
x265 [info]: consecutive B-frames: 8.1% 3.1% 3.8% 28.4% 5.0% 16.9% 3.8% 28.4% 0.7% 0.4% 0.2% 1.1% 0.2%

Avg QP:20.05

Общее
Уникальный идентификатор : 316687658692047117691435462998958130670 (0xEE3FD311BAE7B1A2E41E159816C5C5EE)
Полное имя : H:InstallUpload7. Harry Potter and the Deathly Hallows. Part 1 (2010) BDRip 1080p [HEVC].mkv
Формат : Matroska
Версия формата : Version 4
Размер файла : 6,93 Гбайт
Продолжительность : 2 ч. 26 м.
Общий поток : 6792 Кбит/сек
Название фильма : Harry Potter and the Deathly Hallows: Part 1 (2010)
Дата кодирования : UTC 2019-08-18 06:34:23
Программа кодирования : mkvmerge v36.0.0 ('Is That Jazz?') 64-bit
Библиотека кодирования : libebml v1.3.9 + libmatroska v1.5.2
Обложка : Yes
Attachments : cover.jpg

Видео
Идентификатор : 1
Формат : HEVC
Формат/Информация : High Efficiency Video Coding
Профиль формата : Main 10@L4.1@High
Идентификатор кодека : V_MPEGH/ISO/HEVC
Продолжительность : 2 ч. 26 м.
Битрейт : 4870 Кбит/сек
Ширина : 1920 пикселей
Высота : 800 пикселей
Соотношение сторон : 2,40:1
Режим частоты кадров : Постоянный
Частота кадров : 23,976 (23976/1000) кадра/сек
Частота кадров в оригинале : 23,976 (24000/1001) кадра/сек
Цветовое пространство : YUV
Субдискретизация насыщенности : 4:2:0
Битовая глубина : 10 бит
Бит/(Пиксели*Кадры) : 0.132
Размер потока : 4,97 Гбайт (72%)
Библиотека кодирования : x265 3.0_Au+4-dcbec33bfb0f:[Windows][MSVC 1916][64 bit] 10bit
Настройки программы : cpuid=1111039 / frame-threads=3 / numa-pools=12 / wpp / no-pmode / no-pme / no-psnr / no-ssim / log-level=2 / input-csp=1 / input-res=1920x800 / interlace=0 / total-frames=210155 / level-idc=41 / high-tier=1 / uhd-bd=0 / ref=5 / no-allow-non-conformance / no-repeat-headers / annexb / no-aud / no-hrd / info / hash=0 / no-temporal-layers / open-gop / min-keyint=23 / keyint=240 / gop-lookahead=0 / bframes=12 / b-adapt=2 / b-pyramid / bframe-bias=0 / rc-lookahead=60 / lookahead-slices=4 / scenecut=40 / radl=0 / no-splice / no-intra-refresh / ctu=32 / min-cu-size=8 / rect / amp / max-tu-size=32 / tu-inter-depth=4 / tu-intra-depth=4 / limit-tu=1 / rdoq-level=2 / dynamic-rd=0.00 / no-ssim-rd / signhide / no-tskip / nr-intra=0 / nr-inter=0 / no-constrained-intra / no-strong-intra-smoothing / max-merge=4 / limit-refs=2 / limit-modes / me=3 / subme=7 / merange=57 / temporal-mvp / weightp / weightb / no-analyze-src-pics / deblock=-3:-3 / no-sao / no-sao-non-deblock / rd=6 / no-early-skip / no-rskip / no-fast-intra / no-tskip-fast / no-cu-lossless / no-b-intra / no-splitrd-skip / rdpenalty=0 / psy-rd=2.00 / psy-rdoq=1.00 / no-rd-refine / no-lossless / cbqpoffs=0 / crqpoffs=0 / rc=crf / crf=21.0 / qcomp=0.70 / qpstep=4 / stats-write=0 / stats-read=0 / vbv-maxrate=50000 / vbv-bufsize=50000 / vbv-init=0.9 / crf-max=0.0 / crf-min=0.0 / ipratio=1.40 / pbratio=1.30 / aq-mode=1 / aq-strength=1.00 / no-cutree / zone-count=0 / no-strict-cbr / qg-size=32 / no-rc-grain / qpmax=69 / qpmin=0 / no-const-vbv / sar=1 / overscan=0 / videoformat=5 / range=0 / colorprim=2 / transfer=2 / colormatrix=2 / chromaloc=0 / display-window=0 / max-cll=0,0 / min-luma=0 / max-luma=1023 / log2-max-poc-lsb=8 / vui-timing-info / vui-hrd-info / slices=1 / no-opt-qp-pps / no-opt-ref-list-length-pps / no-multi-pass-opt-rps / scenecut-bias=0.05 / no-opt-cu-delta-qp / no-aq-motion / no-hdr / no-hdr-opt / no-dhdr10-opt / no-idr-recovery-sei / analysis-reuse-level=5 / scale-factor=0 / refine-intra=0 / refine-inter=0 / refine-mv=0 / refine-ctu-distortion=0 / no-limit-sao / ctu-info=0 / no-lowpass-dct / refine-analysis-type=0 / copy-pic=1 / max-ausize-factor=1.0 / no-dynamic-refine / no-single-sei / no-hevc-aq / qp-adaptation-range=1.00
Default : Да
Forced : Нет

Аудио #1
Идентификатор : 2
Формат : AC-3
Формат/Информация : Audio Coding 3
Коммерческое название : Dolby Digital
Идентификатор кодека : A_AC3
Продолжительность : 2 ч. 26 м.
Вид битрейта : Постоянный
Битрейт : 640 Кбит/сек
Каналы : 6 каналов
Channel layout : L R C LFE Ls Rs
Частота : 48,0 КГц
Частота кадров : 31,250 кадров/сек (1536 SPF)
Битовая глубина : 16 бит
Метод сжатия : С потерями
Размер потока : 669 Мбайт (9%)
Заголовок : Dub, Blu-ray CEE
Язык : Russian
ServiceKind : Complete Main
Default : Да
Forced : Нет

Аудио #2
Идентификатор : 3
Формат : AC-3
Формат/Информация : Audio Coding 3
Коммерческое название : Dolby Digital
Идентификатор кодека : A_AC3
Продолжительность : 2 ч. 26 м.
Вид битрейта : Постоянный
Битрейт : 640 Кбит/сек
Каналы : 6 каналов
Channel layout : L R C LFE Ls Rs
Частота : 48,0 КГц
Частота кадров : 31,250 кадров/сек (1536 SPF)
Битовая глубина : 16 бит
Метод сжатия : С потерями
Размер потока : 669 Мбайт (9%)
Заголовок : Dub, Blu-ray CEE
Язык : Ukrainian
ServiceKind : Complete Main
Default : Нет
Forced : Нет

Аудио #3
Идентификатор : 4
Формат : AC-3
Формат/Информация : Audio Coding 3
Коммерческое название : Dolby Digital
Идентификатор кодека : A_AC3
Продолжительность : 2 ч. 26 м.
Вид битрейта : Постоянный
Битрейт : 640 Кбит/сек
Каналы : 6 каналов
Channel layout : L R C LFE Ls Rs
Частота : 48,0 КГц
Частота кадров : 31,250 кадров/сек (1536 SPF)
Битовая глубина : 16 бит
Метод сжатия : С потерями
Размер потока : 669 Мбайт (9%)
Язык : English
ServiceKind : Complete Main
Default : Нет
Forced : Нет

Текст #1
Идентификатор : 5
Формат : UTF-8
Идентификатор кодека : S_TEXT/UTF8
Идентификатор кодека/Информация : UTF-8 Plain Text
Продолжительность : 2 ч. 24 м.
Битрейт : 0 бит/сек
ElementCount : 9
Размер потока : 435 байт (0%)
Заголовок : captions
Язык : Russian
Default : Да
Forced : Нет

Текст #2
Идентификатор : 6
Формат : UTF-8
Идентификатор кодека : S_TEXT/UTF8
Идентификатор кодека/Информация : UTF-8 Plain Text
Продолжительность : 2 ч. 25 м.
Битрейт : 71 бит/сек
ElementCount : 1338
Размер потока : 76,0 Кбайт (0%)
Язык : Russian
Default : Нет
Forced : Нет

Текст #3
Идентификатор : 7
Формат : UTF-8
Идентификатор кодека : S_TEXT/UTF8
Идентификатор кодека/Информация : UTF-8 Plain Text
Продолжительность : 2 ч. 11 м.
Битрейт : 44 бит/сек
ElementCount : 1272
Размер потока : 43,0 Кбайт (0%)
Язык : English
Default : Нет
Forced : Нет

Меню
00:00:00.000 : en:Dark Times / :Глава 01
00:04:18.508 : en:Dark Lord Ascending
00:09:46.627 : en:The Seven Potters
00:15:16.206 : en:Aerial Ambush
00:19:13.569 : en:Fallen Warrior
00:26:04.229 : en:Dumbledore's Will
00:31:37.770 : en:The Wedding
00:35:43.307 : en:A Place to Hide
00:41:37.536 : en:Kreacher's Tale
00:45:45.617 : en:Theft of a Thief
00:50:14.094 : en:Ministry Interior
00:55:02.715 : en:Secret Files
00:58:31.174 : en:Lifting the Locket
01:03:41.358 : en:Forest Fugitives
01:10:02.197 : en:Getting Too Close
01:14:30.924 : en:Broken Ranks
01:18:48.848 : en:Invitation to Dance
01:22:17.598 : en:Clues Revealed
01:24:55.089 : en:Godric's Hollow
01:28:03.194 : en:Bathilda's Secret
01:32:34.173 : en:The Silver Doe
01:37:40.228 : en:Sword of Gryffindor
01:42:37.567 : en:Lighting the Way Back
01:47:54.133 : en:The Three Brothers
01:53:48.112 : en:The Deathly Hallows
01:57:30.960 : en:Snatchers Strike
02:01:27.988 : en:Malfoy Manor
02:05:42.159 : en:Dobby Has No Master
02:09:42.732 : en:Sleeping Friend
02:13:16.029 : en:Grave Robber
02:14:47.120 : en:End Credits
00:10:00.000 : :Глава 02
00:20:00.000 : :Глава 03
00:30:00.000 : :Глава 04
00:40:00.000 : :Глава 05
00:50:00.000 : :Глава 06
01:00:00.000 : :Глава 07
01:10:00.000 : :Глава 08
01:20:00.000 : :Глава 09
01:30:00.000 : :Глава 10
01:40:00.000 : :Глава 11
01:50:00.000 : :Глава 12
02:00:00.000 : :Глава 13
02:10:00.000 : :Глава 14
02:20:00.000 : :Глава 15
Загрузка...Cкриншот1 Гарри Поттер и Дары Смерти: Часть I / Harry Potter and the Deathly Hallows: Part 1 (2010) BDRip 1080p [HEVC] 10 bit от Mr. FoxЗагрузка...Cкриншот2 Гарри Поттер и Дары Смерти: Часть I / Harry Potter and the Deathly Hallows: Part 1 (2010) BDRip 1080p [HEVC] 10 bit от Mr. FoxЗагрузка...Cкриншот3 Гарри Поттер и Дары Смерти: Часть I / Harry Potter and the Deathly Hallows: Part 1 (2010) BDRip 1080p [HEVC] 10 bit от Mr. FoxЗагрузка...Cкриншот4 Гарри Поттер и Дары Смерти: Часть I / Harry Potter and the Deathly Hallows: Part 1 (2010) BDRip 1080p [HEVC] 10 bit от Mr. Fox
8. Гарри Поттер и Дары Смерти: Часть II / Harry Potter and the Deathly Hallows: Part 2 (2011) BDRip 1080p [HEVC] 10 bit от Mr. Fox
HEVC
10 bit
Обложка Гарри Поттер и Дары Смерти: Часть II / Harry Potter and the Deathly Hallows: Part 2 (2011) BDRip 1080p [HEVC] 10 bit от Mr. Fox Год: 2011
Страна: США, Великобритания
Студия: Warner Bros., Heyday Films
Жанр: Фэнтези, Драма, Детектив, Приключения
Продолжительность: 02:10:26

Режиссер: Дэвид Йейтс
В ролях: Дэниэл Рэдклифф, Руперт Гринт, Эмма Уотсон, Хелена Бонем Картер, Робби Колтрейн, Уорвик Дэвис, Рэйф Файнс, Майкл Гэмбон, Джон Хёрт, Джейсон Айзекс

Описание: В грандиозной последней главе битва между добрыми и злыми силами мира волшебников перерастает во всеобщую войну. Ставки ещё никогда не были так высоки, а поиск убежища — столь сложен. И быть может именно Гарри Поттеру придется пожертвовать всем в финальном сражении с Волан-де-Мортом. Способен ли наш герой спасти мир? И всё закончится здесь.


Видео: 1920x800, 4870 Kbps
Аудио1: AC3, 6 ch, 640 Kbps - РусскийРусский, Дублированный
Аудио2: AC3, 6 ch, 640 Kbps - УкраинскийУкраинский, Дублированный
Аудио3: AC3, 6 ch, 640 Kbps - АнглийскийАнглийский, Оригинал
Субтитры: Русские (форсированные, полные), английские

Как за пару секунд удалить ненужные аудиодорожки и субтитры (Внимание! После удаления вы не сможете поддержать раздачу)

Медиаинфо
x265 [info]: frame I: Avg QP:17.00
x265 [info]: frame P: Avg QP:18.19
x265 [info]: frame B: Avg QP:20.66
x265 [info]: consecutive B-frames: 8.5% 3.7% 4.4% 23.4% 6.4% 12.6% 3.4% 34.3% 0.7% 0.4% 0.2% 1.8% 0.1%

Avg QP:20.21

Общее
Уникальный идентификатор : 318114183921674787415192499412755464940 (0xEF5290317939754C642A614237BEC2EC)
Полное имя : H:InstallUpload8. Harry Potter and the Deathly Hallows. Part 2 (2011) BDRip 1080p [HEVC].mkv
Формат : Matroska
Версия формата : Version 4
Размер файла : 7,45 Гбайт
Продолжительность : 2 ч. 10 м.
Общий поток : 8179 Кбит/сек
Название фильма : Harry Potter and the Deathly Hallows: Part 2 (2011)
Дата кодирования : UTC 2019-08-19 15:30:29
Программа кодирования : mkvmerge v36.0.0 ('Is That Jazz?') 64-bit
Библиотека кодирования : libebml v1.3.9 + libmatroska v1.5.2
Обложка : Yes
Attachments : cover.jpg

Видео
Идентификатор : 1
Формат : HEVC
Формат/Информация : High Efficiency Video Coding
Профиль формата : Main 10@L4.1@High
Идентификатор кодека : V_MPEGH/ISO/HEVC
Продолжительность : 2 ч. 10 м.
Битрейт : 6257 Кбит/сек
Ширина : 1920 пикселей
Высота : 800 пикселей
Соотношение сторон : 2,40:1
Режим частоты кадров : Постоянный
Частота кадров : 23,976 (23976/1000) кадра/сек
Частота кадров в оригинале : 23,976 (24000/1001) кадра/сек
Цветовое пространство : YUV
Субдискретизация насыщенности : 4:2:0
Битовая глубина : 10 бит
Бит/(Пиксели*Кадры) : 0.170
Размер потока : 5,70 Гбайт (76%)
Библиотека кодирования : x265 3.0_Au+4-dcbec33bfb0f:[Windows][MSVC 1916][64 bit] 10bit
Настройки программы : cpuid=1111039 / frame-threads=3 / numa-pools=12 / wpp / no-pmode / no-pme / no-psnr / no-ssim / log-level=2 / input-csp=1 / input-res=1920x800 / interlace=0 / total-frames=169798 / level-idc=41 / high-tier=1 / uhd-bd=0 / ref=5 / no-allow-non-conformance / no-repeat-headers / annexb / no-aud / no-hrd / info / hash=0 / no-temporal-layers / open-gop / min-keyint=23 / keyint=240 / gop-lookahead=0 / bframes=12 / b-adapt=2 / b-pyramid / bframe-bias=0 / rc-lookahead=60 / lookahead-slices=4 / scenecut=40 / radl=0 / no-splice / no-intra-refresh / ctu=32 / min-cu-size=8 / rect / amp / max-tu-size=32 / tu-inter-depth=4 / tu-intra-depth=4 / limit-tu=1 / rdoq-level=2 / dynamic-rd=0.00 / no-ssim-rd / signhide / no-tskip / nr-intra=0 / nr-inter=0 / no-constrained-intra / no-strong-intra-smoothing / max-merge=4 / limit-refs=2 / limit-modes / me=3 / subme=7 / merange=57 / temporal-mvp / weightp / weightb / no-analyze-src-pics / deblock=-3:-3 / no-sao / no-sao-non-deblock / rd=6 / no-early-skip / no-rskip / no-fast-intra / no-tskip-fast / no-cu-lossless / no-b-intra / no-splitrd-skip / rdpenalty=0 / psy-rd=2.00 / psy-rdoq=1.00 / no-rd-refine / no-lossless / cbqpoffs=0 / crqpoffs=0 / rc=crf / crf=21.0 / qcomp=0.70 / qpstep=4 / stats-write=0 / stats-read=0 / vbv-maxrate=50000 / vbv-bufsize=50000 / vbv-init=0.9 / crf-max=0.0 / crf-min=0.0 / ipratio=1.40 / pbratio=1.30 / aq-mode=1 / aq-strength=1.00 / no-cutree / zone-count=0 / no-strict-cbr / qg-size=32 / no-rc-grain / qpmax=69 / qpmin=0 / no-const-vbv / sar=1 / overscan=0 / videoformat=5 / range=0 / colorprim=2 / transfer=2 / colormatrix=2 / chromaloc=0 / display-window=0 / max-cll=0,0 / min-luma=0 / max-luma=1023 / log2-max-poc-lsb=8 / vui-timing-info / vui-hrd-info / slices=1 / no-opt-qp-pps / no-opt-ref-list-length-pps / no-multi-pass-opt-rps / scenecut-bias=0.05 / no-opt-cu-delta-qp / no-aq-motion / no-hdr / no-hdr-opt / no-dhdr10-opt / no-idr-recovery-sei / analysis-reuse-level=5 / scale-factor=0 / refine-intra=0 / refine-inter=0 / refine-mv=0 / refine-ctu-distortion=0 / no-limit-sao / ctu-info=0 / no-lowpass-dct / refine-analysis-type=0 / copy-pic=1 / max-ausize-factor=1.0 / no-dynamic-refine / no-single-sei / no-hevc-aq / qp-adaptation-range=1.00
Default : Да
Forced : Нет

Аудио #1
Идентификатор : 2
Формат : AC-3
Формат/Информация : Audio Coding 3
Коммерческое название : Dolby Digital
Идентификатор кодека : A_AC3
Продолжительность : 2 ч. 10 м.
Вид битрейта : Постоянный
Битрейт : 640 Кбит/сек
Каналы : 6 каналов
Channel layout : L R C LFE Ls Rs
Частота : 48,0 КГц
Частота кадров : 31,250 кадров/сек (1536 SPF)
Битовая глубина : 16 бит
Метод сжатия : С потерями
Размер потока : 597 Мбайт (8%)
Заголовок : Dub, Blu-ray CEE
Язык : Russian
ServiceKind : Complete Main
Default : Да
Forced : Нет

Аудио #2
Идентификатор : 3
Формат : AC-3
Формат/Информация : Audio Coding 3
Коммерческое название : Dolby Digital
Идентификатор кодека : A_AC3
Продолжительность : 2 ч. 10 м.
Вид битрейта : Постоянный
Битрейт : 640 Кбит/сек
Каналы : 6 каналов
Channel layout : L R C LFE Ls Rs
Частота : 48,0 КГц
Частота кадров : 31,250 кадров/сек (1536 SPF)
Битовая глубина : 16 бит
Метод сжатия : С потерями
Размер потока : 597 Мбайт (8%)
Заголовок : Dub, Blu-ray CEE
Язык : Ukrainian
ServiceKind : Complete Main
Default : Нет
Forced : Нет

Аудио #3
Идентификатор : 4
Формат : AC-3
Формат/Информация : Audio Coding 3
Коммерческое название : Dolby Digital
Идентификатор кодека : A_AC3
Продолжительность : 2 ч. 10 м.
Вид битрейта : Постоянный
Битрейт : 640 Кбит/сек
Каналы : 6 каналов
Channel layout : L R C LFE Ls Rs
Частота : 48,0 КГц
Частота кадров : 31,250 кадров/сек (1536 SPF)
Битовая глубина : 16 бит
Метод сжатия : С потерями
Размер потока : 597 Мбайт (8%)
Язык : English
ServiceKind : Complete Main
Default : Нет
Forced : Нет

Текст #1
Идентификатор : 5
Формат : UTF-8
Идентификатор кодека : S_TEXT/UTF8
Идентификатор кодека/Информация : UTF-8 Plain Text
Продолжительность : 2 ч. 8 м.
Битрейт : 0 бит/сек
ElementCount : 9
Размер потока : 404 байт (0%)
Заголовок : captions
Язык : Russian
Default : Да
Forced : Нет

Текст #2
Идентификатор : 6
Формат : UTF-8
Идентификатор кодека : S_TEXT/UTF8
Идентификатор кодека/Информация : UTF-8 Plain Text
Продолжительность : 2 ч. 8 м.
Битрейт : 45 бит/сек
ElementCount : 1041
Размер потока : 42,9 Кбайт (0%)
Язык : Russian
Default : Нет
Forced : Нет

Текст #3
Идентификатор : 7
Формат : UTF-8
Идентификатор кодека : S_TEXT/UTF8
Идентификатор кодека/Информация : UTF-8 Plain Text
Продолжительность : 1 ч. 54 м.
Битрейт : 33 бит/сек
ElementCount : 956
Размер потока : 27,9 Кбайт (0%)
Язык : English
Default : Нет
Forced : Нет

Меню
00:00:00.000 : en:Shell Cottage
00:02:58.219 : en:Griphook's Price
00:06:21.172 : en:He's After You
00:10:21.871 : en:Gringotts
00:14:27.992 : en:Copping the Cup
00:20:05.621 : en:Exit the Dragon
00:22:47.783 : en:Final Hiding Place
00:25:38.620 : en:Aberforth Dumbledore
00:30:46.803 : en:Hogwarts Reunion
00:34:33.654 : en:Give Me Harry Potter
00:40:32.263 : en:Duty To Our School
00:45:52.249 : en:You Need Only Ask
00:50:15.470 : en:Blow For Blow
00:54:41.027 : en:Finding the Diadem
00:59:01.245 : en:Fiendfyre
01:03:42.067 : en:He Will Come To Me
01:07:06.063 : en:Your Mother's Eyes
01:11:24.488 : en:Confront Your Fate
01:14:38.932 : en:Visions of a Life
01:23:40.848 : en:I Open At the Close
01:29:17.727 : en:The Boy Who Lived
01:31:25.020 : en:King's Cross
01:36:37.666 : en:Declare Yourself
01:41:09.104 : en:Not Over
01:46:42.312 : en:The Wand's Choice
01:50:18.361 : en:The Wizard's Choice
01:54:16.682 : en:Nineteen Years Later
01:58:12.876 : en:End Credits
Загрузка...Cкриншот1 Гарри Поттер и Дары Смерти: Часть II / Harry Potter and the Deathly Hallows: Part 2 (2011) BDRip 1080p [HEVC] 10 bit от Mr. FoxЗагрузка...Cкриншот2 Гарри Поттер и Дары Смерти: Часть II / Harry Potter and the Deathly Hallows: Part 2 (2011) BDRip 1080p [HEVC] 10 bit от Mr. FoxЗагрузка...Cкриншот3 Гарри Поттер и Дары Смерти: Часть II / Harry Potter and the Deathly Hallows: Part 2 (2011) BDRip 1080p [HEVC] 10 bit от Mr. FoxЗагрузка...Cкриншот4 Гарри Поттер и Дары Смерти: Часть II / Harry Potter and the Deathly Hallows: Part 2 (2011) BDRip 1080p [HEVC] 10 bit от Mr. Fox
Торрент🧲 Магнет

Рейтинги КП и IMDB, кнопки "Позвать в чате" и "Спасибо", а также мультитрекерная статистика доступны только зарегистрированным/авторизованным пользователям!

Файлы: 8
  • HP
    • 1. Harry Potter and the Sorcerer's Stone (2001) BDRip 1080p [HEVC].mkv   8.77 ГБ
    • 2. Harry Potter and the Chamber of Secrets (2002) BDRip 1080p [HEVC].mkv   8.74 ГБ
    • 3. Harry Potter and the Prisoner of Azkaban (2004) BDRip 1080p [HEVC].mkv   7.35 ГБ
    • 4. Harry Potter and the Goblet of Fire (2005) BDRip 1080p [HEVC].mkv   6.99 ГБ
    • 5. Harry Potter and the Order of the Phoenix (2007) BDRip 1080p [HEVC].mkv   6.97 ГБ
    • 6. Harry Potter and the Half-Blood Prince (2009) BDRip 1080p [HEVC}.mkv   6.96 ГБ
    • 7. Harry Potter and the Deathly Hallows. Part 1 (2010) BDRip 1080p [HEVC].mkv   6.93 ГБ
    • 8. Harry Potter and the Deathly Hallows. Part 2 (2011) BDRip 1080p [HEVC].mkv   7.45 ГБ
Поблагодарили: 26
375509, akasoanon, alexyak, aop, cnn, DarkBlayDer, denisptp4, FireIce, garant3v, grudich, inoy, magni, makss333, michael90, MIGRANT, NoMaD, normallhuman, reset666, sanyahustler, Sharaman86, svibog123, Temir_Nator, VadimM, Vanya Vetrov, vcx, yri150461
Admin
036401 (8)  60.17 ГБ

Добавление нового комментария

Добавление комментариев доступно только зарегистрированным/авторизованным пользователям.