💬 Мини-чат

BrooklynOldGamer, Ок, спасибо, качаю.
OldGamerBrooklyn, они все на раздаче пока что
BrooklynOldGamer, Пораздавайте, пожалуйста, все сезоны сериала "Гримм" ближайшие 3 дня, очень хочу их забрать. Качество отличное. Заранее Благодарен.
StarLordСообщение удалено (удалил: StarLord)
OldGamerвыводить
mafo2Admin, можно вывести, наглядно будет
StarLordAdmin, +
AdminНадпись HDR выводить на обложку?
OldGamerGiggalo, но лучше всего вообще не затрагивайте этот ключ, по умолчанию будет установлено оптимальное значение
OldGamerGiggalo, но если уж очень хочется то пишите --frame-threads 3
OldGamerGiggalo, а зачем его менять?) нужное значение устанавливается автоматически
GiggaloДобрый вечер всем! OldGamer Покажи пожалуйста почему когда пишу в командной строке frame-threads=3 он не меняется. Какой там стоит 13 он его и держит, а ругие установки спокойно меняет?
AdminStarLord, спасибо. Пока сойдет.
StarLordAdmin, ага, вижу
StarLordAdmin, а как должно брать?
AdminStarLord, ты шаришь?
AdminStarLord, у меня сейчас такая, но с точками беда. Доработать бы (https?://([-\w\.]+)+(:\d+)?(/([-\w/_:%]*(\.\w+)*(\?\S+)?)?)?)
AdminStarLord, скрины в bb некорректно берет
StarLordwww, ftp(s), http(s), #, :, &
StarLordAdmin, все мои кейсы покрыла
  • OldGamer
  • InSpector
  • ivan_1965
  • Rezident
Отправка сообщений доступна только зарегистрированным/авторизованным пользователям.
Онлайн (за 10 мин.): 4

1408 / 1408 (2007) [Director's Cut] BDRip 1080p [HEVC] 10 bit от Mr. Fox

HEVC
10 bit
Обложка 1408 / 1408 (2007) [Director's Cut] BDRip 1080p [HEVC] 10 bit от Mr. Fox Год: 2007
Страна: США
Студия: Dimension Films, The Weinstein Company, Di Bonaventura Pictures
Жанр: Мистика, Триллер, Ужасы
Продолжительность: 01:52:26

Режиссер: Микаэль Хофстрём
В ролях: Джон Кьюсак, Мэри МакКормак, Жасмин Джессика Энтони, Сэмюэл Л. Джексон, Тони Шэлуб, Бенни Уркидез, Эндрю Ли Поттс, Пол Бирчард, Марго Лейкестер, Уолтер Льюис

Описание: Известный писатель Майк Энслин, сочиняющий свои романы в жанре «ужасы», пишет очередную книгу о необычных явлениях и полтергейсте в отелях. Не верящий в существование загробной жизни, Энслин решает поселиться в печально известном номере 1408 гостиницы «Дельфин», который пустует многие годы: по слухам, там обитают привидения. Невзирая на предупреждения старшего менеджера мистера Джеральда Олина о грозящей опасности, упрямец настаивает на своем, даже не предполагая, каким кошмаром обернется предстоящая ночь…


Видео: 1920x800, ~8226 Kbps
Аудио1: AC3, 6 ch, 640 Kbps - РусскийРусский, Дублированный + вставки двухголосого на расширенные сцены
Аудио2: AC3, 6 ch, 640 Kbps - РусскийРусский, Двухголосый (Гланц и Королева)
Аудио3: AC3, 6 ch, 640 Kbps - АнглийскийАнглийский, Оригинал
Субтитры: Русские, английские

Как за пару секунд удалить ненужные аудиодорожки и субтитры (Внимание! После удаления вы не сможете поддержать раздачу)

Лог (x265 info)
x265 [info]: frame I: Avg QP:18.61 kb/s
x265 [info]: frame P: Avg QP:19.86 kb/s
x265 [info]: frame B: Avg QP:21.89 kb/s
Медиаинфо
General
Unique ID : 55014585705853593539863692439737371186 (0x29636C7E159F04124290761966E88A32)
Complete name : E:\Torrent\1408 (2007).mkv
Format : Matroska
Format version : Version 4
File size : 7.97 GiB
Duration : 1 h 52 min
Overall bit rate : 10.1 Mb/s
Movie name : 1408 (2007)
Encoded date : UTC 2021-02-07 18:49:54
Writing application : mkvmerge v53.0.0 ('Fool's Gold') 64-bit
Writing library : libebml v1.4.1 + libmatroska v1.6.2
Cover : Yes
Attachments : cover.jpg

Video
ID : 1
Format : HEVC
Format/Info : High Efficiency Video Coding
Format profile : Main 10@L4.1@High
Codec ID : V_MPEGH/ISO/HEVC
Duration : 1 h 52 min
Bit rate : 8 226 kb/s
Width : 1 920 pixels
Height : 800 pixels
Display aspect ratio : 2.40:1
Frame rate mode : Constant
Frame rate : 23.976 (23976/1000) FPS
Original frame rate : 23.976 (24000/1001) FPS
Color space : YUV
Chroma subsampling : 4:2:0
Bit depth : 10 bits
Bits/(Pixel*Frame) : 0.223
Stream size : 6.46 GiB (81%)
Writing library : x265 3.4+10-g25b2c0703:[Windows][MSVC 1927][64 bit] 10bit
Encoding settings : cpuid=1111039 / frame-threads=4 / numa-pools=16 / wpp / no-pmode / no-pme / no-psnr / no-ssim / log-level=2 / input-csp=1 / input-res=1920x800 / interlace=0 / total-frames=153257 / level-idc=41 / high-tier=1 / uhd-bd=0 / ref=5 / no-allow-non-conformance / no-repeat-headers / annexb / no-aud / no-hrd / info / hash=0 / no-temporal-layers / open-gop / min-keyint=23 / keyint=240 / gop-lookahead=0 / bframes=12 / b-adapt=2 / b-pyramid / bframe-bias=0 / rc-lookahead=60 / lookahead-slices=4 / scenecut=40 / hist-scenecut=0 / radl=0 / no-splice / no-intra-refresh / ctu=32 / min-cu-size=8 / rect / amp / max-tu-size=32 / tu-inter-depth=4 / tu-intra-depth=4 / limit-tu=1 / rdoq-level=2 / dynamic-rd=0.00 / no-ssim-rd / signhide / no-tskip / nr-intra=0 / nr-inter=0 / no-constrained-intra / no-strong-intra-smoothing / max-merge=4 / limit-refs=2 / limit-modes / me=3 / subme=7 / merange=57 / temporal-mvp / no-frame-dup / no-hme / weightp / weightb / no-analyze-src-pics / deblock=-3:-3 / no-sao / no-sao-non-deblock / rd=6 / selective-sao=0 / no-early-skip / no-rskip / no-fast-intra / no-tskip-fast / no-cu-lossless / no-b-intra / no-splitrd-skip / rdpenalty=0 / psy-rd=2.00 / psy-rdoq=1.00 / no-rd-refine / no-lossless / cbqpoffs=0 / crqpoffs=0 / rc=crf / crf=20.0 / qcomp=0.60 / qpstep=4 / stats-write=0 / stats-read=0 / vbv-maxrate=50000 / vbv-bufsize=50000 / vbv-init=0.9 / crf-max=0.0 / crf-min=0.0 / ipratio=1.40 / pbratio=1.30 / aq-mode=1 / aq-strength=0.90 / no-cutree / zone-count=0 / no-strict-cbr / qg-size=32 / no-rc-grain / qpmax=69 / qpmin=0 / no-const-vbv / sar=1 / overscan=0 / videoformat=5 / range=0 / colorprim=1 / transfer=1 / colormatrix=1 / chromaloc=0 / display-window=0 / cll=0,0 / min-luma=0 / max-luma=1023 / log2-max-poc-lsb=8 / vui-timing-info / vui-hrd-info / slices=1 / no-opt-qp-pps / no-opt-ref-list-length-pps / no-multi-pass-opt-rps / scenecut-bias=0.05 / hist-threshold=0.01 / no-opt-cu-delta-qp / no-aq-motion / no-hdr10 / no-hdr10-opt / no-dhdr10-opt / no-idr-recovery-sei / analysis-reuse-level=0 / analysis-save-reuse-level=0 / analysis-load-reuse-level=0 / scale-factor=0 / refine-intra=0 / refine-inter=0 / refine-mv=1 / refine-ctu-distortion=0 / no-limit-sao / ctu-info=0 / no-lowpass-dct / refine-analysis-type=0 / copy-pic=1 / max-ausize-factor=1.0 / no-dynamic-refine / no-single-sei / no-hevc-aq / no-svt / no-field / qp-adaptation-range=1.00 / no-scenecut-aware-qpconformance-window-offsets / right=0 / bottom=0 / decoder-max-rate=0
Default : Yes
Forced : No
Color range : Limited
Color primaries : BT.709
Transfer characteristics : BT.709
Matrix coefficients : BT.709

Audio #1
ID : 2
Format : AC-3
Format/Info : Audio Coding 3
Commercial name : Dolby Digital
Codec ID : A_AC3
Duration : 1 h 52 min
Bit rate mode : Constant
Bit rate : 640 kb/s
Channel(s) : 6 channels
Channel layout : L R C LFE Ls Rs
Sampling rate : 48.0 kHz
Frame rate : 31.250 FPS (1536 SPF)
Compression mode : Lossy
Delay relative to video : 24 ms
Stream size : 514 MiB (6%)
Title : Dub+DVO
Language : Russian
Service kind : Complete Main
Default : Yes
Forced : No

Audio #2
ID : 3
Format : AC-3
Format/Info : Audio Coding 3
Commercial name : Dolby Digital
Codec ID : A_AC3
Duration : 1 h 52 min
Bit rate mode : Constant
Bit rate : 640 kb/s
Channel(s) : 6 channels
Channel layout : L R C LFE Ls Rs
Sampling rate : 48.0 kHz
Frame rate : 31.250 FPS (1536 SPF)
Compression mode : Lossy
Delay relative to video : 24 ms
Stream size : 514 MiB (6%)
Title : DVO, Glanz & Koroleva
Language : Russian
Service kind : Complete Main
Default : No
Forced : No

Audio #3
ID : 4
Format : AC-3
Format/Info : Audio Coding 3
Commercial name : Dolby Digital
Codec ID : A_AC3
Duration : 1 h 52 min
Bit rate mode : Constant
Bit rate : 640 kb/s
Channel(s) : 6 channels
Channel layout : L R C LFE Ls Rs
Sampling rate : 48.0 kHz
Frame rate : 31.250 FPS (1536 SPF)
Compression mode : Lossy
Delay relative to video : 24 ms
Stream size : 515 MiB (6%)
Language : English
Service kind : Complete Main
Default : No
Forced : No

Text #1
ID : 5
Format : UTF-8
Codec ID : S_TEXT/UTF8
Codec ID/Info : UTF-8 Plain Text
Duration : 1 h 45 min
Bit rate : 86 b/s
Count of elements : 1253
Stream size : 67.3 KiB (0%)
Language : Russian
Default : No
Forced : No

Text #2
ID : 6
Format : UTF-8
Codec ID : S_TEXT/UTF8
Codec ID/Info : UTF-8 Plain Text
Duration : 1 h 45 min
Bit rate : 47 b/s
Count of elements : 1226
Stream size : 37.0 KiB (0%)
Language : English
Default : No
Forced : No

Menu
00:00:00.000 : en:00:00:00.000
00:04:50.499 : en:00:04:50.499
00:08:21.626 : en:00:08:21.626
00:09:49.088 : en:00:09:49.088
00:14:45.093 : en:00:14:45.093
00:23:23.319 : en:00:23:23.319
00:27:30.357 : en:00:27:30.357
00:33:51.613 : en:00:33:51.613
00:39:03.508 : en:00:39:03.508
00:43:29.524 : en:00:43:29.524
00:48:33.035 : en:00:48:33.035
00:51:39.638 : en:00:51:39.638
00:58:54.656 : en:00:58:54.656
01:04:54.265 : en:01:04:54.265
01:08:08.293 : en:01:08:08.293
01:12:11.786 : en:01:12:11.786
01:17:22.555 : en:01:17:22.555
01:23:06.815 : en:01:23:06.815
01:29:09.928 : en:01:29:09.928
01:35:33.436 : en:01:35:33.436
01:42:17.798 : en:01:42:17.798
01:46:35.097 : en:01:46:35.097
Сравнение скриншотов:
https://screenshotcomparison.com/comparison/10908 - со старым рипом

Загрузка...Cкриншот1 1408 / 1408 (2007) [Director's Cut] BDRip 1080p [HEVC] 10 bit от Mr. FoxЗагрузка...Cкриншот2 1408 / 1408 (2007) [Director's Cut] BDRip 1080p [HEVC] 10 bit от Mr. FoxЗагрузка...Cкриншот3 1408 / 1408 (2007) [Director's Cut] BDRip 1080p [HEVC] 10 bit от Mr. FoxЗагрузка...Cкриншот4 1408 / 1408 (2007) [Director's Cut] BDRip 1080p [HEVC] 10 bit от Mr. Fox
Сэмпл Торрент🧲 Магнет

Раздача обновлена!
Фильм перекодирован с улучшением качества.

Рейтинги КП и IMDB, кнопки "Позвать в чате" и "Спасибо", а также мультитрекерная статистика сидов и пиров доступны только зарегистрированным/авторизованным пользователям!

Файлы: 1
  • 1408 (2007).mkv   7.97 ГБ
Поблагодарили: 19
375509, alexyak, and50, Brooklyn, donadar, han-nik, Kilop77, Kiran, ko1ob, makss333, Manson_Fan, maximka, mr_nikitin, NoMaD, Nuclear70, OldGamer, SoulBoy, tobbioleg, Undervest
Admin
41501217.97 ГБ

Добавление нового комментария

Добавление комментариев доступно только зарегистрированным/авторизованным пользователям.
Аватар не указан
  mr_nikitin  
Очень люблю этот фильм, спасибо!
Аватар NoMaD
  NoMaD  
mafo2 писал(а):
И предыдущие рипы были качественные (если сравнивать с исходником и другими рипами). Просто в них не применялась фильтрация, было просто сжатие с сохранением картинки исходника.
Появились знания сделать лучше )
и спасибо тебе за это)))
Аватар mafo2
  mafo2  (Отредактировал mafo2)    
И предыдущие рипы были качественные (если сравнивать с исходником и другими рипами). Просто в них не применялась фильтрация, было просто сжатие с сохранением картинки исходника.
Появились знания сделать лучше )
Аватар Manson_Fan
  Manson_Fan  
Я извиняюсь, не претензии ради, а интереса для - а что мешало в первый раз сделать сразу качественный рип?)) Старый ПК или просто в сети появился новый, более крутой источник?
Просто уже который рип вижу на трекере в обновленном качестве, решил узнать.