💬 Мини-чат

BrooklynOldGamer, Ок, спасибо, качаю.
OldGamerBrooklyn, они все на раздаче пока что
BrooklynOldGamer, Пораздавайте, пожалуйста, все сезоны сериала "Гримм" ближайшие 3 дня, очень хочу их забрать. Качество отличное. Заранее Благодарен.
StarLordСообщение удалено (удалил: StarLord)
OldGamerвыводить
mafo2Admin, можно вывести, наглядно будет
StarLordAdmin, +
AdminНадпись HDR выводить на обложку?
OldGamerGiggalo, но лучше всего вообще не затрагивайте этот ключ, по умолчанию будет установлено оптимальное значение
OldGamerGiggalo, но если уж очень хочется то пишите --frame-threads 3
OldGamerGiggalo, а зачем его менять?) нужное значение устанавливается автоматически
GiggaloДобрый вечер всем! OldGamer Покажи пожалуйста почему когда пишу в командной строке frame-threads=3 он не меняется. Какой там стоит 13 он его и держит, а ругие установки спокойно меняет?
AdminStarLord, спасибо. Пока сойдет.
StarLordAdmin, ага, вижу
StarLordAdmin, а как должно брать?
AdminStarLord, ты шаришь?
AdminStarLord, у меня сейчас такая, но с точками беда. Доработать бы (https?://([-\w\.]+)+(:\d+)?(/([-\w/_:%]*(\.\w+)*(\?\S+)?)?)?)
AdminStarLord, скрины в bb некорректно берет
StarLordwww, ftp(s), http(s), #, :, &
StarLordAdmin, все мои кейсы покрыла
  • OldGamer
  • diesel0000
  • InSpector
  • moonson
Отправка сообщений доступна только зарегистрированным/авторизованным пользователям.
Онлайн (за 10 мин.): 4

Блуждающая Земля / Liu lang di qiu (2019) BDRip 1080p [HEVC] 10 bit от M@kSIMus

HEVC
10 bit
Обложка Блуждающая Земля / Liu lang di qiu (2019) BDRip 1080p [HEVC] 10 bit от M@kSIMus Год: 2019
Страна: Китай
Студия: Beijing Culture, China Film Company Limited., United Entertainment Partners
Жанр: Фантастика, Боевик
Продолжительность: 02:05:07

Режиссер: Франт Гво
В ролях: Джеки Ву, Цюй Чусяо, Ли Гуанцзе, Нг Ман-Тат, Чжао Цзиньмай, Цюй Цзинцзин, Чжан Ичи, Ян Хаоюй, Аркадий Шароградский, Ли Хунчэнь

Описание: В ближайшем будущем становится известно, что Солнце скоро погаснет, что разрушит Солнечную систему. Тогда человечество запускает масштабный проект под названием «Блуждающая Земля», цель которого — с помощью огромных двигателей по всему миру сдвинуть Землю и полететь искать новое пристанище. Через 17 лет путешествия земляне приближаются к Юпитеру. Гравитация гигантской планеты меняет траекторию Земли, вызывает глобальные землетрясения и ставит под угрозу весь проект по выживанию человечества.


Видео: 1920x752, 7041 Kbps
Аудио1: AC3, 2 ch, 192 Kbps - РусскийРусский, Многоголосый (HDrezka Studio)
Аудио2: AC3, 6 ch, 384 Kbps - АнглийскийАнглийский
Аудио3: AC3, 6 ch, 640 Kbps - КитайскийКитайский, Оригинал
Субтитры: Русские (форсированные, полные), английские

Как за пару секунд удалить ненужные аудиодорожки и субтитры (Внимание! После удаления вы не сможете поддержать раздачу)

Медиаинфо
x265 info: frame I: 2437, Avg QP:16.64 kb/s: 19973.47
x265 info: frame P: 39446, Avg QP:17.90 kb/s: 11885.92
x265 info: frame B: 138284, Avg QP:20.30 kb/s: 5430.56
x265 info: Weighted P-Frames: Y:16.2% UV:13.1%
x265 info: consecutive B-frames: 14.2% 7.7% 9.9% 31.6% 10.2% 14.3% 3.6% 3.6% 1.6% 1.1% 0.7% 0.6% 0.3% 0.2% 0.4%
x265 info: encoded 180167 frames in 109163.34s (1.65 fps), 7040.62 kb/s, Avg QP:19.73

Формат : Matroska
Версия формата : Version 4
Размер файла : 7,22 Гбайт
Продолжительность : 2 ч. 5 м.
Общий поток : 8260 Кбит/сек
Название фильма : The Wandering Earth (2019) Encoded_by_M@kSIMus
Дата кодирования : UTC 2019-11-09 10:20:56
Программа кодирования : mkvmerge v38.0.0 ('The Silent Type') 64-bit
Библиотека кодирования : libebml v1.3.9 + libmatroska v1.5.2
Attachments : poster.jpg

Видео
Идентификатор : 1
Формат : HEVC
Формат/Информация : High Efficiency Video Coding
Профиль формата : Main 10@L4.1@High
Идентификатор кодека : V_MPEGH/ISO/HEVC
Продолжительность : 2 ч. 5 м.
Битрейт : 7041 Кбит/сек
Ширина : 1920 пикселей
Высота : 752 пикселя
Соотношение сторон : 2,553
Режим частоты кадров : Постоянный
Частота кадров : 24,000 кадра/сек
Цветовое пространство : YUV
Субдискретизация насыщенности : 4:2:0
Битовая глубина : 10 бит
Бит/(Пиксели*Кадры) : 0.203
Размер потока : 6,15 Гбайт (85%)
Библиотека кодирования : x265 3.2+5-354901970679:[Windows][clang 8.0.1][64 bit] 10bit
Настройки программы : cpuid=1049583 / frame-threads=5 / numa-pools=4 / wpp / no-pmode / no-pme / no-psnr / no-ssim / log-level=3 / input-csp=1 / input-res=1920x752 / interlace=0 / total-frames=0 / level-idc=41 / high-tier=1 / uhd-bd=0 / ref=5 / allow-non-conformance / no-repeat-headers / annexb / no-aud / no-hrd / info / hash=0 / no-temporal-layers / open-gop / min-keyint=24 / keyint=240 / gop-lookahead=0 / bframes=14 / b-adapt=2 / b-pyramid / bframe-bias=0 / rc-lookahead=40 / lookahead-slices=4 / scenecut=40 / radl=0 / no-splice / no-intra-refresh / ctu=32 / min-cu-size=8 / no-rect / no-amp / max-tu-size=32 / tu-inter-depth=4 / tu-intra-depth=4 / limit-tu=1 / rdoq-level=1 / dynamic-rd=0.00 / no-ssim-rd / signhide / no-tskip / nr-intra=0 / nr-inter=0 / no-constrained-intra / no-strong-intra-smoothing / max-merge=5 / limit-refs=1 / no-limit-modes / me=3 / subme=7 / merange=57 / temporal-mvp / no-frame-dup / no-hme / weightp / no-weightb / no-analyze-src-pics / deblock=-3:-3 / no-sao / no-sao-non-deblock / rd=3 / selective-sao=0 / early-skip / no-rskip / no-fast-intra / no-tskip-fast / no-cu-lossless / b-intra / no-splitrd-skip / rdpenalty=0 / psy-rd=2.00 / psy-rdoq=1.00 / no-rd-refine / no-lossless / cbqpoffs=0 / crqpoffs=0 / rc=crf / crf=20.0 / qcomp=0.60 / qpstep=4 / stats-write=0 / stats-read=0 / vbv-maxrate=50000 / vbv-bufsize=50000 / vbv-init=0.9 / crf-max=0.0 / crf-min=0.0 / ipratio=1.40 / pbratio=1.30 / aq-mode=3 / aq-strength=1.00 / no-cutree / zone-count=0 / no-strict-cbr / qg-size=32 / no-rc-grain / qpmax=69 / qpmin=0 / no-const-vbv / sar=1 / overscan=0 / videoformat=5 / range=0 / colorprim=2 / transfer=2 / colormatrix=2 / chromaloc=0 / display-window=0 / cll=0,0 / min-luma=0 / max-luma=1023 / log2-max-poc-lsb=8 / vui-timing-info / vui-hrd-info / slices=1 / no-opt-qp-pps / no-opt-ref-list-length-pps / no-multi-pass-opt-rps / scenecut-bias=0.05 / no-opt-cu-delta-qp / no-aq-motion / no-hdr / no-hdr-opt / no-dhdr10-opt / no-idr-recovery-sei / analysis-reuse-level=5 / scale-factor=0 / refine-intra=0 / refine-inter=0 / refine-mv=1 / refine-ctu-distortion=0 / no-limit-sao / ctu-info=0 / no-lowpass-dct / refine-analysis-type=0 / copy-pic=1 / max-ausize-factor=1.0 / no-dynamic-refine / no-single-sei / no-hevc-aq / no-svt / no-field / qp-adaptation-range=1.00
Язык : Chinese
Default : Да
Forced : Нет
Цветовой диапазон : Limited

Аудио #1
Идентификатор : 2
Формат : AC-3
Формат/Информация : Audio Coding 3
Коммерческое название : Dolby Digital
Идентификатор кодека : A_AC3
Продолжительность : 2 ч. 5 м.
Вид битрейта : Постоянный
Битрейт : 192 Кбит/сек
Каналы : 2 канала
ChannelLayout : L R
Частота : 48,0 КГц
Частота кадров : 31,250 кадров/сек (1536 SPF)
Метод сжатия : С потерями
Размер потока : 172 Мбайт (2%)
Заголовок : HDRezka Studio
Язык : Russian
Default : Да
Forced : Нет

Аудио #2
Идентификатор : 3
Формат : AC-3
Формат/Информация : Audio Coding 3
Коммерческое название : Dolby Digital
Идентификатор кодека : A_AC3
Продолжительность : 2 ч. 5 м.
Вид битрейта : Постоянный
Битрейт : 384 Кбит/сек
Каналы : 6 каналов
ChannelLayout : L R C LFE Ls Rs
Частота : 48,0 КГц
Частота кадров : 31,250 кадров/сек (1536 SPF)
Метод сжатия : С потерями
Размер потока : 344 Мбайт (5%)
Заголовок : Английский
Язык : English
Default : Нет
Forced : Нет

Аудио #3
Идентификатор : 4
Формат : AC-3
Формат/Информация : Audio Coding 3
Коммерческое название : Dolby Digital
Идентификатор кодека : A_AC3
Продолжительность : 2 ч. 5 м.
Вид битрейта : Постоянный
Битрейт : 640 Кбит/сек
Каналы : 6 каналов
ChannelLayout : L R C LFE Ls Rs
Частота : 48,0 КГц
Частота кадров : 31,250 кадров/сек (1536 SPF)
Метод сжатия : С потерями
Размер потока : 573 Мбайт (8%)
Заголовок : Китайский
Язык : Chinese
Default : Нет
Forced : Нет

Текст #1
Идентификатор : 5
Формат : UTF-8
Идентификатор кодека : S_TEXT/UTF8
Идентификатор кодека/Информация : UTF-8 Plain Text
Продолжительность : 2 ч. 1 м.
Битрейт : 4 бит/сек
ElementCount : 88
Размер потока : 3,60 Кбайт (0%)
Заголовок : Rus Forced
Язык : Russian
Default : Да
Forced : Да

Текст #2
Идентификатор : 6
Формат : UTF-8
Идентификатор кодека : S_TEXT/UTF8
Идентификатор кодека/Информация : UTF-8 Plain Text
Продолжительность : 2 ч. 3 м.
Битрейт : 86 бит/сек
ElementCount : 1738
Размер потока : 78,9 Кбайт (0%)
Заголовок : Rus Full
Язык : Russian
Default : Нет
Forced : Нет

Текст #3
Идентификатор : 7
Формат : UTF-8
Идентификатор кодека : S_TEXT/UTF8
Идентификатор кодека/Информация : UTF-8 Plain Text
Продолжительность : 1 ч. 57 м.
Битрейт : 54 бит/сек
ElementCount : 1758
Размер потока : 47,4 Кбайт (0%)
Заголовок : Eng Full
Язык : English
Default : Нет
Forced : Нет

Меню
00:00:00.000 : :Chapter 01
00:09:02.708 : :Chapter 02
00:22:19.250 : :Chapter 03
00:32:36.416 : :Chapter 04
00:41:24.666 : :Chapter 05
00:50:44.166 : :Chapter 06
00:58:43.333 : :Chapter 07
01:09:27.625 : :Chapter 08
01:20:09.625 : :Chapter 09
01:34:25.291 : :Chapter 10
01:45:38.583 : :Chapter 11
01:55:38.250 : :Chapter 12
Загрузка...Cкриншот1 Блуждающая Земля / Liu lang di qiu (2019) BDRip 1080p [HEVC] 10 bit от M@kSIMusЗагрузка...Cкриншот2 Блуждающая Земля / Liu lang di qiu (2019) BDRip 1080p [HEVC] 10 bit от M@kSIMusЗагрузка...Cкриншот3 Блуждающая Земля / Liu lang di qiu (2019) BDRip 1080p [HEVC] 10 bit от M@kSIMusЗагрузка...Cкриншот4 Блуждающая Земля / Liu lang di qiu (2019) BDRip 1080p [HEVC] 10 bit от M@kSIMus
Сэмпл Торрент🧲 Магнет

Рейтинги КП и IMDB, кнопки "Позвать в чате" и "Спасибо", а также мультитрекерная статистика сидов и пиров доступны только зарегистрированным/авторизованным пользователям!

Файлы: 1
  • The Wandering Earth (2019) BDRip 1080p [HEVC] 10 bit.mkv   7.22 ГБ
Поблагодарили: 5
bitum, silver, unnamed, vikievan, Холодец_3
Admin
237447007.22 ГБ

Добавление нового комментария

Добавление комментариев доступно только зарегистрированным/авторизованным пользователям.
Аватар не указан
  XuMuK  
Zulbay писал(а):
Нихера себе сколько китайцев скачало )))
Я тоже в шоке)))))))))))))))
Аватар не указан
  Zulbay  
Нихера себе сколько китайцев скачало )))