💬 Мини-чат

GiggaloСообщение удалено (удалил: Giggalo)
StarLordOldGamer, как дела?)
StarLordOldGamer, ура, вернулся 😄
OldGamerRezident, можете скачать этот фильм от другого релизёра, там невелика разница, а раздающие точно есть
OldGamerGiggalo, https://tsya.ru/mnemonic.html
NoMaDСообщение удалено (удалил: NoMaD)
NoMaDСообщение удалено (удалил: NoMaD)
GiggaloСообщение удалено (удалил: Giggalo)
GiggaloСообщение удалено (удалил: Giggalo)
Spartanec1308Был днём
StarLordGiggalo, наверное отрубало беднягу, целый день его нету 😅
GiggaloСообщение удалено (удалил: Giggalo)
OldGamerДоброе. Работы много, некогда на перинах валяться.
GiggaloСообщение удалено (удалил: Giggalo)
GiggaloСообщение удалено (удалил: Giggalo)
  • OldGamer
  • Spartanec1308
  • Giggalo
  • alenu
Отправка сообщений доступна только зарегистрированным/авторизованным пользователям.
Онлайн (за 10 мин.): 4

Следствие закончено, забудьте / L'istruttoria è chiusa: dimentichi (1971) BDRip 1080p [HEVC] 10 bit от Joker63

HEVC
10 bit
Обложка Следствие закончено, забудьте / L'istruttoria è chiusa: dimentichi (1971) BDRip 1080p [HEVC] 10 bit от Joker63 Год: 1971
Страна: Италия, Франция
Жанр: Триллер, Криминал
Продолжительность: 01:41:00

Режиссер: Дамиано Дамиани
В ролях: Франко Неро, Джордж Уилсон, Джон Стайнер, Риккардо Куччиола, Ферруччо де Череза, Энцо Андронико

Описание: Архитектора Ванци поместили на время следствия в тюрьму. Его подозревают в том, что он сбил человека на пешеходном переходе. Попав в тюрьму, Ванци знакомится с её обитателями — матерыми уголовниками, убийцами, сумасшедшими, жестокими надзирателями и крупным чиновником Сальваторе Роза, который сел, чтобы прикрыть махинации своих начальников. И здесь этот человек чувствует себя королем. По прошествии времени Ванци подсаживают в камеру к некоему Пезенти, на которого точит зуб крупная компания и ряд чиновников. Они готовы на всё ради того, чтобы этот человек замолчал, ибо он обладает неоспоримыми доказательствами их вины в гибели 1000 человек. Постепенно Ванци понимает, что он марионетка в невидимых и могущественных руках и что его используют для ликвидации последнего свидетеля этих злодеяний…


Видео: 1920x1038, 6002 Kbps
Аудио1: AC3, 2 ch, 192 Kbps - РусскийРусский, Дублированный (Союзмультфильм) + вставки одноголосого
Аудио2: AC3, 2 ch, 192 Kbps - РусскийРусский, Одноголосый
Субтитры: Нет

Как за пару секунд удалить ненужные аудиодорожки и субтитры (Внимание! После удаления вы не сможете поддержать раздачу)

Медиаинфо
Общее
Уникальный идентификатор : 198298637985035748103523257071049908817 (0x952EEDB10A1CF39F8AFCAAB265E02251)
Полное имя : D:\Франко Неро\Следствие закончено, забудьте (1971) BDRip 1080p [HEVC] 10 bit.mkv
Формат : Matroska
Версия формата : Version 4 / Version 2
Размер файла : 4,73 Гбайт
Продолжительность : 1 ч. 46 м.
Общий поток : 6388 Кбит/сек
Название фильма : Рип от Joker63 для HEVC - CLUB
Дата кодирования : UTC 2018-08-08 09:55:00
Программа кодирования : mkvmerge v24.0.0 ('Beyond The Pale') 64-bit
Библиотека кодирования : libebml v1.3.6 + libmatroska v1.4.9
Обложка : Yes
Attachments : cover.jpg

Видео
Идентификатор : 1
Формат : HEVC
Формат/Информация : High Efficiency Video Coding
Профиль формата : Main 10@L5.1@Main
Идентификатор кодека : V_MPEGH/ISO/HEVC
Продолжительность : 1 ч. 46 м.
Битрейт : 6002 Кбит/сек
Ширина : 1920 пикселей
Высота : 1038 пикселей
Соотношение сторон : 1,85:1
Режим частоты кадров : Постоянный
Частота кадров : 23,976 (24000/1001) кадра/сек
Цветовое пространство : YUV
Субдискретизация насыщенности : 4:2:0
Битовая глубина : 10 бит
Бит/(Пиксели*Кадры) : 0.126
Размер потока : 4,44 Гбайт (94%)
Библиотека кодирования : x265 2.8+19-bcdc610cf5f0:[Windows][GCC 7.3.0][64 bit] 10bit
Настройки программы : cpuid=1049583 / frame-threads=5 / numa-pools=4 / wpp / no-pmode / no-pme / no-psnr / no-ssim / log-level=3 / input-csp=1 / input-res=1920x1038 / interlace=0 / total-frames=0 / level-idc=51 / high-tier=1 / uhd-bd=0 / ref=3 / allow-non-conformance / no-repeat-headers / annexb / no-aud / no-hrd / info / hash=0 / no-temporal-layers / open-gop / min-keyint=24 / keyint=240 / gop-lookahead=0 / bframes=6 / b-adapt=2 / b-pyramid / bframe-bias=0 / rc-lookahead=20 / lookahead-slices=6 / scenecut=40 / radl=0 / no-intra-refresh / ctu=64 / min-cu-size=8 / no-rect / no-amp / max-tu-size=32 / tu-inter-depth=1 / tu-intra-depth=1 / limit-tu=0 / rdoq-level=0 / dynamic-rd=0.00 / no-ssim-rd / signhide / no-tskip / nr-intra=0 / nr-inter=0 / no-constrained-intra / strong-intra-smoothing / max-merge=2 / limit-refs=3 / no-limit-modes / me=1 / subme=2 / merange=57 / temporal-mvp / weightp / no-weightb / no-analyze-src-pics / deblock=-2:-2 / sao / no-sao-non-deblock / rd=3 / no-early-skip / rskip / no-fast-intra / no-tskip-fast / no-cu-lossless / no-b-intra / no-splitrd-skip / rdpenalty=0 / psy-rd=2.00 / psy-rdoq=0.00 / no-rd-refine / no-lossless / cbqpoffs=0 / crqpoffs=0 / rc=abr / bitrate=6000 / qcomp=0.60 / qpstep=4 / stats-write=0 / stats-read=0 / ipratio=1.40 / pbratio=1.30 / aq-mode=1 / aq-strength=1.00 / cutree / zone-count=0 / no-strict-cbr / qg-size=32 / no-rc-grain / qpmax=69 / qpmin=0 / no-const-vbv / sar=1 / overscan=0 / videoformat=5 / range=0 / colorprim=1 / transfer=1 / colormatrix=1 / chromaloc=0 / display-window=0 / max-cll=0,0 / min-luma=0 / max-luma=1023 / log2-max-poc-lsb=8 / vui-timing-info / vui-hrd-info / slices=1 / no-opt-qp-pps / no-opt-ref-list-length-pps / no-multi-pass-opt-rps / scenecut-bias=0.05 / no-opt-cu-delta-qp / no-aq-motion / no-hdr / no-hdr-opt / no-dhdr10-opt / no-idr-recovery-sei / analysis-reuse-level=5 / scale-factor=0 / refine-intra=0 / refine-inter=0 / refine-mv=0 / no-limit-sao / ctu-info=0 / no-lowpass-dct / refine-mv-type=0 / copy-pic=1 / max-ausize-factor=1.0 / no-dynamic-refine / no-single-sei
Язык : English
Default : Да
Forced : Нет
Цветовой диапазон : Limited
Основные цвета : BT.709
Характеристики трансфера : BT.709
Коэффициенты матрицы : BT.709

Аудио #1
Идентификатор : 2
Формат : AC-3
Формат/Информация : Audio Coding 3
Идентификатор кодека : A_AC3
Продолжительность : 1 ч. 46 м.
Вид битрейта : Постоянный
Битрейт : 192 Кбит/сек
Каналы : 2 канала
Расположение каналов : Front: L R
Частота : 48,0 КГц
Частота кадров : 31,250 кадров/сек (1536 SPF)
Битовая глубина : 16 бит
Метод сжатия : С потерями
Размер потока : 146 Мбайт (3%)
Заголовок : Dub
Язык : Russian
ServiceKind/String : Complete Main
Default : Да
Forced : Нет

Аудио #2
Идентификатор : 3
Формат : AC-3
Формат/Информация : Audio Coding 3
Идентификатор кодека : A_AC3
Продолжительность : 1 ч. 46 м.
Вид битрейта : Постоянный
Битрейт : 192 Кбит/сек
Каналы : 2 канала
Расположение каналов : Front: L R
Частота : 48,0 КГц
Частота кадров : 31,250 кадров/сек (1536 SPF)
Битовая глубина : 16 бит
Метод сжатия : С потерями
Размер потока : 146 Мбайт (3%)
Заголовок : VO
Язык : Russian
ServiceKind/String : Complete Main
Default : Нет
Forced : Нет
Загрузка...Cкриншот1 Следствие закончено, забудьте / L'istruttoria è chiusa: dimentichi (1971) BDRip 1080p [HEVC] 10 bit от Joker63Загрузка...Cкриншот2 Следствие закончено, забудьте / L'istruttoria è chiusa: dimentichi (1971) BDRip 1080p [HEVC] 10 bit от Joker63Загрузка...Cкриншот3 Следствие закончено, забудьте / L'istruttoria è chiusa: dimentichi (1971) BDRip 1080p [HEVC] 10 bit от Joker63Загрузка...Cкриншот4 Следствие закончено, забудьте / L'istruttoria è chiusa: dimentichi (1971) BDRip 1080p [HEVC] 10 bit от Joker63
Сэмпл Торрент🧲 Магнет

Рейтинги КП и IMDB, кнопки "Позвать в чате" и "Спасибо", а также мультитрекерная статистика доступны только зарегистрированным/авторизованным пользователям!

Файлы: 1
  • Следствие закончено, забудьте (1971) BDRip 1080p [HEVC] 10 bit.mkv   4.73 ГБ
Поблагодарили: 1
brukvalub
joker63
03004.73 ГБ

Добавление нового комментария

Добавление комментариев доступно только зарегистрированным/авторизованным пользователям.