Регистрация / Смена пароля

💬 Мини-чат

Адрес сайта поменялся с hevc-club.video на rips.club. Новый адрес анонсера - http://rips.club:2710/announce
ADVOKAT69rodina_45, буду перекодировать!
rodina_45Раздайте, пожалуйста, Царевна-лягушка (1954) BDRip 1080p [HEVC] 10 bit от ADVOKAT69
OldGamerДа всегда пожалуйста
UndervestСообщение удалено (удалил: Undervest)
StarLordOldGamer, очень жаль... Возможно сам возьмусь)
OldGamerStarLord, в планах такого нету :)
StarLordOldGamer, еще бы "Бомжа с дробовиком" в придачу к "Мачете" =))
warner98Раздайте, пожалуйста, Кошмар на улице Вязов / A Nightmare on Elm Street (2010) BDRip 1080p [HEVC] 10 bit от Cthulhu
VISРаздайте, пожалуйста, Доспехи Бога / Lung hing foo dai (1986) BDRip 1080p [HEVC] 10 bit от joker63
  • Admin
  • mvazquez
Отправка сообщений доступна только зарегистрированным/авторизованным пользователям.
Онлайн (за 10 мин.): 2

Падение ангела / Angel Has Fallen (2019) UHD-BDRip 1080p [HEVC] 10 bit [SDR] от M@kSIMus

HEVC
10 bit
Обложка Падение ангела / Angel Has Fallen (2019) UHD-BDRip 1080p [HEVC] 10 bit [SDR] от M@kSIMus Год: 2019
Страна: США
Студия: Campbell Grobman Films, Eclectic Pictures, G-BASE
Жанр: Боевик, Триллер
Продолжительность: 02:01:03

Режиссер: Рик Роман Во
В ролях: Джерард Батлер, Фредерик Шмидт, Дэнни Хьюстон, Рокки Уильямс, Пайпер Перабо, Гарри Дитсон, Линда Джон-Пьер, Ори Феффер, Морган Фриман, Жасмин Хайд

Описание: На президента США совершено покушение, главный обвиняемый — верный ангел-хранитель главы государства и агент секретной службы Майк Бэннинг. Скрываясь от ФБР, он должен найти тех, кто его подставил, и спасти страну и ее лидера от смертельной угрозы.


Видео: 1920x802, 12.1 Mbps
Аудио1: AC3, 6 ch, 640 Kbps - РусскийРусский, Дублированный (Лицензия)
Аудио2: AC3, 6 ch, 640 Kbps - АнглийскийАнглийский, Оригинал
Субтитры: Русские, английские

Как за пару секунд удалить ненужные аудиодорожки и субтитры (Внимание! После удаления вы не сможете поддержать раздачу)

Лог (x265 info)
x265 info: frame I: 1809, Avg QP:16.75 kb/s: 27361.74
x265 info: frame P: 32067, Avg QP:17.88 kb/s: 18624.58
x265 info: frame B: 140269, Avg QP:20.23 kb/s: 10472.39
x265 info: Weighted P-Frames: Y:8.0% UV:7.0%
x265 info: consecutive B-frames: 11.2% 7.0% 7.6% 26.8% 8.2% 16.3% 5.3% 5.4% 3.1% 2.6% 1.6% 1.6% 1.0% 0.7% 0.6% 0.4% 0.6%
x265 info: encoded 174145 frames in 154814.99s (1.12 fps), 12148.97 kb/s, Avg QP:19.76
Медиаинфо
Формат : Matroska
Версия формата : Version 4
Размер файла : 11,4 Гбайт
Продолжительность : 2 ч. 1 м.
Общий поток : 13,4 Мбит/сек
Название фильма : Angel Has Fallen (2019) Encoded_by_M@kSIMus
Дата кодирования : UTC 2020-09-09 10:15:25
Программа кодирования : mkvmerge v50.0.0 ('Awakenings') 64-bit
Библиотека кодирования : libebml v1.4.0 + libmatroska v1.6.2
Attachments : poster3.jpg

Видео
Идентификатор : 1
Формат : HEVC
Формат/Информация : High Efficiency Video Coding
Профиль формата : Main 10@L4.1@High
Идентификатор кодека : V_MPEGH/ISO/HEVC
Продолжительность : 2 ч. 1 м.
Битрейт : 12,1 Мбит/сек
Ширина : 1 920 пикселей
Высота : 802 пикселя
Соотношение сторон : 2,40:1
Режим частоты кадров : Постоянный
Частота кадров : 23,976 (24000/1001) кадра/сек
Цветовое пространство : YUV
Субдискретизация насыщенности : 4:2:0
Битовая глубина : 10 бит
Бит/(Пиксели*Кадры) : 0.329
Размер потока : 10,3 Гбайт (90%)
Библиотека кодирования : x265 3.2+5-354901970679:[Windows][clang 8.0.1][64 bit] 10bit
Настройки программы : cpuid=1049583 / frame-threads=5 / numa-pools=4 / wpp / no-pmode / no-pme / no-psnr / no-ssim / log-level=3 / input-csp=1 / input-res=1920x802 / interlace=0 / total-frames=0 / level-idc=41 / high-tier=1 / uhd-bd=0 / ref=5 / allow-non-conformance / no-repeat-headers / annexb / no-aud / no-hrd / info / hash=0 / no-temporal-layers / open-gop / min-keyint=24 / keyint=240 / gop-lookahead=0 / bframes=16 / b-adapt=2 / b-pyramid / bframe-bias=0 / rc-lookahead=40 / lookahead-slices=5 / scenecut=40 / radl=0 / no-splice / no-intra-refresh / ctu=32 / min-cu-size=8 / no-rect / no-amp / max-tu-size=32 / tu-inter-depth=4 / tu-intra-depth=4 / limit-tu=1 / rdoq-level=1 / dynamic-rd=0.00 / no-ssim-rd / signhide / no-tskip / nr-intra=0 / nr-inter=0 / no-constrained-intra / no-strong-intra-smoothing / max-merge=5 / limit-refs=1 / no-limit-modes / me=3 / subme=7 / merange=57 / temporal-mvp / no-frame-dup / no-hme / weightp / no-weightb / no-analyze-src-pics / deblock=-3:-3 / no-sao / no-sao-non-deblock / rd=3 / selective-sao=0 / early-skip / no-rskip / no-fast-intra / no-tskip-fast / no-cu-lossless / b-intra / no-splitrd-skip / rdpenalty=0 / psy-rd=2.00 / psy-rdoq=1.00 / no-rd-refine / no-lossless / cbqpoffs=0 / crqpoffs=0 / rc=crf / crf=20.0 / qcomp=0.60 / qpstep=4 / stats-write=0 / stats-read=0 / vbv-maxrate=50000 / vbv-bufsize=50000 / vbv-init=0.9 / crf-max=0.0 / crf-min=0.0 / ipratio=1.40 / pbratio=1.30 / aq-mode=3 / aq-strength=1.00 / no-cutree / zone-count=0 / no-strict-cbr / qg-size=32 / no-rc-grain / qpmax=69 / qpmin=0 / no-const-vbv / sar=1 / overscan=0 / videoformat=5 / range=0 / colorprim=1 / transfer=1 / colormatrix=1 / chromaloc=0 / display-window=0 / cll=0,0 / min-luma=0 / max-luma=1023 / log2-max-poc-lsb=8 / vui-timing-info / vui-hrd-info / slices=1 / no-opt-qp-pps / no-opt-ref-list-length-pps / no-multi-pass-opt-rps / scenecut-bias=0.05 / no-opt-cu-delta-qp / no-aq-motion / no-hdr / no-hdr-opt / no-dhdr10-opt / no-idr-recovery-sei / analysis-reuse-level=5 / scale-factor=0 / refine-intra=0 / refine-inter=0 / refine-mv=1 / refine-ctu-distortion=0 / no-limit-sao / ctu-info=0 / no-lowpass-dct / refine-analysis-type=0 / copy-pic=1 / max-ausize-factor=1.0 / no-dynamic-refine / no-single-sei / no-hevc-aq / no-svt / no-field / qp-adaptation-range=1.00
Язык : English
Default : Да
Forced : Нет
Цветовой диапазон : Limited
Основные цвета : BT.709
Характеристики трансфера : BT.709
Коэффициенты матрицы : BT.709

Аудио #1
Идентификатор : 2
Формат : AC-3
Формат/Информация : Audio Coding 3
Коммерческое название : Dolby Digital
Идентификатор кодека : A_AC3
Продолжительность : 2 ч. 1 м.
Вид битрейта : Постоянный
Битрейт : 640 Кбит/сек
Каналы : 6 каналов
Channel layout : L R C LFE Ls Rs
Частота : 48,0 КГц
Частота кадров : 31,250 кадров/сек (1536 SPF)
Метод сжатия : С потерями
Размер потока : 554 Мбайт (5%)
Заголовок : Дубляж (Лицензия)
Язык : Russian
Service kind : Complete Main
Default : Да
Forced : Нет

Аудио #2
Идентификатор : 3
Формат : AC-3
Формат/Информация : Audio Coding 3
Коммерческое название : Dolby Digital
Идентификатор кодека : A_AC3
Продолжительность : 2 ч. 1 м.
Вид битрейта : Постоянный
Битрейт : 640 Кбит/сек
Каналы : 6 каналов
Channel layout : L R C LFE Ls Rs
Частота : 48,0 КГц
Частота кадров : 31,250 кадров/сек (1536 SPF)
Метод сжатия : С потерями
Размер потока : 554 Мбайт (5%)
Заголовок : Original
Язык : English
Service kind : Complete Main
Default : Нет
Forced : Нет

Текст #1
Идентификатор : 4
Формат : UTF-8
Идентификатор кодека : S_TEXT/UTF8
Идентификатор кодека/Информация : UTF-8 Plain Text
Продолжительность : 1 ч. 52 м.
Битрейт : 98 бит/сек
Count of elements : 1454
Размер потока : 81,6 Кбайт (0%)
Заголовок : Русские (полные [Enigma])
Язык : Russian
Default : Да
Forced : Нет

Текст #2
Идентификатор : 5
Формат : UTF-8
Идентификатор кодека : S_TEXT/UTF8
Идентификатор кодека/Информация : UTF-8 Plain Text
Продолжительность : 1 ч. 51 м.
Битрейт : 58 бит/сек
Count of elements : 1452
Размер потока : 47,3 Кбайт (0%)
Заголовок : Full
Язык : English
Default : Нет
Forced : Нет

Меню
00:00:00.000 : :Chapter 01
00:06:48.950 : :Chapter 02
00:15:08.157 : :Chapter 03
00:23:13.809 : :Chapter 04
00:28:35.714 : :Chapter 05
00:39:39.627 : :Chapter 06
00:45:33.564 : :Chapter 07
00:50:56.053 : :Chapter 08
00:59:23.393 : :Chapter 09
01:06:50.882 : :Chapter 10
01:16:25.873 : :Chapter 11
01:24:11.046 : :Chapter 12
01:30:14.409 : :Chapter 13
01:37:42.065 : :Chapter 14
01:44:54.538 : :Chapter 15
01:51:08.120 : :Chapter 16
Загрузка...Cкриншот1 Падение ангела / Angel Has Fallen (2019) UHD-BDRip 1080p [HEVC] 10 bit [SDR] от M@kSIMusЗагрузка...Cкриншот2 Падение ангела / Angel Has Fallen (2019) UHD-BDRip 1080p [HEVC] 10 bit [SDR] от M@kSIMusЗагрузка...Cкриншот3 Падение ангела / Angel Has Fallen (2019) UHD-BDRip 1080p [HEVC] 10 bit [SDR] от M@kSIMusЗагрузка...Cкриншот4 Падение ангела / Angel Has Fallen (2019) UHD-BDRip 1080p [HEVC] 10 bit [SDR] от M@kSIMus
Сэмпл Торрент🧲 Магнет

Раздача обновлена!
Дубляж заменен на лицензионный. Добавлены русские субтитры.

Рейтинги КП и IMDB, кнопки "Позвать в чате" и "Спасибо", а также мультитрекерная статистика сидов и пиров доступны только зарегистрированным/авторизованным пользователям!

Файлы: 1
  • 03. Angel Has Fallen (2019) UHD BDRip 1080p [HEVC] 10 bit.mkv   11.36 ГБ
Поблагодарили: 13
and50, Bakhadur, bs158250, D16T, Dmitrrry, GIS88, Imp3rr0r, makss333, Nuclear70, Temir_Nator, torrentzulu, VadimM, Холодец_3
Admin
0433211.36 ГБ

Добавление нового комментария

Добавление комментариев доступно только зарегистрированным/авторизованным пользователям.