Чат

⚫︎
Список изменений сайта - https://rips.club/changelog.html (обновлен 24.05.2024)
  • ancestor87
  • Art1967
  • arwis
  • Banzai
  • ExoticDeer
Онлайн (за 10 мин.): 5
  • Tastod: Раздайте, пожалуйста, Загадочная история Бенджамина Баттона / The Curious Case of Benjamin Button (2008) BDRip 1080p [HEVC] 10 bit от Spartanec1308
  • Гл. Админ: Исправил баг, когда после анонса коллекции все анонсы показывались в спойлере, даже если не являлись коллекцией.
  • Гл. Админ: Исправил баг, когда в ЛС не возможно было удалить сообщение.
  • bronsonw200: Гл. Админ, Как по мне, так смотрится приятнее.
  • Гл. Админ: В светлой теме задний фон сделал чуть потемнее, чтобы было не слишком ярко. В темной теме поисковую строку сделал черной (как в светлой теме), чтобы выделялась. Убрал рамки вокруг элементов форм. Прокрутку страницы в начало сделал плавной. ( отредактировано: )
  • Гл. Админ: В ближайшие дни по вечерам начну подправлять дизайн.
  • Гл. Админ: Готово.
  • Гл. Админ: Управление релизами закончил, но не буду выкладывать на ночь глядя. Утром протестирую на локальном компе, и днем выложу.
  • Гл. Админ: Фон баннера релиз-группы сделал прозрачным и перезалил на внешнем хостинге.
  • OldGamer: было бы неплохо
  • Гл. Админ: Управление релизами наверно сегодня закончу.
  • HANNIBAL: Сообщение удалено (удалил: HANNIBAL)
  • HANNIBAL: Гл. Админ, не привычно
  • Гл. Админ: HANNIBAL, хорошего или плохого?
  • HANNIBAL: эт чей-то вы тут натворили с сайтом ;)
  • Гл. Админ: ExoticDeer, просто в будущем будет несколько новостных строчек и они будут автоматически переключаться по кругу, поэтому не хочется статичную. Могу ещё уменьшить частоту, если всё равно будет отвлекать. ( отредактировано: )
  • Гл. Админ: ExoticDeer, уменьшил частоту мигания с 5 сек. до 10 сек.
  • ExoticDeer: Гл. Админ, про мигание, скорее отвлекает, особенно на тёмной теме. статичная хорошо смотрелась
  • Гл. Админ: Winsent, Исправил. Теперь, при просмотре комментариев конкретного пользователя, эта галочка не играет роли. Спасибо, что сообщили.
  • Гл. Админ: Winsent, сначала не поверил своим глазам. Это было оооочень странно. Но кажется теперь понял в чем проблема. Ошибка появляется, если в настройках не установлена галочка "Получать уведомления о всех комментариях". Причем у разных пользователей проявляется по разному - у кого-то ничего не показывается, а у кого-то показывается часть комментариев. Поэтому мне долго не удавалось воспроизвести ошибку. Сейчас исправлю.
Отправка сообщений доступна только зарегистрированным/авторизованным пользователям.

🎥︎Тонкая красная линия / The Thin Red Line (1998) BDRip 1080p [HEVC] 8 bit от ADVOKAT69


Обложка Тонкая красная линия / The Thin Red Line (1998) BDRip 1080p [HEVC] 8 bit от ADVOKAT69
HEVC
8 bit
✂︎Сэмпл⤓︎Торрент🧲︎Магнет$Пожертвования
Год: 1998
Страна: США
Жанр: Боевик, Драма, Военный
Длительность: 02:50:37

Режиссер: Терренс Малик
В ролях: Кирк Асеведо, Шон Пенн, Пенелопа Аллен, Эдриан Броуди, Джеймс Кэвизел, Бенжамин Грин, Саймон Биллиг, Бен Чаплин, Марк Бун Джуниор,Джордж Клуни, Джон Кьюсак, Вуди Харрельсон, Ник Нолти, Джон Си Райли, Джон Траволта

Описание: Фильм рассказывает о нескольких месяцах жизни армейского подразделения, в том числе об участии этого подразделения в одной из решающих и сложных операций XX-го века - битве за Гвадалканал. Американские пехотинцы посланы на подмогу морским подразделениям, измотанным схваткой с японцами.


Видео: 1920x800, 3608 Kbps
Аудио: DTS 6 ch, 768 kbps - РусскийРусский, Дублированный (Лицензия)
Субтитры: нет

МедиаинфоВидео
Идентификатор : 1
Формат : HEVC
Формат/Информация : High Efficiency Video Coding
Профиль формата : Main@L4.1@High
Идентификатор кодека : V_MPEGH/ISO/HEVC
Продолжительность : 2 ч. 50 м.
Битрейт : 3608 Кбит/сек
Ширина : 1920 пикселей
Высота : 818 пикселей
Соотношение сторон : 2,35:1
Режим частоты кадров : Постоянный
Частота кадров : 23,976 (24000/1001) кадра/сек
Цветовое пространство : YUV
Субдискретизация насыщенности : 4:2:0
Битовая глубина : 8 бит
Бит/(Пиксели*Кадры) : 0.096
Размер потока : 4,30 Гбайт (82%)
Библиотека кодирования : x265 2.5+5-0b3ba15b33ea:[Windows][GCC 7.2.0][64 bit] 8bit+10bit+12bit
Настройки программы : cpuid=1050111 / frame-threads=2 / numa-pools=4 / wpp / no-pmode / no-pme / no-psnr / no-ssim / log-level=2 / input-csp=1 / input-res=1920x818 / interlace=0 / total-frames=0 / level-idc=41 / high-tier=1 / uhd-bd=0 / ref=3 / no-allow-non-conformance / no-repeat-headers / annexb / no-aud / no-hrd / info / hash=0 / no-temporal-layers / open-gop / min-keyint=23 / keyint=250 / bframes=4 / b-adapt=0 / b-pyramid / bframe-bias=0 / rc-lookahead=15 / lookahead-slices=5 / scenecut=40 / no-intra-refresh / ctu=64 / min-cu-size=8 / no-rect / no-amp / max-tu-size=32 / tu-inter-depth=1 / tu-intra-depth=1 / limit-tu=0 / rdoq-level=0 / dynamic-rd=0.00 / no-ssim-rd / signhide / no-tskip / nr-intra=0 / nr-inter=0 / no-constrained-intra / strong-intra-smoothing / max-merge=2 / limit-refs=3 / no-limit-modes / me=1 / subme=2 / merange=57 / temporal-mvp / weightp / no-weightb / no-analyze-src-pics / deblock=-3:-3 / no-sao / no-sao-non-deblock / rd=2 / no-early-skip / rskip / fast-intra / no-tskip-fast / no-cu-lossless / no-b-intra / rdpenalty=0 / psy-rd=2.00 / psy-rdoq=0.00 / no-rd-refine / analysis-reuse-mode=0 / no-lossless / cbqpoffs=0 / crqpoffs=0 / rc=crf / crf=20.0 / qcomp=0.60 / qpstep=4 / stats-write=0 / stats-read=0 / vbv-maxrate=50000 / vbv-bufsize=50000 / vbv-init=0.9 / crf-max=0.0 / crf-min=0.0 / ipratio=1.40 / pbratio=1.30 / aq-mode=1 / aq-strength=1.00 / cutree / zone-count=0 / no-strict-cbr / qg-size=32 / no-rc-grain / qpmax=69 / qpmin=0 / no-const-vbv / sar=0 / overscan=0 / videoformat=5 / range=0 / colorprim=2 / transfer=2 / colormatrix=1 / chromaloc=0 / display-window=0 / max-cll=0,0 / min-luma=0 / max-luma=255 / log2-max-poc-lsb=8 / vui-timing-info / vui-hrd-info / slices=1 / opt-qp-pps / opt-ref-list-length-pps / no-multi-pass-opt-rps / scenecut-bias=0.05 / no-opt-cu-delta-qp / no-aq-motion / no-hdr / no-hdr-opt / no-dhdr10-opt / analysis-reuse-level=5 / scale-factor=0 / refine-intra=0 / refine-inter=0 / refine-mv=0 / no-limit-sao / ctu-info=0
Default : Да
Forced : Да
Цветовой диапазон : Limited
Коэффициенты матрицы : BT.709

Аудио
Идентификатор : 2
Формат : DTS
Формат/Информация : Digital Theater Systems
Идентификатор кодека : A_DTS
Продолжительность : 2 ч. 50 м.
Вид битрейта : Постоянный
Битрейт : 768 Кбит/сек
Каналы : 6 каналов
Расположение каналов : Front: L C R, Side: L R, LFE
Частота : 48,0 КГц
Частота кадров : 93,750 кадра/сек (512 SPF)
Битовая глубина : 24 бит
Метод сжатия : С потерями
Размер потока : 937 Мбайт (18%)
Default : Да
Forced : Нет

Меню
00:00:00.000 : en:Chapter 1
00:10:39.639 : en:Chapter 2
00:15:44.401 : en:Chapter 3
00:20:09.583 : en:Chapter 4
00:25:48.588 : en:Chapter 5
00:36:09.750 : en:Chapter 6
00:38:07.118 : en:Chapter 7
00:41:15.764 : en:Chapter 8
00:44:23.827 : en:Chapter 9
00:55:35.248 : en:Chapter 10
01:00:55.943 : en:Chapter 11
01:05:06.068 : en:Chapter 12
01:11:06.971 : en:Chapter 13
01:13:29.405 : en:Chapter 14
01:21:43.899 : en:Chapter 15
01:26:28.516 : en:Chapter 16
01:39:47.648 : en:Chapter 17
01:43:54.436 : en:Chapter 18
01:45:20.105 : en:Chapter 19
01:56:33.486 : en:Chapter 20
02:03:17.390 : en:Chapter 21
02:05:43.827 : en:Chapter 22
02:11:23.584 : en:Chapter 23
02:14:40.113 : en:Chapter 24
02:19:39.829 : en:Chapter 25
02:24:16.856 : en:Chapter 26
02:28:14.218 : en:Chapter 27
02:32:32.268 : en:Chapter 28
02:37:22.057 : en:Chapter 29
02:39:27.516 : en:Chapter 30
02:43:35.806 : en:Chapter 31
Загрузка...Cкриншот1 Тонкая красная линия / The Thin Red Line (1998) BDRip 1080p [HEVC] 8 bit от ADVOKAT69Загрузка...Cкриншот2 Тонкая красная линия / The Thin Red Line (1998) BDRip 1080p [HEVC] 8 bit от ADVOKAT69Загрузка...Cкриншот3 Тонкая красная линия / The Thin Red Line (1998) BDRip 1080p [HEVC] 8 bit от ADVOKAT69Загрузка...Cкриншот4 Тонкая красная линия / The Thin Red Line (1998) BDRip 1080p [HEVC] 8 bit от ADVOKAT69
Поблагодарили: 7brukvalub, Chestnoc, controller70, HANNIBAL, nach, Rezident, stormbringer
Файлы: 1
  • Тонкая красная линия HEVC advokat69.mkv

Рейтинги КП и IMDB, кнопки "Раздайте, пожалуйста" и "Спасибо", а также мультитрекерная статистика доступны только зарегистрированным/авторизованным пользователям!

ADVOKAT69
0455005.22 ГБ

💬︎ Комментарии

Добавление комментариев доступно только зарегистрированным/авторизованным пользователям.