💬 Мини-чат

OldGamerну и акустические излучатели собрать хорошие, типа Penaudio Legato Signature или похожие, тут надо тщательно собирать систему для прослушивания
OldGamerне помешает ещё посетить отоларинголога для промывки слухового аппарата от серных пробок специализированным сертифицированным раствором, это (промывка) имеет немаловажное значение
OldGamer😆🤐🤐
OldGamerи всё же лучше hi-end, с подключением кабелями типа Analysis-Plus Oval 9 из бескислородной меди и с их предварительным прогревом системой типа Nordost Vidar, иначе всё теряет смысл
XuMuKManson_Fan, не надо hi-end акустики, достаточно hi-fi. "Кристольность" на высоких частотах другая, в DTS кажется более "живым" звук. Но самая большая разница, когда сравниваешь АС3 с каким-нибудь DTS-HD MA
IRITРаздайте, пожалуйста, Байки из склепа: Демон ночи / Tales from the Crypt: Demon Knight (1995) BDRip 1080p [HEVC] 10 bit от druidblack
OldGamerManson_Fan, у меня нет hi-end акустики, поэтому не слушал, не знаю, может и есть разница. За других говорить не буду. В любом случае, продвинутым слухачам будет несложно найти, скачать и прикрепить дорожки требуемого им качества.
mafo2Manson_Fan, не все телевизоры поддерживают DTS. например, мой через встроенный плеер его не воспроизводит. можно конечно смотреть через ПК, но порой хочется и через ТВ.
Manson_FanOldGamer, "Скажите зачем релизёры звук DTS 768 kbps переделывают в AC3 640 kbps" Интересно, а разницу в качестве в фильмах кому то удавалось услышать?😕 мне вот нет
Manson_Fanникто еще не сравнивал HEVC и новый AV1?
IRITРаздайте, пожалуйста, Маньяк-полицейский 3: Знак молчания / Maniac Cop 3: Badge of Silence (1993) BDRip 1080p [HEVC] 10 bit от HANNIBAL
Spartanec1308С Днём Великой Победы!
BrooklynВсех с праздником! С Днем Великой Победы! Ура-Ура-Урааааааа
BrooklynADVOKAT69, Спасибо большое!
ADVOKAT69Операция «Ы» и другие приключения Шурика (1965) раздаю
mafo2С Днем Победы!
joker63Поздравляю всех с Днем Победы!
ADVOKAT69Admin, Спасибо деду за победу!Тебе за поздравление!
AdminADVOKAT69, Дедам спасибо.
ADVOKAT69Admin, спасибо большое!✋
  • Admin
  • OldGamer
  • diesel0000
  • ko1ob
  • mafo2
  • Savager
  • TimofeevP
  • Херсонец
Отправка сообщений доступна только зарегистрированным/авторизованным пользователям.
Онлайн (за 10 мин.): 8

Обитаемый остров: Схватка (2009) BDRip 1080p [HEVC] 10 bit от M@kSIMus

HEVC
10 bit
Обложка Обитаемый остров: Схватка (2009) BDRip 1080p [HEVC] 10 bit от M@kSIMus Год: 2009
Страна: Россия
Студия: Art Pictures Group, Нон-стоп Продакшн, Канал СТС
Жанр: Фантастика, Боевик
Продолжительность: 01:47:07

Режиссер: Фёдор Бондарчук
В ролях: Василий Степанов, Фёдор Бондарчук, Гоша Куценко, Алексей Серебряков, Сергей Гармаш, Пётр Фёдоров, Михаил Евланов, Юлия Снигирь, Андрей Мерзликин, Алексей Пусько

Описание: 2157 год. Человечество создает космическую группу, названную ГСП — группой свободного поиска. Теперь любой землянин, получив космический корабль и зарегистрировав свой маршрут, волен отправиться к звездам. Так и поступает Максим Каммерер, не подозревая, что ему предстоит потерпеть крушение на далекой планете, попасть в плен и оказаться один на один с чужим враждебным миром.


Видео: 1920x818, 13 Mbps
Аудио: AC3, 6 ch, 640 Kbps - РусскийРусский, Оригинал
Субтитры: Отсутствуют

Медиаинфо
x265 info: frame I: 1598, Avg QP:17.64 kb/s: 29359.46
x265 info: frame P: 33437, Avg QP:18.42 kb/s: 18917.14
x265 info: frame B: 119068, Avg QP:21.31 kb/s: 11151.07
x265 info: Weighted P-Frames: Y:6.7% UV:5.7%
x265 info: consecutive B-frames: 18.2% 9.2% 8.2% 23.0% 8.6% 16.0% 5.3% 4.9% 2.0% 2.1% 0.7% 0.6% 0.4% 0.3% 0.2% 0.1% 0.2%
x265 info: encoded 154103 frames in 120747.26s (1.28 fps), 13024.96 kb/s, Avg QP:20.65

Формат : Matroska
Версия формата : Version 4
Размер файла : 10,2 Гбайт
Продолжительность : 1 ч. 47 м.
Общий поток : 13,7 Мбит/сек
Название фильма : Обитаемый остров: Схватка (2009) Encoded_by_M@kSIMus
Дата кодирования : UTC 2019-12-03 02:15:49
Программа кодирования : mkvmerge v40.0.0 ('Old Town Road + Pony') 64-bit
Библиотека кодирования : libebml v1.3.9 + libmatroska v1.5.2
Обложка : Yes
Attachments : cover2.jpg

Видео
Идентификатор : 1
Формат : HEVC
Формат/Информация : High Efficiency Video Coding
Профиль формата : Main 10@L4.1@High
Идентификатор кодека : V_MPEGH/ISO/HEVC
Продолжительность : 1 ч. 47 м.
Битрейт : 13,0 Мбит/сек
Ширина : 1920 пикселей
Высота : 818 пикселей
Соотношение сторон : 2,35:1
Режим частоты кадров : Постоянный
Частота кадров : 23,976 (24000/1001) кадра/сек
Цветовое пространство : YUV
Субдискретизация насыщенности : 4:2:0
Битовая глубина : 10 бит
Бит/(Пиксели*Кадры) : 0.346
Размер потока : 9,75 Гбайт (95%)
Библиотека кодирования : x265 3.2+5-354901970679:[Windows][clang 8.0.1][64 bit] 10bit
Настройки программы : cpuid=1049583 / frame-threads=5 / numa-pools=4 / wpp / no-pmode / no-pme / no-psnr / no-ssim / log-level=3 / input-csp=1 / input-res=1920x818 / interlace=0 / total-frames=0 / level-idc=41 / high-tier=1 / uhd-bd=0 / ref=5 / allow-non-conformance / no-repeat-headers / annexb / no-aud / no-hrd / info / hash=0 / no-temporal-layers / open-gop / min-keyint=24 / keyint=240 / gop-lookahead=0 / bframes=16 / b-adapt=2 / b-pyramid / bframe-bias=0 / rc-lookahead=40 / lookahead-slices=5 / scenecut=40 / radl=0 / no-splice / no-intra-refresh / ctu=32 / min-cu-size=8 / no-rect / no-amp / max-tu-size=32 / tu-inter-depth=4 / tu-intra-depth=4 / limit-tu=1 / rdoq-level=1 / dynamic-rd=0.00 / no-ssim-rd / signhide / no-tskip / nr-intra=0 / nr-inter=0 / no-constrained-intra / no-strong-intra-smoothing / max-merge=5 / limit-refs=1 / no-limit-modes / me=3 / subme=7 / merange=57 / temporal-mvp / no-frame-dup / no-hme / weightp / no-weightb / no-analyze-src-pics / deblock=-3:-3 / no-sao / no-sao-non-deblock / rd=3 / selective-sao=0 / early-skip / no-rskip / no-fast-intra / no-tskip-fast / no-cu-lossless / b-intra / no-splitrd-skip / rdpenalty=0 / psy-rd=2.00 / psy-rdoq=1.00 / no-rd-refine / no-lossless / cbqpoffs=0 / crqpoffs=0 / rc=crf / crf=20.0 / qcomp=0.60 / qpstep=4 / stats-write=0 / stats-read=0 / vbv-maxrate=50000 / vbv-bufsize=50000 / vbv-init=0.9 / crf-max=0.0 / crf-min=0.0 / ipratio=1.40 / pbratio=1.30 / aq-mode=3 / aq-strength=1.00 / no-cutree / zone-count=0 / no-strict-cbr / qg-size=32 / no-rc-grain / qpmax=69 / qpmin=0 / no-const-vbv / sar=1 / overscan=0 / videoformat=5 / range=0 / colorprim=1 / transfer=1 / colormatrix=1 / chromaloc=0 / display-window=0 / cll=0,0 / min-luma=0 / max-luma=1023 / log2-max-poc-lsb=8 / vui-timing-info / vui-hrd-info / slices=1 / no-opt-qp-pps / no-opt-ref-list-length-pps / no-multi-pass-opt-rps / scenecut-bias=0.05 / no-opt-cu-delta-qp / no-aq-motion / no-hdr / no-hdr-opt / no-dhdr10-opt / no-idr-recovery-sei / analysis-reuse-level=5 / scale-factor=0 / refine-intra=0 / refine-inter=0 / refine-mv=1 / refine-ctu-distortion=0 / no-limit-sao / ctu-info=0 / no-lowpass-dct / refine-analysis-type=0 / copy-pic=1 / max-ausize-factor=1.0 / no-dynamic-refine / no-single-sei / no-hevc-aq / no-svt / no-field / qp-adaptation-range=1.00
Язык : Russian
Default : Да
Forced : Нет
Цветовой диапазон : Limited
Основные цвета : BT.709
Характеристики трансфера : BT.709
Коэффициенты матрицы : BT.709

Аудио
Идентификатор : 2
Формат : AC-3
Формат/Информация : Audio Coding 3
Коммерческое название : Dolby Digital
Идентификатор кодека : A_AC3
Продолжительность : 1 ч. 47 м.
Вид битрейта : Постоянный
Битрейт : 640 Кбит/сек
Каналы : 6 каналов
ChannelLayout : L R C LFE Ls Rs
Частота : 48,0 КГц
Частота кадров : 31,250 кадров/сек (1536 SPF)
Битовая глубина : 16 бит
Метод сжатия : С потерями
Размер потока : 490 Мбайт (5%)
Язык : Russian
Default : Да
Forced : Нет

Меню
00:00:00.000 : :Глава 1
00:05:00.000 : :Глава 2
00:10:00.000 : :Глава 3
00:15:00.000 : :Глава 4
00:20:00.000 : :Глава 5
00:25:00.000 : :Глава 6
00:30:00.000 : :Глава 7
00:35:00.000 : :Глава 8
00:40:00.000 : :Глава 9
00:45:00.000 : :Глава 10
00:50:00.000 : :Глава 11
00:55:00.000 : :Глава 12
01:00:00.000 : :Глава 13
01:05:00.000 : :Глава 14
01:10:00.000 : :Глава 15
01:15:00.000 : :Глава 16
01:20:00.000 : :Глава 17
01:25:00.000 : :Глава 18
01:30:00.000 : :Глава 19
01:35:00.000 : :Глава 20
01:40:00.000 : :Глава 21
01:45:00.000 : :Глава 22
Загрузка...Cкриншот1 Обитаемый остров: Схватка (2009) BDRip 1080p [HEVC] 10 bit от M@kSIMusЗагрузка...Cкриншот2 Обитаемый остров: Схватка (2009) BDRip 1080p [HEVC] 10 bit от M@kSIMusЗагрузка...Cкриншот3 Обитаемый остров: Схватка (2009) BDRip 1080p [HEVC] 10 bit от M@kSIMusЗагрузка...Cкриншот4 Обитаемый остров: Схватка (2009) BDRip 1080p [HEVC] 10 bit от M@kSIMus
Сэмпл Торрент🧲 Магнет

Рейтинги КП и IMDB, кнопки "Позвать в чате" и "Спасибо", а также мультитрекерная статистика доступны только зарегистрированным/авторизованным пользователям!

Файлы: 1
  • Обитаемый остров - Схватка (2009) BDRip 1080p [HEVC] 10 bit.mkv   10.23 ГБ
Поблагодарили: 7
Alexeyall, Andry26, bitum, Chance, Leon20052, pr3ss, unnamed
Admin
08230010.23 ГБ

Добавление нового комментария

Добавление комментариев доступно только зарегистрированным/авторизованным пользователям.