💬 Мини-чат

BrooklynOldGamer, Ок, спасибо, качаю.
OldGamerBrooklyn, они все на раздаче пока что
BrooklynOldGamer, Пораздавайте, пожалуйста, все сезоны сериала "Гримм" ближайшие 3 дня, очень хочу их забрать. Качество отличное. Заранее Благодарен.
StarLordСообщение удалено (удалил: StarLord)
OldGamerвыводить
mafo2Admin, можно вывести, наглядно будет
StarLordAdmin, +
AdminНадпись HDR выводить на обложку?
OldGamerGiggalo, но лучше всего вообще не затрагивайте этот ключ, по умолчанию будет установлено оптимальное значение
OldGamerGiggalo, но если уж очень хочется то пишите --frame-threads 3
OldGamerGiggalo, а зачем его менять?) нужное значение устанавливается автоматически
GiggaloДобрый вечер всем! OldGamer Покажи пожалуйста почему когда пишу в командной строке frame-threads=3 он не меняется. Какой там стоит 13 он его и держит, а ругие установки спокойно меняет?
AdminStarLord, спасибо. Пока сойдет.
StarLordAdmin, ага, вижу
StarLordAdmin, а как должно брать?
AdminStarLord, ты шаришь?
AdminStarLord, у меня сейчас такая, но с точками беда. Доработать бы (https?://([-\w\.]+)+(:\d+)?(/([-\w/_:%]*(\.\w+)*(\?\S+)?)?)?)
AdminStarLord, скрины в bb некорректно берет
StarLordwww, ftp(s), http(s), #, :, &
StarLordAdmin, все мои кейсы покрыла
  • OldGamer
  • InSpector
  • ivan_1965
  • moonson
  • Rezident
Отправка сообщений доступна только зарегистрированным/авторизованным пользователям.
Онлайн (за 10 мин.): 5

Космические ковбои / Space Cowboys (2000) HD-DVDRip 1080p [HEVC] 10 bit от Cthulhu

HEVC
10 bit
Обложка Космические ковбои / Space Cowboys (2000) HD-DVDRip 1080p [HEVC] 10 bit от Cthulhu Год: 2000
Страна: США, Австралия
Студия: Village Roadshow Pictures, Warner Bros. Pictures
Жанр: Боевик, Драма, Приключения
Продолжительность: 02:10:29

Режиссер: Клинт Иствуд
В ролях: Клинт Иствуд, Томми Ли Джонс, Дональд Сазерленд, Джеймс Гарнер, Джеймс Кромуэлл, Марша Гей Харден, Уильям Дивэйн, Лорен Дин, Кортни Б. Вэнс

Описание: В 1958 году четырех отважных пилотов, которые должны были первыми отправиться в космос, в результате интриг навсегда отстранили от полетов. Сорок лет о них никто не вспоминал, но вот получено сообщение: старый советский спутник связи может рухнуть на землю. Планете грозит катастрофа невиданных масштабов. Технология спутника настолько устарела, что разобраться здесь могут только четверо астронавтов-отставников.


Видео: 1920x800, 5469 Kbps
Аудио1: AC3, 6 ch, 384 Kbps - РусскийРусский, Дублированный (Лицензия)
Аудио2: AC3, 2 ch, 192 Kbps - РусскийРусский, Многоголосый (НТВ+)
Аудио3: AC3, 2 ch, 192 Kbps - РусскийРусский, Двухголосый (SDI Media)
Аудио4: AC3, 2 ch, 192 Kbps - РусскийРусский, Одноголосый (Визгунов)
Аудио5: AC3, 6 ch, 640 Kbps - Оригинал
Субтитры: Русские, английские

Как за пару секунд удалить ненужные аудиодорожки и субтитры (Внимание! После удаления вы не сможете поддержать раздачу)

Медиаинфо
General
Unique ID : 258261603514760276299481899035267420930 (0xC24B602551DA920B2CEB2B9D9D03D302)
Complete name : F:\HEVC\Space Cowboys (2000) HD-DVDRip 1080p [HEVC] 10Bit_Cthulhu.mkv
Format : Matroska
Format version : Version 4 / Version 2
File size : 6.45 GiB
Duration : 2 h 10 min
Overall bit rate : 7 072 kb/s
Movie name : Space Cowboys (2000)_rip_by_Cthulhu
Encoded date : UTC 2018-05-20 12:18:49
Writing application : mkvmerge v21.0.0 ('Tardigrades Will Inherit The Earth') 64-bit
Writing library : libebml v1.3.5 + libmatroska v1.4.8
Cover : Yes
Attachments : cover.jpg

Video
ID : 1
Format : HEVC
Format/Info : High Efficiency Video Coding
Format profile : Main 10@L4.1@High
Codec ID : V_MPEGH/ISO/HEVC
Duration : 2 h 10 min
Bit rate : 5 469 kb/s
Width : 1 916 pixels
Height : 800 pixels
Display aspect ratio : 2.40:1
Frame rate mode : Constant
Frame rate : 23.976 (24000/1001) FPS
Color space : YUV
Chroma subsampling : 4:2:0
Bit depth : 10 bits
Bits/(Pixel*Frame) : 0.149
Stream size : 4.98 GiB (77%)
Writing library : x265 2.7+340-aa9102400f24:[Windows][GCC 8.0.1][64 bit] 10bit
Encoding settings : cpuid=1049583 / frame-threads=4 / numa-pools=4 / wpp / no-pmode / no-pme / no-psnr / no-ssim / log-level=2 / input-csp=1 / input-res=1916x800 / interlace=0 / total-frames=187689 / level-idc=0 / high-tier=1 / uhd-bd=0 / ref=5 / no-allow-non-conformance / no-repeat-headers / annexb / no-aud / no-hrd / info / hash=0 / no-temporal-layers / open-gop / min-keyint=24 / keyint=240 / gop-lookahead=0 / bframes=8 / b-adapt=2 / b-pyramid / bframe-bias=0 / rc-lookahead=40 / lookahead-slices=4 / scenecut=40 / radl=0 / no-intra-refresh / ctu=64 / min-cu-size=8 / rect / no-amp / max-tu-size=32 / tu-inter-depth=3 / tu-intra-depth=3 / limit-tu=4 / rdoq-level=1 / dynamic-rd=0.00 / no-ssim-rd / signhide / no-tskip / nr-intra=0 / nr-inter=0 / no-constrained-intra / no-strong-intra-smoothing / max-merge=3 / limit-refs=2 / limit-modes / me=3 / subme=7 / merange=57 / temporal-mvp / weightp / weightb / no-analyze-src-pics / deblock=-3:-3 / no-sao / no-sao-non-deblock / rd=4 / no-early-skip / rskip / no-fast-intra / no-tskip-fast / no-cu-lossless / no-b-intra / no-splitrd-skip / rdpenalty=0 / psy-rd=2.00 / psy-rdoq=1.00 / no-rd-refine / no-lossless / cbqpoffs=0 / crqpoffs=0 / rc=crf / crf=18.0 / qcomp=0.60 / qpstep=4 / stats-write=0 / stats-read=0 / vbv-maxrate=50000 / vbv-bufsize=50000 / vbv-init=0.9 / crf-max=0.0 / crf-min=0.0 / ipratio=1.40 / pbratio=1.30 / aq-mode=1 / aq-strength=1.00 / cutree / zone-count=0 / no-strict-cbr / qg-size=32 / no-rc-grain / qpmax=69 / qpmin=0 / no-const-vbv / sar=1 / overscan=0 / videoformat=5 / range=0 / colorprim=1 / transfer=1 / colormatrix=1 / chromaloc=0 / display-window=0 / max-cll=0,0 / min-luma=0 / max-luma=1023 / log2-max-poc-lsb=8 / vui-timing-info / vui-hrd-info / slices=1 / no-opt-qp-pps / no-opt-ref-list-length-pps / no-multi-pass-opt-rps / scenecut-bias=0.05 / no-opt-cu-delta-qp / no-aq-motion / no-hdr / no-hdr-opt / no-dhdr10-opt / no-idr-recovery-sei / analysis-reuse-level=5 / scale-factor=0 / refine-intra=0 / refine-inter=0 / refine-mv=0 / no-limit-sao / ctu-info=0 / no-lowpass-dct / refine-mv-type=0 / copy-pic=1 / max-ausize-factor=1.0 / no-dynamic-refine / no-single-sei
Language : English
Default : Yes
Forced : No
Color range : Limited
Color primaries : BT.709
Transfer characteristics : BT.709
Matrix coefficients : BT.709

Audio #1
ID : 2
Format : AC-3
Format/Info : Audio Coding 3
Format settings, Endianness : Big
Codec ID : A_AC3
Duration : 2 h 10 min
Bit rate mode : Constant
Bit rate : 384 kb/s
Channel(s) : 6 channels
Channel positions : Front: L C R, Side: L R, LFE
Sampling rate : 48.0 kHz
Frame rate : 31.250 FPS (1536 SPF)
Bit depth : 16 bits
Compression mode : Lossy
Delay relative to video : 2 s 58 ms
Stream size : 358 MiB (5%)
Title : Дубляж
Language : Russian
Service kind : Complete Main
Default : Yes
Forced : No

Audio #2
ID : 3
Format : AC-3
Format/Info : Audio Coding 3
Format settings, Endianness : Big
Codec ID : A_AC3
Duration : 2 h 10 min
Bit rate mode : Constant
Bit rate : 192 kb/s
Channel(s) : 2 channels
Channel positions : Front: L R
Sampling rate : 48.0 kHz
Frame rate : 31.250 FPS (1536 SPF)
Bit depth : 16 bits
Compression mode : Lossy
Stream size : 179 MiB (3%)
Title : MVO (НТВ+)
Language : Russian
Service kind : Complete Main
Default : No
Forced : No

Audio #3
ID : 4
Format : AC-3
Format/Info : Audio Coding 3
Format settings, Endianness : Big
Codec ID : A_AC3
Duration : 2 h 10 min
Bit rate mode : Constant
Bit rate : 192 kb/s
Channel(s) : 2 channels
Channel positions : Front: L R
Sampling rate : 48.0 kHz
Frame rate : 31.250 FPS (1536 SPF)
Bit depth : 16 bits
Compression mode : Lossy
Stream size : 179 MiB (3%)
Title : DVO (SDI Media)
Language : Russian
Service kind : Complete Main
Default : No
Forced : No

Audio #4
ID : 5
Format : AC-3
Format/Info : Audio Coding 3
Format settings, Endianness : Big
Codec ID : A_AC3
Duration : 2 h 10 min
Bit rate mode : Constant
Bit rate : 192 kb/s
Channel(s) : 2 channels
Channel positions : Front: L R
Sampling rate : 48.0 kHz
Frame rate : 31.250 FPS (1536 SPF)
Bit depth : 16 bits
Compression mode : Lossy
Delay relative to video : 2 s 34 ms
Stream size : 179 MiB (3%)
Title : AVO (Визгунов)
Language : Russian
Service kind : Complete Main
Default : No
Forced : No

Audio #5
ID : 6
Format : AC-3
Format/Info : Audio Coding 3
Format settings, Endianness : Big
Codec ID : A_AC3
Duration : 2 h 10 min
Bit rate mode : Constant
Bit rate : 640 kb/s
Channel(s) : 6 channels
Channel positions : Front: L C R, Side: L R, LFE
Sampling rate : 48.0 kHz
Frame rate : 31.250 FPS (1536 SPF)
Bit depth : 16 bits
Compression mode : Lossy
Stream size : 597 MiB (9%)
Language : English
Service kind : Complete Main
Default : No
Forced : No

Text #1
ID : 7
Format : UTF-8
Codec ID : S_TEXT/UTF8
Codec ID/Info : UTF-8 Plain Text
Duration : 2 h 9 min
Bit rate : 90 b/s
Count of elements : 1476
Stream size : 86.2 KiB (0%)
Language : Russian
Default : No
Forced : No

Text #2
ID : 8
Format : UTF-8
Codec ID : S_TEXT/UTF8
Codec ID/Info : UTF-8 Plain Text
Duration : 2 h 2 min
Bit rate : 59 b/s
Count of elements : 1440
Stream size : 53.3 KiB (0%)
Language : English
Default : Yes
Forced : No

Menu
00:00:00.000 : :Where We're Going
00:03:41.054 : :Pushed to the Limit
00:06:31.349 : :First American Into Space
00:08:13.409 : :The Ikon Dilemma
00:12:16.485 : :Nasa Calling
00:17:57.242 : :Frank's Proposal
00:23:27.781 : :Words From on High
00:25:34.324 : :Riding Again
00:28:11.231 : :Scare in the Air
00:30:54.185 : :Same Stubborn Jackass
00:33:41.978 : :Four Boys and a Lady
00:35:52.066 : :Our Little Problem
00:37:13.731 : :Gene's Rules
00:41:53.594 : :Medical Exam
00:44:49.311 : :Physically Misfit
00:48:15.267 : :Wating for Hawk
00:49:57.619 : :Who First?
00:52:22.472 : :Picking Fights
00:56:32.889 : :Socking It to 'em
01:00:20.241 : :The Time Hawk Was Afraid
01:03:29.931 : :The Ripe Stuff
01:07:31.547 : :The Word on Hawk
01:11:33.455 : :The Whole Team
01:15:36.073 : :Liftoff
01:21:45.650 : :Encountering Ikon
01:26:06.286 : :Capture
01:28:48.698 : :Hidden Cargo
01:34:20.446 : :Ethan on His Own
01:38:33.490 : :Ikon Awakens
01:41:07.644 : :Arresting the Fall
01:45:16.435 : :Hawk: The Only Way
01:48:52.692 : :To the Moon and Beyond
01:51:26.888 : :Flying the Brick In
01:55:35.094 : :Team Landing
02:00:53.746 : :Lunar View (Fly Me to the Moon (in Other Words))
02:02:57.244 : :End Credits
Загрузка...Cкриншот1 Космические ковбои / Space Cowboys (2000) HD-DVDRip 1080p [HEVC] 10 bit от CthulhuЗагрузка...Cкриншот2 Космические ковбои / Space Cowboys (2000) HD-DVDRip 1080p [HEVC] 10 bit от CthulhuЗагрузка...Cкриншот3 Космические ковбои / Space Cowboys (2000) HD-DVDRip 1080p [HEVC] 10 bit от CthulhuЗагрузка...Cкриншот4 Космические ковбои / Space Cowboys (2000) HD-DVDRip 1080p [HEVC] 10 bit от Cthulhu
Сэмпл Торрент🧲 Магнет

Рейтинги КП и IMDB, кнопки "Позвать в чате" и "Спасибо", а также мультитрекерная статистика сидов и пиров доступны только зарегистрированным/авторизованным пользователям!

Файлы: 1
  • Space Cowboys (2000) HD-DVDRip 1080p [HEVC] 10Bit_Cthulhu.mkv   6.45 ГБ
Поблагодарили: 1
mr_nikitin
Cthulhu
0110026.45 ГБ

Добавление нового комментария

Добавление комментариев доступно только зарегистрированным/авторизованным пользователям.