💬 Мини-чат

Убедительная просьба не обсуждать тут политику.
МичманADVOKAT69, ✋
ADVOKAT69Spartanec1308, ✋
AlexTwittAdmin, странно, что только на 1 часть 😃
AdminРелизы Гоголь - старые. Просто вытащил из антологии, так как на первую часть пришла жалоба, и придется заблокировать.
  • Мичман
Отправка сообщений доступна только зарегистрированным/авторизованным пользователям.
Онлайн (за 10 мин.): 1

Космические ковбои / Space Cowboys (2000) HD-DVDRip 1080p [HEVC] 10 bit от OldGamer (RG RIPS CLUB)

HEVC
10 bit
Обложка Космические ковбои / Space Cowboys (2000) HD-DVDRip 1080p [HEVC] 10 bit от OldGamer (RG RIPS CLUB) Год: 2000
Страна: США
Студия: Clipsal Films, Mad Chance, Malpaso Productions, Village Roadshow Pictures, Warner Bros. Pictures
Жанр: Боевик, Триллер, Приключения
Продолжительность: 02:10:28

Режиссер: Клинт Иствуд
В ролях: Клинт Иствуд, Томми Ли Джонс, Дональд Сазерленд, Джеймс Гарнер, Джеймс Кромуэлл, Марша Гей Харден, Уильям Дивэйн, Лорен Дин, Кортни Б. Вэнс, Барбара Бэбкок

Описание: В 1958 году четверых отважных пилотов, которые должны были первыми отправиться в космос, в результате интриг отстранили от полётов навсегда. Сорок лет о них никто не вспоминал, но вот, получено сообщение: старый советский спутник связи может рухнуть на землю. Грозит катастрофа невиданных масштабов. Технология спутника настолько устарела, что разобраться здесь могут только четверо астронавтов-отставников.


Исходник: HDDVD Remux 1080p (kinozal.me)
Видео: 1918x800 (2.40:1), 8459 Кбит/сек, HEVC (Main10@L.4.1@High)
Аудио1: AC3, 6 ch, 384 Kbps - РусскийРусский, DUB
Аудио2: AC3, 2 ch, 192 Kbps - РусскийРусский, MVO (НТВ / ТК "Россия")
Аудио3: AC3, 2 ch, 192 Kbps - РусскийРусский, DVO (SDI Media)
Аудио4: E-AC-3, 6 ch, 640 Kbps - EnglishEnglish, Original
Субтитры: русские, английские

Как за пару секунд удалить ненужные аудиодорожки и субтитры (Внимание! После удаления вы не сможете поддержать раздачу)

Лог (x265 info)
x265 [info]: frame I: 797, Avg QP:18.30 kb/s: 17600.64
x265 [info]: frame P: 27334, Avg QP:19.37 kb/s: 13055.10
x265 [info]: frame B: 159557, Avg QP:21.58 kb/s: 7857.63
x265 [info]: Weighted P-Frames: Y:8.7% UV:6.5%
x265 [info]: Weighted B-Frames: Y:8.0% UV:4.7%
x265 [info]: consecutive B-frames: 3.3% 2.8% 3.2% 22.2% 4.7% 23.8% 3.5% 18.1% 1.9% 4.3% 0.9% 5.7% 0.5% 1.4% 0.5% 3.2%
x265 [info]: encoded 187688 frames in 121190.44s (1.55 fps), 8655.94 kb/s, Avg QP:21.25
Медиаинфо
Общее
Уникальный идентификатор : 314461138704246353121071753152984313793 (0xEC9303288F9D19060B61C29E1A08EFC1)
Полное имя : \\.\Космические.ковбои.Space.Cowboys.2000.HDDVDRip-HEVC.1080p.mkv
Формат : Matroska
Версия формата : Version 4
Размер файла : 9,17 Гбайт
Продолжительность : 2 ч. 10 м.
Общий поток : 10,1 Мбит/сек
Название фильма : Космические.ковбои.Space.Cowboys.2000.HDDVDRip-HEVC.1080p
Дата кодирования : UTC 2022-07-28 14:18:33
Программа кодирования : mkvmerge v69.0.0 ('Day And Age') 64-bit
Библиотека кодирования : libebml v1.4.2 + libmatroska v1.6.4

Видео
Идентификатор : 1
Формат : HEVC
Формат/Информация : High Efficiency Video Coding
Профиль формата : Main 10@L4.1@High
Идентификатор кодека : V_MPEGH/ISO/HEVC
Продолжительность : 2 ч. 10 м.
Битрейт : 8 459 Кбит/сек
Ширина : 1 918 пикселей
Высота : 800 пикселей
Соотношение сторон : 2,40:1
Соотношение сторон в оригинале : 2,40:1
Режим частоты кадров : Постоянный
Частота кадров : 23,976 (24000/1001) кадра/сек
Цветовое пространство : YUV
Субдискретизация насыщенности : 4:2:0
Битовая глубина : 10 бит
Бит/(Пиксели*Кадры) : 0.230
Размер потока : 7,71 Гбайт (84%)
Заголовок : Space Cowboys / Rip by OldGamer
Библиотека кодирования : x265 3.5+35-e3713124d:[Windows][GCC 11.2.0][64 bit] 10bit
Настройки программы : cpuid=1111039 / frame-threads=3 / numa-pools=8 / wpp / no-pmode / no-pme / no-psnr / no-ssim / log-level=2 / input-csp=1 / input-res=1918x800 / interlace=0 / total-frames=187688 / level-idc=41 / high-tier=1 / uhd-bd=0 / ref=5 / no-allow-non-conformance / no-repeat-headers / annexb / no-aud / no-eob / no-eos / no-hrd / info / hash=0 / no-temporal-layers / open-gop / min-keyint=23 / keyint=240 / gop-lookahead=0 / bframes=15 / b-adapt=2 / b-pyramid / bframe-bias=0 / rc-lookahead=40 / lookahead-slices=0 / scenecut=40 / no-hist-scenecut / radl=0 / no-splice / no-intra-refresh / ctu=32 / min-cu-size=8 / rect / amp / max-tu-size=32 / tu-inter-depth=4 / tu-intra-depth=4 / limit-tu=1 / rdoq-level=2 / dynamic-rd=0.00 / no-ssim-rd / signhide / no-tskip / nr-intra=0 / nr-inter=0 / no-constrained-intra / no-strong-intra-smoothing / max-merge=5 / limit-refs=3 / no-limit-modes / me=3 / subme=7 / merange=57 / temporal-mvp / no-frame-dup / no-hme / weightp / weightb / no-analyze-src-pics / deblock=-2:-2 / no-sao / no-sao-non-deblock / rd=6 / selective-sao=0 / no-early-skip / no-rskip / no-fast-intra / no-tskip-fast / no-cu-lossless / b-intra / no-splitrd-skip / rdpenalty=0 / psy-rd=2.00 / psy-rdoq=1.00 / no-rd-refine / no-lossless / cbqpoffs=0 / crqpoffs=0 / rc=crf / crf=19.3 / qcomp=0.60 / qpstep=4 / stats-write=0 / stats-read=0 / vbv-maxrate=50000 / vbv-bufsize=50000 / vbv-init=0.9 / min-vbv-fullness=50.0 / max-vbv-fullness=80.0 / crf-max=0.0 / crf-min=0.0 / ipratio=1.40 / pbratio=1.30 / aq-mode=1 / aq-strength=1.00 / no-cutree / zone-count=1 / zones: / start-frame=176924 / end-frame=187688 / qp=36 / no-strict-cbr / qg-size=32 / no-rc-grain / qpmax=69 / qpmin=0 / no-const-vbv / sar=1 / overscan=0 / videoformat=5 / range=0 / colorprim=2 / transfer=2 / colormatrix=2 / chromaloc=0 / display-window=0 / cll=0,0 / min-luma=0 / max-luma=1023 / log2-max-poc-lsb=8 / vui-timing-info / vui-hrd-info / slices=1 / no-opt-qp-pps / no-opt-ref-list-length-pps / no-multi-pass-opt-rps / scenecut-bias=0.00 / hist-threshold=0.03 / no-opt-cu-delta-qp / no-aq-motion / no-hdr10 / no-hdr10-opt / no-dhdr10-opt / no-idr-recovery-sei / analysis-reuse-level=0 / analysis-save-reuse-level=0 / analysis-load-reuse-level=0 / scale-factor=0 / refine-intra=0 / refine-inter=0 / refine-mv=1 / refine-ctu-distortion=0 / no-limit-sao / ctu-info=0 / no-lowpass-dct / refine-analysis-type=0 / copy-pic=1 / max-ausize-factor=1.0 / no-dynamic-refine / no-single-sei / no-hevc-aq / no-svt / no-field / qp-adaptation-range=1.00 / scenecut-aware-qp=0conformance-window-offsets / right=0 / bottom=0 / decoder-max-rate=0 / no-vbv-live-multi-pass
Язык : English
Default : Да
Forced : Нет

Аудио #1
Идентификатор : 2
Формат : AC-3
Формат/Информация : Audio Coding 3
Коммерческое название : Dolby Digital
Идентификатор кодека : A_AC3
Продолжительность : 2 ч. 10 м.
Вид битрейта : Постоянный
Битрейт : 384 Кбит/сек
Каналы : 6 каналов
Channel layout : L R C LFE Ls Rs
Частота : 48,0 КГц
Частота кадров : 31,250 кадров/сек (1536 SPF)
Метод сжатия : С потерями
Задержка видео : 2 с. 77 мс.
Размер потока : 358 Мбайт (4%)
Заголовок : DUB
Язык : Russian
Service kind : Complete Main
Default : Да
Forced : Нет

Аудио #2
Идентификатор : 3
Формат : AC-3
Формат/Информация : Audio Coding 3
Коммерческое название : Dolby Digital
Идентификатор кодека : A_AC3
Продолжительность : 2 ч. 10 м.
Вид битрейта : Постоянный
Битрейт : 192 Кбит/сек
Каналы : 2 канала
Channel layout : L R
Частота : 48,0 КГц
Частота кадров : 31,250 кадров/сек (1536 SPF)
Метод сжатия : С потерями
Размер потока : 179 Мбайт (2%)
Заголовок : MVO (НТВ / ТК "Россия")
Язык : Russian
Service kind : Complete Main
Default : Нет
Forced : Нет

Аудио #3
Идентификатор : 4
Формат : AC-3
Формат/Информация : Audio Coding 3
Коммерческое название : Dolby Digital
Идентификатор кодека : A_AC3
Продолжительность : 2 ч. 10 м.
Вид битрейта : Постоянный
Битрейт : 192 Кбит/сек
Каналы : 2 канала
Channel layout : L R
Частота : 48,0 КГц
Частота кадров : 31,250 кадров/сек (1536 SPF)
Метод сжатия : С потерями
Размер потока : 179 Мбайт (2%)
Заголовок : DVO (SDI Media)
Язык : Russian
Service kind : Complete Main
Default : Нет
Forced : Нет

Аудио #4
Идентификатор : 5
Формат : E-AC-3
Формат/Информация : Enhanced AC-3
Коммерческое название : Dolby Digital Plus
Идентификатор кодека : A_EAC3
Продолжительность : 2 ч. 10 м.
Вид битрейта : Постоянный
Битрейт : 640 Кбит/сек
Каналы : 6 каналов
Channel layout : L R C LFE Ls Rs
Частота : 48,0 КГц
Частота кадров : 62,500 кадра/сек (768 SPF)
Метод сжатия : С потерями
Задержка видео : 2 с. 77 мс.
Размер потока : 597 Мбайт (6%)
Язык : English
Service kind : Complete Main
Default : Нет
Forced : Нет

Текст #1
Идентификатор : 6
Формат : UTF-8
Идентификатор кодека : S_TEXT/UTF8
Идентификатор кодека/Информация : UTF-8 Plain Text
Заголовок : rus, srt
Язык : Russian
Default : Нет
Forced : Нет

Текст #2
Идентификатор : 7
Формат : UTF-8
Идентификатор кодека : S_TEXT/UTF8
Идентификатор кодека/Информация : UTF-8 Plain Text
Заголовок : eng, srt
Язык : English
Default : Нет
Forced : Нет

Меню
00:00:00.000 : Where We're Going
00:03:41.054 : Pushed to the Limit
00:06:31.349 : First American Into Space
00:08:13.409 : The Ikon Dilemma
00:12:16.485 : Nasa Calling
00:17:57.242 : Frank's Proposal
00:23:27.781 : Words From on High
00:25:34.324 : Riding Again
00:28:11.231 : Scare in the Air
00:30:54.185 : Same Stubborn Jackass
00:33:41.978 : Four Boys and a Lady
00:35:52.066 : Our Little Problem
00:37:13.731 : Gene's Rules
00:41:53.594 : Medical Exam
00:44:49.311 : Physically Misfit
00:48:15.267 : Wating for Hawk
00:49:57.619 : Who First?
00:52:22.472 : Picking Fights
00:56:32.889 : Socking It to 'em
01:00:20.241 : The Time Hawk Was Afraid
01:03:29.931 : The Ripe Stuff
01:07:31.547 : The Word on Hawk
01:11:33.455 : The Whole Team
01:15:36.073 : Liftoff
01:21:45.650 : Encountering Ikon
01:26:06.286 : Capture
01:28:48.698 : Hidden Cargo
01:34:20.446 : Ethan on His Own
01:38:33.490 : Ikon Awakens
01:41:07.644 : Arresting the Fall
01:45:16.435 : Hawk: The Only Way
01:48:52.692 : To the Moon and Beyond
01:51:26.888 : Flying the Brick In
01:55:35.094 : Team Landing
02:00:53.746 : Lunar View (Fly Me to the Moon (in Other Words))
02:02:57.244 : End Credits
Загрузка...Cкриншот1 Космические ковбои / Space Cowboys (2000) HD-DVDRip 1080p [HEVC] 10 bit от OldGamer (RG RIPS CLUB)Загрузка...Cкриншот2 Космические ковбои / Space Cowboys (2000) HD-DVDRip 1080p [HEVC] 10 bit от OldGamer (RG RIPS CLUB)Загрузка...Cкриншот3 Космические ковбои / Space Cowboys (2000) HD-DVDRip 1080p [HEVC] 10 bit от OldGamer (RG RIPS CLUB)Загрузка...Cкриншот4 Космические ковбои / Space Cowboys (2000) HD-DVDRip 1080p [HEVC] 10 bit от OldGamer (RG RIPS CLUB)
Релиз-группа: RIPS CLUB
Сэмпл Торрент🧲 Магнет

Раздача обновлена!
Перекодировано. Убран несинхронизированный в исходнике перевод Сергея Визгунова.

Рейтинги КП и IMDB, кнопки "Позвать в чате" и "Спасибо", а также мультитрекерная статистика доступны только зарегистрированным/авторизованным пользователям!

Файлы: 1
  • Космические.ковбои.Space.Cowboys.2000.HDDVDRip-HEVC.1080p.mkv   9.17 ГБ
Поблагодарили: 7
Brooklyn, ilyich05, IRIT, mr_nikitin, Nuclear70, SaN161NeK, torrentzulu
OldGamer
0120409.17 ГБ

Добавление нового комментария

Добавление комментариев доступно только зарегистрированным/авторизованным пользователям.