💬 Мини-чат

OldGamerвыводить
mafo2Admin, можно вывести, наглядно будет
StarLordAdmin, +
AdminНадпись HDR выводить на обложку?
OldGamerGiggalo, но лучше всего вообще не затрагивайте этот ключ, по умолчанию будет установлено оптимальное значение
OldGamerGiggalo, но если уж очень хочется то пишите --frame-threads 3
OldGamerGiggalo, а зачем его менять?) нужное значение устанавливается автоматически
GiggaloДобрый вечер всем! OldGamer Покажи пожалуйста почему когда пишу в командной строке frame-threads=3 он не меняется. Какой там стоит 13 он его и держит, а ругие установки спокойно меняет?
AdminStarLord, спасибо. Пока сойдет.
StarLordAdmin, ага, вижу
StarLordAdmin, а как должно брать?
AdminStarLord, ты шаришь?
AdminStarLord, у меня сейчас такая, но с точками беда. Доработать бы (https?://([-\w\.]+)+(:\d+)?(/([-\w/_:%]*(\.\w+)*(\?\S+)?)?)?)
AdminStarLord, скрины в bb некорректно берет
StarLordwww, ftp(s), http(s), #, :, &
StarLordAdmin, все мои кейсы покрыла
StarLordAdmin, вот эта хорошая -(?:(?:https?|ftps?):\/\/|\b(?:[a-z\d]+\.))(?:(?:[^\s()<>]+|\((?:[^\s()<>]+|(?:\([^\s()<>]+\)))?\))+(?:\((?:[^\s()<>]+|(?:\(?:[^\s()<>]+\)))?\)|[^\s`!()\[\]{};:'".,<>?«»“”‘’]))?
AdminStarLord, мне бы с обязательным указанием протокола
AdminСообщение удалено (удалил: Admin)
AdminСообщение удалено (удалил: Admin)
  • OldGamer
  • diesel0000
  • InSpector
  • ШУЗЕР
Отправка сообщений доступна только зарегистрированным/авторизованным пользователям.
Онлайн (за 10 мин.): 4

9 рота (2005) BDRip 1080p [HEVC] 10 bit от M@kSIMus

HEVC
10 bit
Обложка 9 рота (2005) BDRip 1080p [HEVC] 10 bit от M@kSIMus Год: 2005
Страна: Россия, Украина, Финляндия
Студия: Art Pictures Group, Art Pictures Studio, Channel 1+1
Жанр: Боевик, Драма, Военный, История
Продолжительность: 02:19:12

Режиссер: Фёдор Бондарчук
В ролях: Фёдор Бондарчук, Алексей Чадов, Иван Кокорин, Артем Михалков, Константин Крюков, Артур Смольянинов, Михаил Пореченков, Ирина Рахманова, Алексей Серебряков, Михаил Ефремов

Описание: СССР. Действие происходит в 1988 и 1989 годах, за несколько месяцев до полного вывода советских войск из Афганистана. Семеро призывников, после нескольких месяцев адской подготовки в «учебке» под командованием беспощадного старшины, попадают в горнило афганской кампании. Группа десантников, бойцами которой стали наши герои, получает задание командования — занять высоту и держать ее до прохождения колонны…


Видео: 1920x780, 13.9 Mbps
Аудио: AC3, 6 ch, 640 Kbps - РусскийРусский, Оригинал
Субтитры: Отсутствуют

Медиаинфо
x265 info: frame I: 2162, Avg QP:19.31 kb/s: 28316.24
x265 info: frame P: 42023, Avg QP:20.23 kb/s: 19815.68
x265 info: frame B: 156118, Avg QP:22.62 kb/s: 12152.23
x265 info: Weighted P-Frames: Y:8.6% UV:5.8%
x265 info: consecutive B-frames: 13.2% 7.9% 12.4% 18.0% 8.1% 29.5% 3.7% 1.9% 2.2% 0.7% 0.7% 1.1% 0.2% 0.1% 0.2% 0.0% 0.1%
x265 info: encoded 200303 frames in 180093.14s (1.11 fps), 13934.47 kb/s, Avg QP:22.09

Формат : Matroska
Версия формата : Version 4
Размер файла : 14,2 Гбайт
Продолжительность : 2 ч. 19 м.
Общий поток : 14,6 Мбит/сек
Название фильма : 9 рота (2005) Encoded_by_M@kSIMus
Дата кодирования : UTC 2019-12-06 18:58:20
Программа кодирования : mkvmerge v40.0.0 ('Old Town Road + Pony') 64-bit
Библиотека кодирования : libebml v1.3.9 + libmatroska v1.5.2
Обложка : Yes
Attachments : cover.jpg

Видео
Идентификатор : 1
Формат : HEVC
Формат/Информация : High Efficiency Video Coding
Профиль формата : Main 10@L4.1@High
Идентификатор кодека : V_MPEGH/ISO/HEVC
Продолжительность : 2 ч. 19 м.
Битрейт : 13,9 Мбит/сек
Ширина : 1920 пикселей
Высота : 780 пикселей
Соотношение сторон : 2,462
Режим частоты кадров : Постоянный
Частота кадров : 23,976 (24000/1001) кадра/сек
Цветовое пространство : YUV
Субдискретизация насыщенности : 4:2:0
Битовая глубина : 10 бит
Бит/(Пиксели*Кадры) : 0.388
Размер потока : 13,6 Гбайт (96%)
Библиотека кодирования : x265 3.2+5-354901970679:[Windows][clang 8.0.1][64 bit] 10bit
Настройки программы : cpuid=1049583 / frame-threads=5 / numa-pools=4 / wpp / no-pmode / no-pme / no-psnr / no-ssim / log-level=3 / input-csp=1 / input-res=1920x780 / interlace=0 / total-frames=0 / level-idc=41 / high-tier=1 / uhd-bd=0 / ref=5 / allow-non-conformance / no-repeat-headers / annexb / no-aud / no-hrd / info / hash=0 / no-temporal-layers / open-gop / min-keyint=24 / keyint=240 / gop-lookahead=0 / bframes=16 / b-adapt=2 / b-pyramid / bframe-bias=0 / rc-lookahead=40 / lookahead-slices=4 / scenecut=40 / radl=0 / no-splice / no-intra-refresh / ctu=32 / min-cu-size=8 / no-rect / no-amp / max-tu-size=32 / tu-inter-depth=4 / tu-intra-depth=4 / limit-tu=1 / rdoq-level=1 / dynamic-rd=0.00 / no-ssim-rd / signhide / no-tskip / nr-intra=0 / nr-inter=0 / no-constrained-intra / no-strong-intra-smoothing / max-merge=5 / limit-refs=1 / no-limit-modes / me=3 / subme=7 / merange=57 / temporal-mvp / no-frame-dup / no-hme / weightp / no-weightb / no-analyze-src-pics / deblock=-3:-3 / no-sao / no-sao-non-deblock / rd=3 / selective-sao=0 / early-skip / no-rskip / no-fast-intra / no-tskip-fast / no-cu-lossless / b-intra / no-splitrd-skip / rdpenalty=0 / psy-rd=2.00 / psy-rdoq=1.00 / no-rd-refine / no-lossless / cbqpoffs=0 / crqpoffs=0 / rc=crf / crf=20.0 / qcomp=0.60 / qpstep=4 / stats-write=0 / stats-read=0 / vbv-maxrate=50000 / vbv-bufsize=50000 / vbv-init=0.9 / crf-max=0.0 / crf-min=0.0 / ipratio=1.40 / pbratio=1.30 / aq-mode=3 / aq-strength=1.00 / no-cutree / zone-count=0 / no-strict-cbr / qg-size=32 / no-rc-grain / qpmax=69 / qpmin=0 / no-const-vbv / sar=1 / overscan=0 / videoformat=5 / range=0 / colorprim=2 / transfer=2 / colormatrix=2 / chromaloc=0 / display-window=0 / cll=0,0 / min-luma=0 / max-luma=1023 / log2-max-poc-lsb=8 / vui-timing-info / vui-hrd-info / slices=1 / no-opt-qp-pps / no-opt-ref-list-length-pps / no-multi-pass-opt-rps / scenecut-bias=0.05 / no-opt-cu-delta-qp / no-aq-motion / no-hdr / no-hdr-opt / no-dhdr10-opt / no-idr-recovery-sei / analysis-reuse-level=5 / scale-factor=0 / refine-intra=0 / refine-inter=0 / refine-mv=1 / refine-ctu-distortion=0 / no-limit-sao / ctu-info=0 / no-lowpass-dct / refine-analysis-type=0 / copy-pic=1 / max-ausize-factor=1.0 / no-dynamic-refine / no-single-sei / no-hevc-aq / no-svt / no-field / qp-adaptation-range=1.00
Язык : Russian
Default : Да
Forced : Нет
Цветовой диапазон : Limited

Аудио
Идентификатор : 2
Формат : AC-3
Формат/Информация : Audio Coding 3
Коммерческое название : Dolby Digital
Идентификатор кодека : A_AC3
Продолжительность : 2 ч. 19 м.
Вид битрейта : Постоянный
Битрейт : 640 Кбит/сек
Каналы : 6 каналов
ChannelLayout : L R C LFE Ls Rs
Частота : 48,0 КГц
Частота кадров : 31,250 кадров/сек (1536 SPF)
Битовая глубина : 16 бит
Метод сжатия : С потерями
Размер потока : 637 Мбайт (4%)
Язык : Russian
Default : Да
Forced : Нет

Меню
00:00:00.000 : :Глава 1
00:10:05.646 : :Глава 2
00:22:35.520 : :Глава 3
00:33:44.480 : :Глава 4
00:45:04.993 : :Глава 5
00:56:54.619 : :Глава 6
01:06:51.757 : :Глава 7
01:17:37.235 : :Глава 8
01:31:03.541 : :Глава 9
01:39:10.277 : :Глава 10
01:51:39.484 : :Глава 11
02:02:45.483 : :Глава 12
02:14:46.703 : :Глава 13
Загрузка...Cкриншот1 9 рота (2005) BDRip 1080p [HEVC] 10 bit от M@kSIMusЗагрузка...Cкриншот2 9 рота (2005) BDRip 1080p [HEVC] 10 bit от M@kSIMusЗагрузка...Cкриншот3 9 рота (2005) BDRip 1080p [HEVC] 10 bit от M@kSIMusЗагрузка...Cкриншот4 9 рота (2005) BDRip 1080p [HEVC] 10 bit от M@kSIMus
Сэмпл Торрент🧲 Магнет

Рейтинги КП и IMDB, кнопки "Позвать в чате" и "Спасибо", а также мультитрекерная статистика сидов и пиров доступны только зарегистрированным/авторизованным пользователям!

Файлы: 1
  • 9 рота (2005) BDRip 1080p [HEVC] 10 bit.mkv   14.18 ГБ
Поблагодарили: 6
375509, Alexeyall, bitum, maximka, Nuclear70, pri_vet
Admin
16950014.18 ГБ

Добавление нового комментария

Добавление комментариев доступно только зарегистрированным/авторизованным пользователям.
Аватар OldGamer
  OldGamer  
x265 info: frame I: 2162, Avg QP:19.31
[сарказм]круто![/сарказм]