💬 Мини-чат

Для тех, кому интересен процесс переделки сайта - https://rips.club/changelog.html (обновлен 20.04.2024)
  • justmkr
Отправка сообщений доступна только зарегистрированным/авторизованным пользователям.
Онлайн (за 10 мин.): 1

Арсен Люпен / Arsène Lupin (2004) BDRip 1080p [HEVC] 10 bit от HANNIBAL

HEVC
10 bit
Обложка Арсен Люпен / Arsène Lupin (2004) BDRip 1080p [HEVC] 10 bit от HANNIBAL Год: 2004
Страна: Франция, Италия, Испания, Великобритания
Студия: Hugo Films, TF1 Films Production, M6 Films
Жанр: Боевик, Мелодрама, Криминал, Детектив
Продолжительность: 02:10:30

Режиссер: Жан-Поль Саломе
В ролях: Ромен Дюрис, Кристин Скотт Томас, Паскаль Греггори, Ева Грин, Робен Ренуччи, Патрик Туми, Матьё Карьер, Филипп Маньян, Филипп Лемэр, Мари Бюнель

Описание: Действие фильма происходит в Нормандии в 1894 году. Безумно красивый молодой человек двадцати лет одержим страстью к авантюрам, приключениям и кражам. Его имя уже стало известно по всей Франции. Его зовут Арсен Люпен. Воровству Арсен с детства учился у собственного отца. Теперь он стал взрослым, и, несмотря на то, что служит французским офицером на таможне, Арсен Люпен — искусный вор и разбойник. Однажды накануне рождества отважный герой крадет драгоценности у пассажиров корабля…


Видео: 1920x816, 3815 Kbps
Аудио: AC3, 6 ch, 448 Kbps - РусскийРусский, Двухголосый (R5)
Субтитры: Русские

Медиаинфо
Общее
Уникальный идентификатор : 45876363780770618592537959899495708323 (0x2283775DC3FB5F772D022A4E1058B6A3)
Полное имя : R:\Arsene Lupin_encoded.mkv
Формат : Matroska
Версия формата : Version 4 / Version 2
Размер файла : 3,96 Гбайт
Продолжительность : 2 ч. 10 м.
Общий поток : 4349 Кбит/сек
Программа кодирования : XviD4PSP 7.0.498 PRO
Библиотека кодирования : Lavf57.71.100
ErrorDetectionType : Per level 1
Attachments : poster.jpg
ENCODING_INFO : MATROSKA,WEBM > MKV Пользовательский / MPEG2 > X265 VBR-2P 3900kbps Slow / DTS > AC3 CBR 448kbps
Язык : und

Видео
Идентификатор : 1
Формат : HEVC
Формат/Информация : High Efficiency Video Coding
Профиль формата : Main 10@L4.1@High
Идентификатор кодека : V_MPEGH/ISO/HEVC
Продолжительность : 2 ч. 10 м.
Битрейт : 3815 Кбит/сек
Ширина : 1920 пикселей
Высота : 816 пикселей
Соотношение сторон : 2,35:1
Режим частоты кадров : Постоянный
Частота кадров : 24,000 кадра/сек
Цветовое пространство : YUV
Субдискретизация насыщенности : 4:2:0
Битовая глубина : 10 бит
Бит/(Пиксели*Кадры) : 0.101
Размер потока : 3,48 Гбайт (88%)
Библиотека кодирования : x265 3.1+7-147fb92c5ed5:[Windows][clang 8.0.0][64 bit] 10bit
Настройки программы : cpuid=1111039 / frame-threads=13 / wpp / no-pmode / no-pme / no-psnr / no-ssim / log-level=3 / input-csp=1 / input-res=1920x816 / interlace=0 / total-frames=0 / level-idc=41 / high-tier=1 / uhd-bd=0 / ref=5 / allow-non-conformance / no-repeat-headers / annexb / no-aud / no-hrd / info / hash=0 / no-temporal-layers / open-gop / min-keyint=23 / keyint=240 / gop-lookahead=0 / bframes=8 / b-adapt=2 / b-pyramid / bframe-bias=0 / rc-lookahead=60 / lookahead-slices=4 / scenecut=60 / radl=0 / no-splice / no-intra-refresh / ctu=64 / min-cu-size=8 / rect / amp / max-tu-size=32 / tu-inter-depth=4 / tu-intra-depth=4 / limit-tu=4 / rdoq-level=2 / dynamic-rd=0.00 / no-ssim-rd / signhide / no-tskip / nr-intra=0 / nr-inter=0 / no-constrained-intra / no-strong-intra-smoothing / max-merge=5 / limit-refs=3 / limit-modes / me=3 / subme=7 / merange=57 / temporal-mvp / no-hme / weightp / weightb / no-analyze-src-pics / deblock=-3:-3 / no-sao / no-sao-non-deblock / rd=6 / no-early-skip / no-rskip / no-fast-intra / no-tskip-fast / no-cu-lossless / no-b-intra / no-splitrd-skip / rdpenalty=0 / psy-rd=2.00 / psy-rdoq=1.00 / no-rd-refine / no-lossless / cbqpoffs=0 / crqpoffs=0 / rc=abr / bitrate=3900 / qcomp=0.60 / qpstep=4 / stats-write=0 / stats-read=1 / cplxblur=20.0 / qblur=0.5 / vbv-maxrate=50000 / vbv-bufsize=50000 / vbv-init=0.9 / ipratio=1.40 / pbratio=1.30 / aq-mode=2 / aq-strength=1.00 / no-cutree / zone-count=0 / no-strict-cbr / qg-size=32 / no-rc-grain / qpmax=69 / qpmin=0 / no-const-vbv / sar=1 / overscan=0 / videoformat=5 / range=0 / colorprim=1 / transfer=1 / colormatrix=1 / chromaloc=0 / display-window=0cll=0,0 / min-luma=0 / max-luma=1023 / log2-max-poc-lsb=8 / vui-timing-info / vui-hrd-info / slices=1 / no-opt-qp-pps / no-opt-ref-list-length-pps / no-multi-pass-opt-rps / scenecut-bias=0.05 / no-opt-cu-delta-qp / no-aq-motion / no-hdr / no-hdr-opt / no-dhdr10-opt / no-idr-recovery-sei / analysis-reuse-level=5 / scale-factor=0 / refine-intra=0 / refine-inter=0 / refine-mv=0 / refine-ctu-distortion=0 / no-limit-sao / ctu-info=0 / no-lowpass-dct / refine-analysis-type=267 / copy-pic=1 / max-ausize-factor=1.0 / no-dynamic-refine / no-single-sei / no-hevc-aq / no-svt / no-field / qp-adaptation-range=1.00
Default : Да
Forced : Нет
Цветовой диапазон : Limited
Основные цвета : BT.709
Характеристики трансфера : BT.709
Коэффициенты матрицы : BT.709

Аудио
Идентификатор : 2
Формат : AC-3
Формат/Информация : Audio Coding 3
Идентификатор кодека : A_AC3
Продолжительность : 2 ч. 10 м.
Вид битрейта : Постоянный
Битрейт : 448 Кбит/сек
Каналы : 6 каналов
Расположение каналов : Front: L C R, Side: L R, LFE
Частота : 48,0 КГц
Частота кадров : 31,250 кадров/сек (1536 SPF)
Битовая глубина : 16 бит
Метод сжатия : С потерями
Размер потока : 418 Мбайт (10%)
Заголовок : DVO R5 DTS 5.1 1509 kbps
Язык : Russian
ServiceKind/String : Complete Main
Default : Да
Forced : Нет

Текст
Идентификатор : 3
Формат : UTF-8
Идентификатор кодека : S_TEXT/UTF8
Идентификатор кодека/Информация : UTF-8 Plain Text
Язык : Russian
Default : Да
Forced : Нет

Меню
00:00:00.000 : :00:00:00.000
00:09:18.458 : :00:09:18.458
00:21:58.708 : :00:21:58.708
00:32:04.542 : :00:32:04.542
00:43:53.875 : :00:43:53.875
00:54:28.417 : :00:54:28.417
01:05:46.042 : :01:05:46.042
01:16:27.333 : :01:16:27.333
01:28:18.542 : :01:28:18.542
01:38:34.417 : :01:38:34.417
01:49:22.000 : :01:49:22.000
02:00:18.208 : :02:00:18.208
Загрузка...Cкриншот1 Арсен Люпен / Arsène Lupin (2004) BDRip 1080p [HEVC] 10 bit от HANNIBALЗагрузка...Cкриншот2 Арсен Люпен / Arsène Lupin (2004) BDRip 1080p [HEVC] 10 bit от HANNIBALЗагрузка...Cкриншот3 Арсен Люпен / Arsène Lupin (2004) BDRip 1080p [HEVC] 10 bit от HANNIBALЗагрузка...Cкриншот4 Арсен Люпен / Arsène Lupin (2004) BDRip 1080p [HEVC] 10 bit от HANNIBAL
Сэмпл Торрент🧲 Магнет

Рейтинги КП и IMDB, кнопки "Позвать в чате" и "Спасибо", а также мультитрекерная статистика доступны только зарегистрированным/авторизованным пользователям!

Файлы: 1
  • Arsene Lupin (2004) BDRip-HEVC 1080p 10bit.mkv   3.96 ГБ
Поблагодарили: 2
LastSurviv0r, observer4444
Admin
041003.96 ГБ

Добавление нового комментария

Добавление комментариев доступно только зарегистрированным/авторизованным пользователям.