💬 Мини-чат

BrooklynOldGamer, Ок, спасибо, качаю.
OldGamerBrooklyn, они все на раздаче пока что
BrooklynOldGamer, Пораздавайте, пожалуйста, все сезоны сериала "Гримм" ближайшие 3 дня, очень хочу их забрать. Качество отличное. Заранее Благодарен.
StarLordСообщение удалено (удалил: StarLord)
OldGamerвыводить
mafo2Admin, можно вывести, наглядно будет
StarLordAdmin, +
AdminНадпись HDR выводить на обложку?
OldGamerGiggalo, но лучше всего вообще не затрагивайте этот ключ, по умолчанию будет установлено оптимальное значение
OldGamerGiggalo, но если уж очень хочется то пишите --frame-threads 3
OldGamerGiggalo, а зачем его менять?) нужное значение устанавливается автоматически
GiggaloДобрый вечер всем! OldGamer Покажи пожалуйста почему когда пишу в командной строке frame-threads=3 он не меняется. Какой там стоит 13 он его и держит, а ругие установки спокойно меняет?
AdminStarLord, спасибо. Пока сойдет.
StarLordAdmin, ага, вижу
StarLordAdmin, а как должно брать?
AdminStarLord, ты шаришь?
AdminStarLord, у меня сейчас такая, но с точками беда. Доработать бы (https?://([-\w\.]+)+(:\d+)?(/([-\w/_:%]*(\.\w+)*(\?\S+)?)?)?)
AdminStarLord, скрины в bb некорректно берет
StarLordwww, ftp(s), http(s), #, :, &
StarLordAdmin, все мои кейсы покрыла
  • abtr
  • Andrey_alex
  • InSpector
  • makss333
  • moonson
Отправка сообщений доступна только зарегистрированным/авторизованным пользователям.
Онлайн (за 10 мин.): 5

Твин Пикс / Twin Peaks (1990-1991) [2 сезон] BDRip 1080p [HEVC] 10 bit от Cthulhu (RG KORSAR)

HEVC
10 bit
Обложка Твин Пикс / Twin Peaks (1990-1991) [2 сезон] BDRip 1080p [HEVC] 10 bit от Cthulhu (RG KORSAR) Год: 1990-1991
Страна: США
Студия: Lynch/Frost Productions, Propaganda Films, Spelling Entertainment
Жанр: Триллер, Драма, Криминал, Детектив
Продолжительность: 1 x ~01:30:00, 21 x ~00:45:00

Режиссер: Дэвид Линч, Лесли Линка Глаттер, Калеб Дешанель
В ролях: Кайл МакЛахлан, Майкл Онткин, Шерил Ли, Лара Флинн Бойл, Шерилин Фенн, Рэй Уайз, Мигель Феррер, Дэвид Линч, Билли Зейн, Хезер Грэм, Мэдчен Эмик, Дэна Эшбрук, Ричард Беймер, Уоррен Фрост, Пегги Липтон, Джеймс Маршалл, Эверет МакГилл, Джек Нэнс, Джоан Чен, Кимми Робертсон, Майкл Хорс, Пайпер Лори, Гарри Гоаз, Эрик ДаРе, Уэнди Роби, Расс Тэмблин, Дон С. Дэвис, Крис Малки, Гаррисон Хершбергер, Грэйс Забриски, Катрин Э. Колсон, Йен Бьюкэнэн, Мэри Джо Дешанель, Фрэнк Силва, Кеннет Уэлш, Аль Штробель, Дэвид Патрик Келли

Описание: Основная сюжетная линия фильма - история расследования специальным агентом ФБР Дейлом Купером загадочного убийства юной школьницы Лоры Палмер, которая, казалось бы, была примерна во всех отношениях. Позднее откроется, что между видимым и реальным была невероятная пропасть. История начинается с известия о находке обнаженного тела, завернутого в полиэтилен и выброшенного волнами на берег озера. В ходе расследования перед внимательными взглядами агента Купера, шерифа Трумена и его помощников проходят разные жители Твин Пикс. Постепенно зритель открывает для себя поражающее многообразие сторон жизни этого, на первый взгляд, тихого и мирного городка: от драматической романтики до леденящего, мистического ужаса. Режиссер картины, Дэвид Линч, позднее скажет в одном из интервью: «Твин Пикс - везде. Это не место. Это состояние".

Серии
01 – Великан может быть с тобой / May the Giant Be with You
02 – Кома / Coma
03 – Человек за стеклом / The Man Behind the Glass
04 – Тайный дневник Лоры / Laura's Secret Diary
05 – Проклятие Орхидеи / The Orchid's Curse
06 – Демоны / Demons
07 – Одинокие души / Lonely Souls
08 – Поездка с мёртвой девушкой / Drive with a Dead Girl
09 – Самосуд / Arbitrary Law
10 – Спор между братьями / Dispute Between Brothers
11 – Бал-маскарад / Masked Ball
12 – Чёрная вдова / The Black Widow
13 – Шах и мат / Checkmate
14 – Двойная игра / Double Play
15 – Рабы и хозяева / Slaves and Mas
6 – Обречённая / The Condemned Woman
17 – Раны и шрамы / Wounds and Scars
18 – На крыльях любви / On the Wings of Love
19 – Перемены в расстановке сил / Variations and Relations
20 – Тропа к Чёрному Вигваму / The Path to the Black Lodge
21 – Ночь решений / Miss Twin Peaks
22 – Между жизнью и смертью / Beyond Life and Death

Видео: 1440x1080, ~7200 - 9100 Kbps
Аудио1: AC3, 2 ch, 192 Kbps - РусскийРусский, Многоголосый (Sci-Fi)
Аудио2: AC3, 2 ch, 192 Kbps - РусскийРусский, Многоголосый (ОРТ)
Аудио3: AC3, 2 ch, 192 Kbps - РусскийРусский, Многоголосый (ТВ3)
Аудио4: AC3, 6 ch, 448 Kbps - РусскийРусский, Многоголосый (NovaMedia)
Аудио5: AC3, 2 ch, 384 Kbps - РусскийРусский, Двухголосый (LostFilm)
Аудио6: AC3, 6 ch, 448 Kbps - РусскийРусский, Одноголосый (Сербин)
Аудио7: AC3, 2 ch, 192 Kbps - РусскийРусский, Одноголосый (Савченко)
Аудио8: AC3, 6 ch, 448 Kbps - EnglishEnglish, Original
Субтитры: Русские, English

Как за пару секунд удалить ненужные аудиодорожки и субтитры (Внимание! После удаления вы не сможете поддержать раздачу)

Медиаинфо
x265 [info]: frame I: 1031, Avg QP:17.96 kb/s: 26737.97
x265 [info]: frame P: 22678, Avg QP:19.18 kb/s: 17229.18
x265 [info]: frame B: 111800, Avg QP:21.30 kb/s: 5029.15
x265 [info]: consecutive B-frames: 6.0% 0.7% 0.9% 6.9% 6.4% 63.7% 8.2% 5.0% 0.7% 0.7% 0.2% 0.2%

General
Unique ID : 49788809380571661694808954735100023713 (0x2574F9D3CE2B32907811ED860039D3A1)
Complete name : H:\HEVC4\Twin peaks\Twin Peaks. Season 2\Twin Peaks.S02E01.(1990-1991).BDRip-HEVC.1080p - KORSAR.mkv
Format : Matroska
Format version : Version 4 / Version 2
File size : 6.41 GiB
Duration : 1 h 34 min
Overall bit rate : 9 736 kb/s
Movie name : Twin Peaks. 2 Season (1990-1991)_rip_by_Cthuhu
Encoded date : UTC 2019-10-29 16:21:30
Writing application : mkvmerge v37.0.0 ('Leave It') 64-bit
Writing library : libebml v1.3.9 + libmatroska v1.5.2
Cover : Yes
Attachments : cover2.jpg

Video
ID : 1
Format : HEVC
Format/Info : High Efficiency Video Coding
Format profile : Main 10@L4.1@High
Codec ID : V_MPEGH/ISO/HEVC
Duration : 1 h 34 min
Bit rate : 7 237 kb/s
Width : 1 440 pixels
Height : 1 080 pixels
Display aspect ratio : 4:3
Frame rate mode : Constant
Frame rate : 23.976 (24000/1001) FPS
Color space : YUV
Chroma subsampling : 4:2:0
Bit depth : 10 bits
Bits/(Pixel*Frame) : 0.194
Stream size : 4.76 GiB (74%)
Writing library : x265 3.1+5-9c5c9cef2a86:[Windows][MSVC 1921][64 bit] 10bit
Encoding settings : cpuid=1111039 / frame-threads=4 / numa-pools=16 / wpp / no-pmode / no-pme / no-psnr / no-ssim / log-level=2 / input-csp=1 / input-res=1440x1080 / interlace=0 / total-frames=135509 / level-idc=41 / high-tier=1 / uhd-bd=0 / ref=5 / no-allow-non-conformance / no-repeat-headers / annexb / no-aud / no-hrd / info / hash=0 / no-temporal-layers / open-gop / min-keyint=23 / keyint=240 / gop-lookahead=0 / bframes=11 / b-adapt=2 / b-pyramid / bframe-bias=0 / rc-lookahead=60 / lookahead-slices=1 / scenecut=40 / radl=0 / no-splice / no-intra-refresh / ctu=32 / min-cu-size=8 / rect / amp / max-tu-size=32 / tu-inter-depth=4 / tu-intra-depth=4 / limit-tu=1 / rdoq-level=2 / dynamic-rd=0.00 / no-ssim-rd / signhide / no-tskip / nr-intra=0 / nr-inter=0 / no-constrained-intra / no-strong-intra-smoothing / max-merge=5 / limit-refs=3 / limit-modes / me=3 / subme=7 / merange=57 / temporal-mvp / weightp / weightb / no-analyze-src-pics / deblock=-3:-2 / no-sao / no-sao-non-deblock / rd=6 / no-early-skip / no-rskip / no-fast-intra / no-tskip-fast / no-cu-lossless / no-b-intra / no-splitrd-skip / rdpenalty=0 / psy-rd=2.00 / psy-rdoq=1.00 / no-rd-refine / no-lossless / cbqpoffs=0 / crqpoffs=0 / rc=crf / crf=19.0 / qcomp=0.65 / qpstep=4 / stats-write=0 / stats-read=0 / vbv-maxrate=50000 / vbv-bufsize=50000 / vbv-init=0.9 / crf-max=0.0 / crf-min=0.0 / ipratio=1.40 / pbratio=1.30 / aq-mode=1 / aq-strength=1.00 / no-cutree / zone-count=0 / no-strict-cbr / qg-size=32 / no-rc-grain / qpmax=69 / qpmin=0 / no-const-vbv / sar=1 / overscan=0 / videoformat=5 / range=0 / colorprim=1 / transfer=1 / colormatrix=1 / chromaloc=0 / display-window=0cll=0,0 / min-luma=0 / max-luma=1023 / log2-max-poc-lsb=8 / vui-timing-info / vui-hrd-info / slices=1 / no-opt-qp-pps / no-opt-ref-list-length-pps / no-multi-pass-opt-rps / scenecut-bias=0.05 / no-opt-cu-delta-qp / no-aq-motion / no-hdr / no-hdr-opt / no-dhdr10-opt / no-idr-recovery-sei / analysis-reuse-level=5 / scale-factor=0 / refine-intra=0 / refine-inter=0 / refine-mv=0 / refine-ctu-distortion=0 / no-limit-sao / ctu-info=0 / no-lowpass-dct / refine-analysis-type=0 / copy-pic=1 / max-ausize-factor=1.0 / no-dynamic-refine / no-single-sei / hevc-aq / no-svt / no-field / qp-adaptation-range=2.00
Language : English
Default : Yes
Forced : No
Color range : Limited
Color primaries : BT.709
Transfer characteristics : BT.709
Matrix coefficients : BT.709

Audio #1
ID : 2
Format : AC-3
Format/Info : Audio Coding 3
Commercial name : Dolby Digital
Codec ID : A_AC3
Duration : 1 h 34 min
Bit rate mode : Constant
Bit rate : 192 kb/s
Channel(s) : 2 channels
Channel layout : L R
Sampling rate : 48.0 kHz
Frame rate : 31.250 FPS (1536 SPF)
Bit depth : 16 bits
Compression mode : Lossy
Stream size : 129 MiB (2%)
Title : MVO Sci-Fi
Language : Russian
Service kind : Complete Main
Default : Yes
Forced : No

Audio #2
ID : 3
Format : AC-3
Format/Info : Audio Coding 3
Commercial name : Dolby Digital
Codec ID : A_AC3
Duration : 1 h 34 min
Bit rate mode : Constant
Bit rate : 192 kb/s
Channel(s) : 2 channels
Channel layout : L R
Sampling rate : 48.0 kHz
Frame rate : 31.250 FPS (1536 SPF)
Bit depth : 16 bits
Compression mode : Lossy
Stream size : 129 MiB (2%)
Title : MVO ОРТ
Language : Russian
Service kind : Complete Main
Default : No
Forced : No

Audio #3
ID : 4
Format : AC-3
Format/Info : Audio Coding 3
Commercial name : Dolby Digital
Codec ID : A_AC3
Duration : 1 h 34 min
Bit rate mode : Constant
Bit rate : 192 kb/s
Channel(s) : 2 channels
Channel layout : L R
Sampling rate : 48.0 kHz
Frame rate : 31.250 FPS (1536 SPF)
Bit depth : 16 bits
Compression mode : Lossy
Stream size : 129 MiB (2%)
Title : MVO ТВ3
Language : Russian
Service kind : Complete Main
Default : No
Forced : No

Audio #4
ID : 5
Format : AC-3
Format/Info : Audio Coding 3
Commercial name : Dolby Digital
Codec ID : A_AC3
Duration : 1 h 34 min
Bit rate mode : Constant
Bit rate : 448 kb/s
Channel(s) : 6 channels
Channel layout : L R C LFE Ls Rs
Sampling rate : 48.0 kHz
Frame rate : 31.250 FPS (1536 SPF)
Bit depth : 16 bits
Compression mode : Lossy
Stream size : 302 MiB (5%)
Title : MVO NovaMedia
Language : Russian
Service kind : Complete Main
Default : No
Forced : No

Audio #5
ID : 6
Format : AC-3
Format/Info : Audio Coding 3
Commercial name : Dolby Digital
Codec ID : A_AC3
Duration : 1 h 34 min
Bit rate mode : Constant
Bit rate : 384 kb/s
Channel(s) : 2 channels
Channel layout : L R
Sampling rate : 48.0 kHz
Frame rate : 31.250 FPS (1536 SPF)
Bit depth : 16 bits
Compression mode : Lossy
Stream size : 259 MiB (4%)
Title : MVO LostFilm
Language : Russian
Service kind : Complete Main
Default : No
Forced : No

Audio #6
ID : 7
Format : AC-3
Format/Info : Audio Coding 3
Commercial name : Dolby Digital
Codec ID : A_AC3
Duration : 1 h 34 min
Bit rate mode : Constant
Bit rate : 448 kb/s
Channel(s) : 6 channels
Channel layout : L R C LFE Ls Rs
Sampling rate : 48.0 kHz
Frame rate : 31.250 FPS (1536 SPF)
Bit depth : 16 bits
Compression mode : Lossy
Stream size : 302 MiB (5%)
Title : AVO Сербин
Language : Russian
Service kind : Complete Main
Default : No
Forced : No

Audio #7
ID : 8
Format : AC-3
Format/Info : Audio Coding 3
Commercial name : Dolby Digital
Codec ID : A_AC3
Duration : 1 h 34 min
Bit rate mode : Constant
Bit rate : 192 kb/s
Channel(s) : 2 channels
Channel layout : L R
Sampling rate : 48.0 kHz
Frame rate : 31.250 FPS (1536 SPF)
Bit depth : 16 bits
Compression mode : Lossy
Stream size : 129 MiB (2%)
Title : AVO Савченко
Language : Russian
Service kind : Complete Main
Default : No
Forced : No

Audio #8
ID : 9
Format : AC-3
Format/Info : Audio Coding 3
Commercial name : Dolby Digital
Codec ID : A_AC3
Duration : 1 h 34 min
Bit rate mode : Constant
Bit rate : 448 kb/s
Channel(s) : 6 channels
Channel layout : L R C LFE Ls Rs
Sampling rate : 48.0 kHz
Frame rate : 31.250 FPS (1536 SPF)
Bit depth : 16 bits
Compression mode : Lossy
Stream size : 302 MiB (5%)
Language : English
Service kind : Complete Main
Default : No
Forced : No

Text #1
ID : 10
Format : UTF-8
Codec ID : S_TEXT/UTF8
Codec ID/Info : UTF-8 Plain Text
Duration : 1 h 29 min
Bit rate : 77 b/s
Count of elements : 1002
Stream size : 50.6 KiB (0%)
Language : Russian
Default : No
Forced : No

Text #2
ID : 11
Format : UTF-8
Codec ID : S_TEXT/UTF8
Codec ID/Info : UTF-8 Plain Text
Duration : 1 h 29 min
Bit rate : 52 b/s
Count of elements : 1057
Stream size : 34.1 KiB (0%)
Language : English
Default : No
Forced : No

Menu
00:00:00.000 : en:
00:22:14.207 : en:
00:32:55.138 : en:
00:42:45.979 : en:
00:59:21.849 : en:
01:08:45.287 : en:
01:18:21.445 : en:
01:33:07.997 : en:
01:34:11.811 : en:
Загрузка...Cкриншот1 Твин Пикс / Twin Peaks (1990-1991) [2 сезон] BDRip 1080p [HEVC] 10 bit от Cthulhu (RG KORSAR)Загрузка...Cкриншот2 Твин Пикс / Twin Peaks (1990-1991) [2 сезон] BDRip 1080p [HEVC] 10 bit от Cthulhu (RG KORSAR)Загрузка...Cкриншот3 Твин Пикс / Twin Peaks (1990-1991) [2 сезон] BDRip 1080p [HEVC] 10 bit от Cthulhu (RG KORSAR)Загрузка...Cкриншот4 Твин Пикс / Twin Peaks (1990-1991) [2 сезон] BDRip 1080p [HEVC] 10 bit от Cthulhu (RG KORSAR)
Релиз-группа: KORSAR
Сэмпл Торрент🧲 Магнет

Рейтинги КП и IMDB, кнопки "Позвать в чате" и "Спасибо", а также мультитрекерная статистика сидов и пиров доступны только зарегистрированным/авторизованным пользователям!

Файлы: 22
  • Twin Peaks. Season 2
    • Twin Peaks.S02E01.(1990-1991).BDRip-HEVC.1080p - KORSAR.mkv   6.41 ГБ
    • Twin Peaks.S02E02.(1990-1991).BDRip-HEVC.1080p - KORSAR.mkv   3.26 ГБ
    • Twin Peaks.S02E03.(1990-1991).BDRip-HEVC.1080p - KORSAR.mkv   3.72 ГБ
    • Twin Peaks.S02E04.(1990-1991).BDRip-HEVC.1080p - KORSAR.mkv   3.72 ГБ
    • Twin Peaks.S02E05.(1990-1991).BDRip-HEVC.1080p - KORSAR.mkv   3.26 ГБ
    • Twin Peaks.S02E06.(1990-1991).BDRip-HEVC.1080p - KORSAR.mkv   3.3 ГБ
    • Twin Peaks.S02E07.(1990-1991).BDRip-HEVC.1080p - KORSAR.mkv   3.59 ГБ
    • Twin Peaks.S02E08.(1990-1991).BDRip-HEVC.1080p - KORSAR.mkv   3.81 ГБ
    • Twin Peaks.S02E09.(1990-1991).BDRip-HEVC.1080p - KORSAR.mkv   3.56 ГБ
    • Twin Peaks.S02E10.(1990-1991).BDRip-HEVC.1080p - KORSAR.mkv   3.44 ГБ
    • Twin Peaks.S02E11.(1990-1991).BDRip-HEVC.1080p - KORSAR.mkv   3.43 ГБ
    • Twin Peaks.S02E12.(1990-1991).BDRip-HEVC.1080p - KORSAR.mkv   3.37 ГБ
    • Twin Peaks.S02E13.(1990-1991).BDRip-HEVC.1080p - KORSAR.mkv   3.34 ГБ
    • Twin Peaks.S02E14.(1990-1991).BDRip-HEVC.1080p - KORSAR.mkv   2.46 ГБ
    • Twin Peaks.S02E15.(1990-1991).BDRip-HEVC.1080p - KORSAR.mkv   3.41 ГБ
    • Twin Peaks.S02E16.(1990-1991).BDRip-HEVC.1080p - KORSAR.mkv   3.22 ГБ
    • Twin Peaks.S02E17.(1990-1991).BDRip-HEVC.1080p - KORSAR.mkv   3.36 ГБ
    • Twin Peaks.S02E18.(1990-1991).BDRip-HEVC.1080p - KORSAR.mkv   3.57 ГБ
    • Twin Peaks.S02E19.(1990-1991).BDRip-HEVC.1080p - KORSAR.mkv   3.39 ГБ
    • Twin Peaks.S02E20.(1990-1991).BDRip-HEVC.1080p - KORSAR.mkv   3.73 ГБ
    • Twin Peaks.S02E21.(1990-1991).BDRip-HEVC.1080p - KORSAR.mkv   3.56 ГБ
    • Twin Peaks.S02E22.(1990-1991).BDRip-HEVC.1080p - KORSAR.mkv   3.66 ГБ
Поблагодарили: 3
brukvalub, han-nik, LastSurviv0r
Cthulhu
06900 (22)  78.6 ГБ

Добавление нового комментария

Добавление комментариев доступно только зарегистрированным/авторизованным пользователям.