💬 Мини-чат

Убедительная просьба не обсуждать тут политику.
AdminЛёшикоБэст, вроде потихоньку идёт. Подождем, если не докачается, то встану.
AdminЛёшикоБэст, перекачайте торрент, а то в профиле не отображается ждете или уже нет
ЛёшикоБэстРаздайте, пожалуйста, Неудержимые / The Expendables (2010) [Theatrical Cut] BDRip 1080p [HEVC] 10 bit от Spartanec1308
OldGamerДа, есть.
ЛёшикоБэстДоброго вечера) Скажите пожалуйста, есть ли в планах сделать релиз дилогии "Зорро" с Антонио Бандерасом?
HANNIBALAdmin, 👍
AdminГоро, встал
ГороРаздайте, пожалуйста, Хищники / Predators (2010) BDRip 1080p [HEVC] 10 bit от HANNIBAL
AdminHANNIBAL, привет. Не помню за сколько брал, но продление в этот раз обошлось примерно в $14 со всякими комиссиями. А аренда VDS обходится примерно в $30-35 за год. Не исключено, что всё это подорожает. Пока что пожертвования с трудом покрывают расходы. Иногда если требуется и со своего кармана оплачиваю, не страшно. Прорвемся.
HANNIBALсколько сейчас стоит
HANNIBALAdmin, ПРИВЕТ
AdminНаконец-то получил банковскую карту. Продлил доменное имя (адрес сайта) на год.
  • ivan_1965
Отправка сообщений доступна только зарегистрированным/авторизованным пользователям.
Онлайн (за 10 мин.): 1

Принц Персии: Пески времени / Prince of Persia: The Sands of Time (2010) BDRip 1080p [HEVC] 10 bit от OldGamer (RG RIPS CLUB)

HEVC
10 bit
Обложка Принц Персии: Пески времени / Prince of Persia: The Sands of Time (2010) BDRip 1080p [HEVC] 10 bit от OldGamer (RG RIPS CLUB) Год: 2010
Страна: США
Студия: Jerry Bruckheimer Films, Walt Disney Pictures
Жанр: Фэнтези, Боевик, Приключения
Продолжительность: 01:55:53

Режиссер: Майк Ньюэлл
В ролях: Джейк Джилленхол, Джемма Артертон, Бен Кингсли, Альфред Молина, Стив Туссэн, Тоби Кеббелл, Ричард Койл, Рональд Пикап, Рис Ричи, Гисли Орн Гардарссон

Описание: Главный герой этой экранизации культовой компьютерной игры, юный принц Дастан всегда побеждал врагов в бою, но потерял королевство из-за козней коварного царедворца. Теперь Дастану предстоит похитить из рук злодеев могущественный магический артефакт, способный повернуть время вспять и сделать своего владельца властелином мира. Помочь одолеть врагов Дастану помогут его блестящие навыки владения холодным оружием, а также недюжинные способности к акробатике и эквилибристике.


Исходник: Blu-Ray Remux 1080p (rutracker)
Видео: 1920x800 (2,40:1), 10,4 мбит/сек, HEVC (Main 10@L4.1@High) 10 бит
Аудио1: AC3, 6 ch, 640 Kbps - РусскийРусский, DUB (Невафильм)
Аудио2: AC3, 6 ch, 640 Kbps - РусскийРусский, AVO (Вячеслав Замез)
Аудио3: AC3, 6 ch, 640 Kbps - РусскийРусский, AVO (Юрий Сербин)
Аудио4: AC3, 6 ch, 640 Kbps - РусскийРусский, AVO (Андрей Гаврилов)
Аудио5: AC3, 6 ch, 640 Kbps - РусскийРусский, VO (Евгений Солодухин)
Аудио6: AC3, 6 ch, 640 Kbps - УкраинскийУкраинский, DUB (Blu-Ray)
Аудио7: AC3, 6 ch, 640 Kbps - EnglishEnglish, Original
Субтитры: Русские (full, forced, SRT), Украинские (full, forced, SRT), English full (SRT, SDH)

Как за пару секунд удалить ненужные аудиодорожки и субтитры (Внимание! После удаления вы не сможете поддержать раздачу)

Лог (x265 info)
x265 [info]: frame I: 703, Avg QP:17.94 kb/s: 24433.53
x265 [info]: frame P: 35345, Avg QP:19.35 kb/s: 18332.32
x265 [info]: frame B: 130667, Avg QP:21.37 kb/s: 8143.44
x265 [info]: Weighted P-Frames: Y:10.5% UV:8.7%
x265 [info]: Weighted B-Frames: Y:10.2% UV:7.3%
x265 [info]: consecutive B-frames: 3.3% 6.7% 8.6% 36.0% 12.3% 25.2% 3.5% 2.9% 0.7% 0.2% 0.1% 0.1% 0.1% 0.1% 0.2%
x265 [info]: encoded 166715 frames in 113616.59s (1.47 fps), 10372.26 kb/s, Avg QP:20.93
Медиаинфо
Общее
Уникальный идентификатор : 166557676135902251418963769792499144145 (0x7D4DD772B0706C828121D6F45551D5D1)
Полное имя : \\.\Принц.Персии.Пески.времени.Prince.of.Persia.The.Sands.of.Time.2010.BDRip-HEVC.1080p.mkv
Формат : Matroska
Версия формата : Version 4
Размер файла : 12,0 Гбайт
Продолжительность : 1 ч. 55 м.
Общий поток : 14,9 Мбит/сек
Название фильма : Принц.Персии.Пески.времени.Prince.of.Persia.The.Sands.of.Time.2010.BDRip-HEVC.1080p
Дата кодирования : UTC 2022-05-22 15:20:33
Программа кодирования : mkvmerge v67.0.0 ('Under Stars') 64-bit
Библиотека кодирования : libebml v1.4.2 + libmatroska v1.6.4

Видео
Идентификатор : 1
Формат : HEVC
Формат/Информация : High Efficiency Video Coding
Профиль формата : Main 10@L4.1@High
Идентификатор кодека : V_MPEGH/ISO/HEVC
Продолжительность : 1 ч. 55 м.
Битрейт : 10,4 Мбит/сек
Ширина : 1 920 пикселей
Высота : 800 пикселей
Соотношение сторон : 2,40:1
Режим частоты кадров : Постоянный
Частота кадров : 23,976 (24000/1001) кадра/сек
Цветовое пространство : YUV
Субдискретизация насыщенности : 4:2:0
Битовая глубина : 10 бит
Бит/(Пиксели*Кадры) : 0.282
Размер потока : 8,40 Гбайт (70%)
Заголовок : Prince of Persia: The Sands of Time / Rip by OldGamer
Библиотека кодирования : x265 3.5+35-e3713124d:[Windows][GCC 11.2.0][64 bit] 10bit
Настройки программы : cpuid=1111039 / frame-threads=4 / numa-pools=16 / wpp / no-pmode / no-pme / no-psnr / no-ssim / log-level=2 / input-csp=1 / input-res=1920x800 / interlace=0 / total-frames=166715 / level-idc=41 / high-tier=1 / uhd-bd=0 / ref=5 / no-allow-non-conformance / no-repeat-headers / annexb / no-aud / no-eob / no-eos / no-hrd / info / hash=0 / no-temporal-layers / open-gop / min-keyint=23 / keyint=240 / gop-lookahead=0 / bframes=14 / b-adapt=2 / b-pyramid / bframe-bias=0 / rc-lookahead=40 / lookahead-slices=0 / scenecut=40 / no-hist-scenecut / radl=0 / no-splice / no-intra-refresh / ctu=32 / min-cu-size=8 / rect / amp / max-tu-size=32 / tu-inter-depth=4 / tu-intra-depth=4 / limit-tu=1 / rdoq-level=2 / dynamic-rd=0.00 / no-ssim-rd / signhide / no-tskip / nr-intra=0 / nr-inter=0 / no-constrained-intra / no-strong-intra-smoothing / max-merge=5 / limit-refs=3 / no-limit-modes / me=3 / subme=7 / merange=57 / temporal-mvp / no-frame-dup / no-hme / weightp / weightb / no-analyze-src-pics / deblock=-2:-2 / no-sao / no-sao-non-deblock / rd=6 / selective-sao=0 / no-early-skip / no-rskip / no-fast-intra / no-tskip-fast / no-cu-lossless / b-intra / no-splitrd-skip / rdpenalty=0 / psy-rd=2.00 / psy-rdoq=1.00 / no-rd-refine / no-lossless / cbqpoffs=0 / crqpoffs=0 / rc=crf / crf=19.5 / qcomp=0.70 / qpstep=4 / stats-write=0 / stats-read=0 / vbv-maxrate=50000 / vbv-bufsize=50000 / vbv-init=0.9 / min-vbv-fullness=50.0 / max-vbv-fullness=80.0 / crf-max=0.0 / crf-min=0.0 / ipratio=1.40 / pbratio=1.30 / aq-mode=1 / aq-strength=1.00 / no-cutree / zone-count=1 / zones: / start-frame=156044 / end-frame=166715 / qp=36 / no-strict-cbr / qg-size=32 / no-rc-grain / qpmax=69 / qpmin=0 / no-const-vbv / sar=1 / overscan=0 / videoformat=5 / range=0 / colorprim=2 / transfer=2 / colormatrix=2 / chromaloc=0 / display-window=0 / cll=0,0 / min-luma=0 / max-luma=1023 / log2-max-poc-lsb=8 / vui-timing-info / vui-hrd-info / slices=1 / no-opt-qp-pps / no-opt-ref-list-length-pps / no-multi-pass-opt-rps / scenecut-bias=0.00 / hist-threshold=0.03 / no-opt-cu-delta-qp / no-aq-motion / no-hdr10 / no-hdr10-opt / no-dhdr10-opt / no-idr-recovery-sei / analysis-reuse-level=0 / analysis-save-reuse-level=0 / analysis-load-reuse-level=0 / scale-factor=0 / refine-intra=0 / refine-inter=0 / refine-mv=1 / refine-ctu-distortion=0 / no-limit-sao / ctu-info=0 / no-lowpass-dct / refine-analysis-type=0 / copy-pic=1 / max-ausize-factor=1.0 / no-dynamic-refine / no-single-sei / no-hevc-aq / no-svt / no-field / qp-adaptation-range=1.00 / scenecut-aware-qp=0conformance-window-offsets / right=0 / bottom=0 / decoder-max-rate=0 / no-vbv-live-multi-pass
Язык : English
Default : Да
Forced : Нет

Аудио #1
Идентификатор : 2
Формат : AC-3
Формат/Информация : Audio Coding 3
Коммерческое название : Dolby Digital
Идентификатор кодека : A_AC3
Продолжительность : 1 ч. 55 м.
Вид битрейта : Постоянный
Битрейт : 640 Кбит/сек
Каналы : 6 каналов
Channel layout : L R C LFE Ls Rs
Частота : 48,0 КГц
Частота кадров : 31,250 кадров/сек (1536 SPF)
Метод сжатия : С потерями
Размер потока : 531 Мбайт (4%)
Заголовок : DUB (Невафильм)
Язык : Russian
Service kind : Complete Main
Default : Да
Forced : Нет

Аудио #2
Идентификатор : 3
Формат : AC-3
Формат/Информация : Audio Coding 3
Коммерческое название : Dolby Digital
Идентификатор кодека : A_AC3
Продолжительность : 1 ч. 55 м.
Вид битрейта : Постоянный
Битрейт : 640 Кбит/сек
Каналы : 6 каналов
Channel layout : L R C LFE Ls Rs
Частота : 48,0 КГц
Частота кадров : 31,250 кадров/сек (1536 SPF)
Метод сжатия : С потерями
Размер потока : 531 Мбайт (4%)
Заголовок : AVO (Вячеслав Замез)
Язык : Russian
Service kind : Complete Main
Default : Нет
Forced : Нет

Аудио #3
Идентификатор : 4
Формат : AC-3
Формат/Информация : Audio Coding 3
Коммерческое название : Dolby Digital
Идентификатор кодека : A_AC3
Продолжительность : 1 ч. 55 м.
Вид битрейта : Постоянный
Битрейт : 640 Кбит/сек
Каналы : 6 каналов
Channel layout : L R C LFE Ls Rs
Частота : 48,0 КГц
Частота кадров : 31,250 кадров/сек (1536 SPF)
Метод сжатия : С потерями
Размер потока : 531 Мбайт (4%)
Заголовок : AVO (Юрий Сербин)
Язык : Russian
Service kind : Complete Main
Default : Нет
Forced : Нет

Аудио #4
Идентификатор : 5
Формат : AC-3
Формат/Информация : Audio Coding 3
Коммерческое название : Dolby Digital
Идентификатор кодека : A_AC3
Продолжительность : 1 ч. 55 м.
Вид битрейта : Постоянный
Битрейт : 640 Кбит/сек
Каналы : 6 каналов
Channel layout : L R C LFE Ls Rs
Частота : 48,0 КГц
Частота кадров : 31,250 кадров/сек (1536 SPF)
Метод сжатия : С потерями
Размер потока : 531 Мбайт (4%)
Заголовок : AVO (Андрей Гаврилов)
Язык : Russian
Service kind : Complete Main
Default : Нет
Forced : Нет

Аудио #5
Идентификатор : 6
Формат : AC-3
Формат/Информация : Audio Coding 3
Коммерческое название : Dolby Digital
Идентификатор кодека : A_AC3
Продолжительность : 1 ч. 55 м.
Вид битрейта : Постоянный
Битрейт : 640 Кбит/сек
Каналы : 6 каналов
Channel layout : L R C LFE Ls Rs
Частота : 48,0 КГц
Частота кадров : 31,250 кадров/сек (1536 SPF)
Метод сжатия : С потерями
Размер потока : 531 Мбайт (4%)
Заголовок : VO (Евгений Солодухин)
Язык : Russian
Service kind : Complete Main
Default : Нет
Forced : Нет

Аудио #6
Идентификатор : 7
Формат : AC-3
Формат/Информация : Audio Coding 3
Коммерческое название : Dolby Digital
Идентификатор кодека : A_AC3
Продолжительность : 1 ч. 55 м.
Вид битрейта : Постоянный
Битрейт : 640 Кбит/сек
Каналы : 6 каналов
Channel layout : L R C LFE Ls Rs
Частота : 48,0 КГц
Частота кадров : 31,250 кадров/сек (1536 SPF)
Метод сжатия : С потерями
Размер потока : 531 Мбайт (4%)
Заголовок : DUB (Blu-Ray)
Язык : Ukrainian
Service kind : Complete Main
Default : Нет
Forced : Нет

Аудио #7
Идентификатор : 8
Формат : AC-3
Формат/Информация : Audio Coding 3
Коммерческое название : Dolby Digital
Идентификатор кодека : A_AC3
Продолжительность : 1 ч. 55 м.
Вид битрейта : Постоянный
Битрейт : 640 Кбит/сек
Каналы : 6 каналов
Channel layout : L R C LFE Ls Rs
Частота : 48,0 КГц
Частота кадров : 31,250 кадров/сек (1536 SPF)
Метод сжатия : С потерями
Размер потока : 531 Мбайт (4%)
Язык : English
Service kind : Complete Main
Default : Нет
Forced : Нет

Текст #1
Идентификатор : 9
Формат : UTF-8
Идентификатор кодека : S_TEXT/UTF8
Идентификатор кодека/Информация : UTF-8 Plain Text
Продолжительность : 1 ч. 47 м.
Битрейт : 0 бит/сек
Count of elements : 11
Размер потока : 560 байт (0%)
Заголовок : forced
Язык : Russian
Default : Да
Forced : Нет

Текст #2
Идентификатор : 10
Формат : UTF-8
Идентификатор кодека : S_TEXT/UTF8
Идентификатор кодека/Информация : UTF-8 Plain Text
Продолжительность : 1 ч. 47 м.
Битрейт : 74 бит/сек
Count of elements : 1148
Размер потока : 58,9 Кбайт (0%)
Заголовок : full_BD CEE
Язык : Russian
Default : Нет
Forced : Нет

Текст #3
Идентификатор : 11
Формат : UTF-8
Идентификатор кодека : S_TEXT/UTF8
Идентификатор кодека/Информация : UTF-8 Plain Text
Продолжительность : 1 ч. 47 м.
Битрейт : 83 бит/сек
Count of elements : 991
Размер потока : 66,2 Кбайт (0%)
Заголовок : full_Воронин, Евгений
Язык : Russian
Default : Нет
Forced : Нет

Текст #4
Идентификатор : 12
Формат : UTF-8
Идентификатор кодека : S_TEXT/UTF8
Идентификатор кодека/Информация : UTF-8 Plain Text
Продолжительность : 1 ч. 47 м.
Битрейт : 89 бит/сек
Count of elements : 1182
Размер потока : 70,5 Кбайт (0%)
Заголовок : full_SDH_Воронин, Евгений
Язык : Russian
Default : Нет
Forced : Нет

Текст #5
Идентификатор : 13
Формат : UTF-8
Идентификатор кодека : S_TEXT/UTF8
Идентификатор кодека/Информация : UTF-8 Plain Text
Продолжительность : 1 ч. 48 м.
Битрейт : 0 бит/сек
Count of elements : 13
Размер потока : 600 байт (0%)
Заголовок : forced
Язык : Ukrainian
Default : Нет
Forced : Нет

Текст #6
Идентификатор : 14
Формат : UTF-8
Идентификатор кодека : S_TEXT/UTF8
Идентификатор кодека/Информация : UTF-8 Plain Text
Продолжительность : 1 ч. 48 м.
Битрейт : 82 бит/сек
Count of elements : 1174
Размер потока : 65,6 Кбайт (0%)
Заголовок : full
Язык : Ukrainian
Default : Нет
Forced : Нет

Текст #7
Идентификатор : 15
Формат : UTF-8
Идентификатор кодека : S_TEXT/UTF8
Идентификатор кодека/Информация : UTF-8 Plain Text
Продолжительность : 1 ч. 46 м.
Битрейт : 49 бит/сек
Count of elements : 1137
Размер потока : 38,4 Кбайт (0%)
Заголовок : full
Язык : English
Default : Нет
Forced : Нет

Текст #8
Идентификатор : 16
Формат : UTF-8
Идентификатор кодека : S_TEXT/UTF8
Идентификатор кодека/Информация : UTF-8 Plain Text
Продолжительность : 1 ч. 47 м.
Битрейт : 54 бит/сек
Count of elements : 1379
Размер потока : 42,9 Кбайт (0%)
Заголовок : full_SDH
Язык : English
Default : Нет
Forced : Нет

Меню
00:00:00.000 : en:In a Land Far Away...
00:04:24.556 : en:The Council
00:08:37.392 : en:Attack on Alamut
00:16:52.762 : en:Tamina Unveiled
00:22:51.579 : en:Brotherhood & Loyalty
00:29:07.788 : en:The Dagger
00:32:57.851 : en:Valley of Slaves
00:36:58.174 : en:Dealing With a Sheik
00:40:31.095 : en:Dastan & Tamina Escape
00:46:08.265 : en:Trusting Nizam
00:58:00.727 : en:Visions of Death
01:00:17.030 : en:The Sand Storm
01:07:01.100 : en:Oasis Ambush
01:10:47.743 : en:Returning the Dagger
01:15:46.459 : en:Hassansin Attack
01:20:37.124 : en:Return to Alamut
01:27:37.294 : en:No Ordinary Dagger
01:32:19.367 : en:Sands of Time
01:40:51.671 : en:Destiny
01:48:29.753 : en:End Credits
Загрузка...Cкриншот1 Принц Персии: Пески времени / Prince of Persia: The Sands of Time (2010) BDRip 1080p [HEVC] 10 bit от OldGamer (RG RIPS CLUB)Загрузка...Cкриншот2 Принц Персии: Пески времени / Prince of Persia: The Sands of Time (2010) BDRip 1080p [HEVC] 10 bit от OldGamer (RG RIPS CLUB)Загрузка...Cкриншот3 Принц Персии: Пески времени / Prince of Persia: The Sands of Time (2010) BDRip 1080p [HEVC] 10 bit от OldGamer (RG RIPS CLUB)Загрузка...Cкриншот4 Принц Персии: Пески времени / Prince of Persia: The Sands of Time (2010) BDRip 1080p [HEVC] 10 bit от OldGamer (RG RIPS CLUB)
Релиз-группа: RIPS CLUB
Сэмпл Торрент🧲 Магнет

Раздача обновлена!
Перекодировано. Добавлены украинская дорожка и субтитры.

Рейтинги КП и IMDB, кнопки "Позвать в чате" и "Спасибо", а также мультитрекерная статистика доступны только зарегистрированным/авторизованным пользователям!

Файлы: 1
  • Принц.Персии.Пески.времени.Prince.of.Persia.The.Sands.of.Time.2010.BDRip-HEVC.1080p.mkv   12.03 ГБ
Поблагодарили: 9
alexyak, D16T, FijiMAX, Kiran, makss333, Nuclear70, sharkey71, torrentzulu, Тренер по Йоге
OldGamer
31578212.03 ГБ

Добавление нового комментария

Добавление комментариев доступно только зарегистрированным/авторизованным пользователям.
Аватар OldGamer
  OldGamer  (Отредактировал OldGamer: )    
https://my-files.su/nhmjhf
форсированные субтитры с исправленными таймингами
Аватар OldGamer
  OldGamer  
Admin писал(а):
В русских форсированных субтитрах:
00:04:51,876 --> 00:46:17,817
00:46:32,331 --> 00:56:36,142
в исходнике с рутрекера так
исправлю, но перезаливать не буду, ссылку оставлю
Аватар Admin
  Admin  
В русских форсированных субтитрах:
00:04:51,876 --> 00:46:17,817
00:46:32,331 --> 00:56:36,142