💬 Мини-чат

BrooklynOldGamer, Ок, спасибо, качаю.
OldGamerBrooklyn, они все на раздаче пока что
BrooklynOldGamer, Пораздавайте, пожалуйста, все сезоны сериала "Гримм" ближайшие 3 дня, очень хочу их забрать. Качество отличное. Заранее Благодарен.
StarLordСообщение удалено (удалил: StarLord)
OldGamerвыводить
mafo2Admin, можно вывести, наглядно будет
StarLordAdmin, +
AdminНадпись HDR выводить на обложку?
OldGamerGiggalo, но лучше всего вообще не затрагивайте этот ключ, по умолчанию будет установлено оптимальное значение
OldGamerGiggalo, но если уж очень хочется то пишите --frame-threads 3
OldGamerGiggalo, а зачем его менять?) нужное значение устанавливается автоматически
GiggaloДобрый вечер всем! OldGamer Покажи пожалуйста почему когда пишу в командной строке frame-threads=3 он не меняется. Какой там стоит 13 он его и держит, а ругие установки спокойно меняет?
AdminStarLord, спасибо. Пока сойдет.
StarLordAdmin, ага, вижу
StarLordAdmin, а как должно брать?
AdminStarLord, ты шаришь?
AdminStarLord, у меня сейчас такая, но с точками беда. Доработать бы (https?://([-\w\.]+)+(:\d+)?(/([-\w/_:%]*(\.\w+)*(\?\S+)?)?)?)
AdminStarLord, скрины в bb некорректно берет
StarLordwww, ftp(s), http(s), #, :, &
StarLordAdmin, все мои кейсы покрыла
  • OldGamer
  • Spartanec1308
  • donadar
  • InSpector
  • moonson
  • zanzybar
Отправка сообщений доступна только зарегистрированным/авторизованным пользователям.
Онлайн (за 10 мин.): 6

Ну, погоди! (1969-1986) BDRip 1080p [HEVC] 10 bit от ADVOKAT69

HEVC
10 bit
Обложка Ну, погоди! (1969-1986) BDRip 1080p [HEVC] 10 bit от ADVOKAT69 Год: 1969-1986
Страна: СССР
Жанр: Мультфильм
Продолжительность: 16 серий ~ 7-8 минут

Режиссер: Вячеслав Котеночкин
В ролях: Клара Румянова, Анатолий Папанов, Геннадий Хазанов, Владимир Сошальский, Игорь Христенко.

Описание: Веселые приключения неразлучной парочки — хулигана Волка и смышленого Зайца. Любимые с детства сцены погонь, ссор и примирений, шутки и мелодии.

Серии
01. На пляже
02. В парке отдыха
03. Гонка
04. На стадионе
05. На улице
06. В деревне
07. На корабле
08. Новый год
09. В телестудии
10. На стройке
11. В цирке
12. В музее
13. Олимпиада - 80
14. Дом техников
15. Дом культуры
16. В сказке

Исходник: Blu-Ray Лизард
Видео: 1424x1080, 5870 Kbps
Аудио: AC3, 6 ch, 448 Kbps - Русский
Субтитры: нет

Лог (x265 info)
x265 [info]: frame I: 103, Avg QP:19.20 kb/s: 22239.99
x265 [info]: frame P: 4149, Avg QP:20.83 kb/s: 11985.74
x265 [info]: frame B: 9852, Avg QP:25.04 kb/s: 3303.85
x265 [info]: global : 14104, Avg QP:23.76 kb/s: 5996.11
x265 [info]: Weighted P-Frames: Y:30.8% UV:28.1%
x265 [info]: consecutive B-frames: 17.1% 12.8% 17.1% 33.9% 12.5% 6.6%
Медиаинфо
Общее
Уникальный идентификатор : 208629644682782791116086774600555690472 (0x9CF49BA5C430C8468F070ED3B155F9E8)
Полное имя : D:\Ну, погоди! Выпуски 1-16\08. Новый год.mkv
Формат : Matroska
Версия формата : Version 2
Размер файла : 434 Мбайт
Продолжительность : 9 м. 24 с.
Общий поток : 6447 Кбит/сек
Дата кодирования : UTC 2020-01-27 17:18:47
Программа кодирования : mkvmerge v7.8.0 ('River Man') 32bit built on Apr 3 2015 12:11:22
Библиотека кодирования : libebml v1.3.1 + libmatroska v1.4.2

Видео
Идентификатор : 1
Формат : HEVC
Формат/Информация : High Efficiency Video Coding
Профиль формата : Main 10@L4.1@Main
Идентификатор кодека : V_MPEGH/ISO/HEVC
Продолжительность : 9 м. 24 с.
Битрейт : 5870 Кбит/сек
Ширина : 1424 пикселя
Высота : 1080 пикселей
Соотношение сторон : 4:3
Режим частоты кадров : Постоянный
Частота кадров : 25,000 кадров/сек
Цветовое пространство : YUV
Субдискретизация насыщенности : 4:2:0
Битовая глубина : 10 бит
Бит/(Пиксели*Кадры) : 0.153
Размер потока : 395 Мбайт (91%)
Библиотека кодирования : x265 1.5+88-0e89af0781ee:[Windows][GCC 4.8.2][64 bit] 16bpp
Настройки программы : wpp / ctu=64 / min-cu-size=8 / max-tu-size=32 / tu-intra-depth=1 / tu-inter-depth=1 / me=2 / subme=7 / merange=57 / no-rect / no-amp / max-merge=3 / temporal-mvp / no-early-skip / rdpenalty=0 / no-tskip / no-tskip-fast / strong-intra-smoothing / no-lossless / no-cu-lossless / no-constrained-intra / no-fast-intra / open-gop / no-temporal-layers / interlace=0 / keyint=240 / min-keyint=24 / scenecut=40 / rc-lookahead=20 / bframes=5 / bframe-bias=0 / b-adapt=2 / ref=5 / weightp / no-weightb / aq-mode=1 / aq-strength=1.00 / cbqpoffs=0 / crqpoffs=0 / rd=5 / psy-rd=0.30 / psy-rdoq=1.00 / signhide / lft / sao / no-sao-non-deblock / b-pyramid / cutree / rc=crf / crf=20.0 / qcomp=0.60 / qpmin=0 / qpmax=51 / qpstep=4 / vbv-maxrate=20000 / vbv-bufsize=20000 / crf-max=0.0 / ipratio=1.40 / pbratio=1.30
Default : Да
Forced : Нет
Цветовой диапазон : Full

Аудио
Идентификатор : 2
Формат : AC-3
Формат/Информация : Audio Coding 3
Коммерческое название : Dolby Digital
Идентификатор кодека : A_AC3
Продолжительность : 9 м. 24 с.
Вид битрейта : Постоянный
Битрейт : 448 Кбит/сек
Каналы : 6 каналов
ChannelLayout : L R C LFE Ls Rs
Частота : 48,0 КГц
Частота кадров : 31,250 кадров/сек (1536 SPF)
Метод сжатия : С потерями
Задержка видео : 8 мс.
Размер потока : 30,1 Мбайт (7%)
Язык : Russian
ServiceKind/String : Complete Main
Default : Да
Forced : Нет
Загрузка...Cкриншот1 Ну, погоди! (1969-1986) BDRip 1080p [HEVC] 10 bit от ADVOKAT69Загрузка...Cкриншот2 Ну, погоди! (1969-1986) BDRip 1080p [HEVC] 10 bit от ADVOKAT69Загрузка...Cкриншот3 Ну, погоди! (1969-1986) BDRip 1080p [HEVC] 10 bit от ADVOKAT69Загрузка...Cкриншот4 Ну, погоди! (1969-1986) BDRip 1080p [HEVC] 10 bit от ADVOKAT69
Сэмпл Торрент🧲 Магнет

Рейтинги КП и IMDB, кнопки "Позвать в чате" и "Спасибо", а также мультитрекерная статистика сидов и пиров доступны только зарегистрированным/авторизованным пользователям!

Файлы: 16
  • Ну, погоди! Выпуски 1-16
    • 01. На пляже.mkv   332.83 МБ
    • 02. В парке отдыха.mkv   261.05 МБ
    • 03. Гонка.mkv   305.59 МБ
    • 04. На стадионе.mkv   369.97 МБ
    • 05. На улице.mkv   349.43 МБ
    • 06. В деревне.mkv   549.14 МБ
    • 07. На корабле.mkv   512.87 МБ
    • 08. Новый год.mkv   433.57 МБ
    • 09. В телестудии.mkv   385.53 МБ
    • 10. На стройке.mkv   551.87 МБ
    • 11. В цирке.mkv   391.53 МБ
    • 12. В музее.mkv   289.4 МБ
    • 13. Олимпиада - 80.mkv   466.01 МБ
    • 14. Дом техников.mkv   472.76 МБ
    • 15. Дом культуры.mkv   501.92 МБ
    • 16. В сказке.mkv   376.55 МБ
Поблагодарили: 28
7654321, and50, andreynnn, antaures, bad999, bitum, brukvalub, cdmitry, cnn, DMITRII, garant3v, Guga, iha777, inoy, iona999, joker63, kapitan, kilop, LastSurviv0r, makss333, mat, MIGRANT, mvclub, OldGamer, sdell, terminal79, VadimM, zzzlayasss
ADVOKAT69
717001 (16)  6.4 ГБ

Добавление нового комментария

Добавление комментариев доступно только зарегистрированным/авторизованным пользователям.
Аватар NoMaD
  NoMaD  
OldGamer писал(а):
Я поперхнулся, когда увидел твой лог для «один дома», который ты ссыкливо удалил на руторе.
Там не так всё страшно,по сравнению с логом Адвоката))) Максимка даже стырил на Юкоз) И у тебя не всё бывает гладко,даже с хорошим логом)
Аватар OldGamer
  OldGamer  
Admin писал(а):
Ну он то хоть выложил лог, а ты помню отказался логи выкладывать. Так что не тебе возмущаться.
А OldGamer промолчал, потому что старые релизеры с юкоза, одним из которых является ADVOKAT, тут на особых условиях. Уговор у меня был с ними при создании этого сайта, что я приму их всех. А вот новых уже будем фильтровать, через тесты.
Просто не увидел вовремя
Аватар OldGamer
  OldGamer  
NoMaD писал(а):
OldGamer наверное поперхнулся,когда увидел лог кодирования,но молчит)))
Я поперхнулся, когда увидел твой лог для «один дома», который ты ссыкливо удалил на руторе.
Аватар NoMaD
  NoMaD  (Отредактировал NoMaD)    
Admin писал(а):
Ну он то хоть выложил лог, а ты помню отказался логи выкладывать. Так что не тебе возмущаться.
А OldGamer промолчал, потому что старые релизеры с юкоза, одним из которых является ADVOKAT, тут на особых условиях. Уговор у меня был с ними при создании этого сайта, что я приму их всех. А вот новых уже будем фильтровать, через тесты.
Только очереди пока не видно с вашими запросами) Ладно логи,даже Максимка стал их выкладывать) Не понятно зачем правда) Там по Ми всё ясно. Я тоже иногда выкладываю) Но сравнения с исходником? Не перебор ли?
Аватар Admin
  Admin  (Отредактировал Admin)    
NoMaD писал(а):
OldGamer наверное поперхнулся,когда увидел лог кодирования,но молчит)))
Ну он то хоть выложил лог, а ты помню отказался логи выкладывать. Так что не тебе возмущаться.
А OldGamer промолчал, потому что старые релизеры с юкоза, одним из которых является ADVOKAT, тут на особых условиях. Уговор у меня был с ними при создании этого сайта, что я приму их всех. А вот новых уже будем фильтровать, через тесты.
Аватар NoMaD
  NoMaD  
OldGamer наверное поперхнулся,когда увидел лог кодирования,но молчит)))
Аватар ADVOKAT69
  ADVOKAT69  
Раздача будет обновляться!