💬 Мини-чат

Убедительная просьба не обсуждать тут политику.
AdminЛёшикоБэст, вроде потихоньку идёт. Подождем, если не докачается, то встану.
AdminЛёшикоБэст, перекачайте торрент, а то в профиле не отображается ждете или уже нет
ЛёшикоБэстРаздайте, пожалуйста, Неудержимые / The Expendables (2010) [Theatrical Cut] BDRip 1080p [HEVC] 10 bit от Spartanec1308
OldGamerДа, есть.
ЛёшикоБэстДоброго вечера) Скажите пожалуйста, есть ли в планах сделать релиз дилогии "Зорро" с Антонио Бандерасом?
HANNIBALAdmin, 👍
AdminГоро, встал
ГороРаздайте, пожалуйста, Хищники / Predators (2010) BDRip 1080p [HEVC] 10 bit от HANNIBAL
AdminHANNIBAL, привет. Не помню за сколько брал, но продление в этот раз обошлось примерно в $14 со всякими комиссиями. А аренда VDS обходится примерно в $30-35 за год. Не исключено, что всё это подорожает. Пока что пожертвования с трудом покрывают расходы. Иногда если требуется и со своего кармана оплачиваю, не страшно. Прорвемся.
HANNIBALсколько сейчас стоит
HANNIBALAdmin, ПРИВЕТ
AdminНаконец-то получил банковскую карту. Продлил доменное имя (адрес сайта) на год.
  • demons22
  • ivan_1965
Отправка сообщений доступна только зарегистрированным/авторизованным пользователям.
Онлайн (за 10 мин.): 2

Маугли (1967-1971) BDRip 1080p [HEVC] 10 bit от ADVOKAT69

HEVC
10 bit
Обложка Маугли (1967-1971) BDRip 1080p [HEVC] 10 bit от ADVOKAT69 Год: 1967-1971
Страна: СССР
Жанр: Мультфильм, Приключения, Семейный
Продолжительность: 5 х ~ 00:19:00

Режиссер: Роман Давыдов
В ролях: Степан Бубнов (Балу, озвучка), Людмила Касаткина (Багира, озвучка), Юрий Хржановский (Белая Кобра, озвучка), Лев Любецкий (Акела, озвучка), Сергей Мартинсон (Табаки, озвучка), Александр Назаров (Каа, озвучка), Люсьена Овчинникова (озвучка), Анатолий Папанов (Шер Хан, озвучка), Юрий Пузырев (Акела), Владимир Ушаков (Каа, озвучка), Олег Видов (озвучка)

Описание: История о мальчике, воспитанном волчьей стаей. Он стал своим в джунглях, победил врага — тигра Шерхана, совершил ещё многие подвиги и, в конце концов, ушел к людям.

Серии
1. Ракша (1967)
2. Похищение (1968)
3. Последняя охота Акелы (1969)
4. Битва (1970)
5. Возвращение к людям (1971)

Исходник: Blu-Ray Lizard Cinema Trade
Видео: 1456x1080, 3 056 - 4 129 kbps
Аудио: АС3, 6 ch, 448 Kbps - РусскийРусский, Оригинал (Лицензия)
Субтитры: нет

Лог (x265 info)
x265 [info]: frame I: 207, Avg QP:17.53 kb/s: 15247.36
x265 [info]: frame P: 7167, Avg QP:19.38 kb/s: 8433.23
x265 [info]: frame B: 21142, Avg QP:21.51 kb/s: 1676.17
x265 [info]: Weighted P-Frames: Y:45.0% UV:40.0%
x265 [info]: Weighted B-Frames: Y:27.0% UV:19.9%
x265 [info]: consecutive B-frames: 9.5% 9.8% 9.7% 45.1% 11.4% 11.7% 1.5% 0.9% 0.3%

encoded 28516 frames in 17234.01s (1.65 fps), 3472.95 kb/s,
Медиаинфо
Общее
Уникальный идентификатор : 247557994501947124716169769880012309259 (0xBA3DEF7A3337AE0E8E42AE198BE1C30B)
Полное имя : D:\Маугли\1.Ракша (1967).mkv
Формат : Matroska
Версия формата : Version 4
Размер файла : 534 Мбайт
Продолжительность : 19 м. 0 с.
Общий поток : 3 924 Кбит/сек
Дата кодирования : UTC 2021-02-16 19:05:58
Программа кодирования : mkvmerge v9.2.0 ('Photograph') 64bit
Библиотека кодирования : libebml v1.3.3 + libmatroska v1.4.4

Видео
Идентификатор : 1
Формат : HEVC
Формат/Информация : High Efficiency Video Coding
Профиль формата : Main 10@L4.1@High
Идентификатор кодека : V_MPEGH/ISO/HEVC
Продолжительность : 19 м. 0 с.
Битрейт : 3 474 Кбит/сек
Ширина : 1 456 пикселей
Высота : 1 080 пикселей
Соотношение сторон : 4:3
Режим частоты кадров : Постоянный
Частота кадров : 25,000 кадров/сек
Цветовое пространство : YUV
Субдискретизация насыщенности : 4:2:0
Битовая глубина : 10 бит
Бит/(Пиксели*Кадры) : 0.088
Размер потока : 472 Мбайт (89%)
Библиотека кодирования : x265 3.4+12-g9103319fc:[Windows][MSVC 1927][64 bit] 10bit
Настройки программы : cpuid=1049583 / frame-threads=3 / numa-pools=8 / wpp / no-pmode / no-pme / no-psnr / no-ssim / log-level=2 / input-csp=1 / input-res=1456x1080 / interlace=0 / total-frames=28516 / level-idc=41 / high-tier=1 / uhd-bd=0 / ref=5 / no-allow-non-conformance / no-repeat-headers / annexb / no-aud / no-hrd / info / hash=0 / no-temporal-layers / open-gop / min-keyint=24 / keyint=240 / gop-lookahead=0 / bframes=8 / b-adapt=2 / b-pyramid / bframe-bias=0 / rc-lookahead=40 / lookahead-slices=4 / scenecut=40 / hist-scenecut=0 / radl=0 / no-splice / no-intra-refresh / ctu=32 / min-cu-size=8 / rect / no-amp / max-tu-size=32 / tu-inter-depth=1 / tu-intra-depth=1 / limit-tu=0 / rdoq-level=2 / dynamic-rd=0.00 / no-ssim-rd / signhide / no-tskip / nr-intra=0 / nr-inter=0 / constrained-intra / strong-intra-smoothing / max-merge=3 / limit-refs=3 / limit-modes / me=3 / subme=7 / merange=57 / temporal-mvp / no-frame-dup / no-hme / weightp / weightb / no-analyze-src-pics / deblock=0:0 / no-sao / no-sao-non-deblock / rd=4 / selective-sao=0 / no-early-skip / rskip / no-fast-intra / no-tskip-fast / no-cu-lossless / b-intra / no-splitrd-skip / rdpenalty=0 / psy-rd=1.50 / psy-rdoq=0.70 / no-rd-refine / no-lossless / cbqpoffs=0 / crqpoffs=0 / rc=crf / crf=20.0 / qcomp=0.60 / qpstep=4 / stats-write=0 / stats-read=0 / vbv-maxrate=50000 / vbv-bufsize=50000 / vbv-init=0.9 / crf-max=0.0 / crf-min=0.0 / ipratio=1.40 / pbratio=1.30 / aq-mode=2 / aq-strength=0.80 / no-cutree / zone-count=0 / no-strict-cbr / qg-size=32 / no-rc-grain / qpmax=69 / qpmin=0 / no-const-vbv / sar=1 / overscan=0 / videoformat=5 / range=0 / colorprim=1 / transfer=1 / colormatrix=1 / chromaloc=0 / display-window=0 / cll=0,0 / min-luma=0 / max-luma=1023 / log2-max-poc-lsb=8 / vui-timing-info / vui-hrd-info / slices=1 / no-opt-qp-pps / no-opt-ref-list-length-pps / no-multi-pass-opt-rps / scenecut-bias=0.05 / hist-threshold=0.01 / no-opt-cu-delta-qp / no-aq-motion / no-hdr10 / no-hdr10-opt / no-dhdr10-opt / no-idr-recovery-sei / analysis-reuse-level=0 / analysis-save-reuse-level=0 / analysis-load-reuse-level=0 / scale-factor=0 / refine-intra=0 / refine-inter=0 / refine-mv=1 / refine-ctu-distortion=0 / no-limit-sao / ctu-info=0 / no-lowpass-dct / refine-analysis-type=0 / copy-pic=1 / max-ausize-factor=1.0 / no-dynamic-refine / no-single-sei / no-hevc-aq / no-svt / no-field / qp-adaptation-range=1.00 / no-scenecut-aware-qpconformance-window-offsets / right=0 / bottom=0 / decoder-max-rate=0
Default : Да
Forced : Нет
Цветовой диапазон : Limited
Основные цвета : BT.709
Характеристики трансфера : BT.709
Коэффициенты матрицы : BT.709

Аудио
Идентификатор : 2
Формат : AC-3
Формат/Информация : Audio Coding 3
Коммерческое название : Dolby Digital
Идентификатор кодека : A_AC3
Продолжительность : 19 м. 0 с.
Вид битрейта : Постоянный
Битрейт : 448 Кбит/сек
Каналы : 6 каналов
Channel layout : L R C LFE Ls Rs
Частота : 48,0 КГц
Частота кадров : 31,250 кадров/сек (1536 SPF)
Метод сжатия : С потерями
Размер потока : 60,9 Мбайт (11%)
Заголовок : Русский BD
Service kind : Complete Main
Default : Да
Forced : Нет
Загрузка...Cкриншот1 Маугли (1967-1971) BDRip 1080p [HEVC] 10 bit от ADVOKAT69Загрузка...Cкриншот2 Маугли (1967-1971) BDRip 1080p [HEVC] 10 bit от ADVOKAT69Загрузка...Cкриншот3 Маугли (1967-1971) BDRip 1080p [HEVC] 10 bit от ADVOKAT69Загрузка...Cкриншот4 Маугли (1967-1971) BDRip 1080p [HEVC] 10 bit от ADVOKAT69
Сэмпл Торрент🧲 Магнет

Раздача обновлена!
Все серии

Рейтинги КП и IMDB, кнопки "Позвать в чате" и "Спасибо", а также мультитрекерная статистика доступны только зарегистрированным/авторизованным пользователям!

Файлы: 5
  • Маугли
    • 1.Ракша (1967).mkv   533.52 МБ
    • 2.Похищение (1968).mkv   632.16 МБ
    • 3.Последняя oхота Акелы (1969).mkv   523.68 МБ
    • 4.Битва (1970).mkv   571.28 МБ
    • 5.Возвращение к людям (1971).mkv   481.34 МБ
Поблагодарили: 34
2ps63, 77carlsson77, and50, andreynnn, animen67, antaures, aquarius, bad999, Brooklyn, brukvalub, Chance, cnn, D3ZOXY, dinaslav, DMITRII, FijiMAX, FIXA, iona999, ivan_1965, joker1001, kilop, LastSurviv0r, makss333, mat, mvclub, Nuclear70, pr3ss, pri_vet, Rexfire, terminal79, Vatr, vlad, zzzlayasss, z_artem
ADVOKAT69
144010 (5)  2.68 ГБ

Добавление нового комментария

Добавление комментариев доступно только зарегистрированным/авторизованным пользователям.
Аватар не указан
  vlad  
Один из лучших из СССР.СПАСИБО!!!!!