💬 Мини-чат

OldGamerвыводить
mafo2Admin, можно вывести, наглядно будет
StarLordAdmin, +
AdminНадпись HDR выводить на обложку?
OldGamerGiggalo, но лучше всего вообще не затрагивайте этот ключ, по умолчанию будет установлено оптимальное значение
OldGamerGiggalo, но если уж очень хочется то пишите --frame-threads 3
OldGamerGiggalo, а зачем его менять?) нужное значение устанавливается автоматически
GiggaloДобрый вечер всем! OldGamer Покажи пожалуйста почему когда пишу в командной строке frame-threads=3 он не меняется. Какой там стоит 13 он его и держит, а ругие установки спокойно меняет?
AdminStarLord, спасибо. Пока сойдет.
StarLordAdmin, ага, вижу
StarLordAdmin, а как должно брать?
AdminStarLord, ты шаришь?
AdminStarLord, у меня сейчас такая, но с точками беда. Доработать бы (https?://([-\w\.]+)+(:\d+)?(/([-\w/_:%]*(\.\w+)*(\?\S+)?)?)?)
AdminStarLord, скрины в bb некорректно берет
StarLordwww, ftp(s), http(s), #, :, &
StarLordAdmin, все мои кейсы покрыла
StarLordAdmin, вот эта хорошая -(?:(?:https?|ftps?):\/\/|\b(?:[a-z\d]+\.))(?:(?:[^\s()<>]+|\((?:[^\s()<>]+|(?:\([^\s()<>]+\)))?\))+(?:\((?:[^\s()<>]+|(?:\(?:[^\s()<>]+\)))?\)|[^\s`!()\[\]{};:'".,<>?«»“”‘’]))?
AdminStarLord, мне бы с обязательным указанием протокола
AdminСообщение удалено (удалил: Admin)
AdminСообщение удалено (удалил: Admin)
  • StarLord
  • Andrey_alex
  • InSpector
  • pmihail99
Отправка сообщений доступна только зарегистрированным/авторизованным пользователям.
Онлайн (за 10 мин.): 4

Жёлтая гора / The Yellow Mountain (1954) BDRip 1080p [HEVC] 10 bit от joker63

HEVC
10 bit
Обложка Жёлтая гора / The Yellow Mountain (1954) BDRip 1080p [HEVC] 10 bit от joker63 Год: 1954
Страна: США
Жанр: Вестерн, Драма
Продолжительность: 01:18:10

Режиссер: Джесси Хиббс
В ролях: Уильям Демарест, Мала Пауэрс, Лекс Баркер, Джон МакИнтайр, Ховард Дафф, Лео Гордон, Дейтон Ламмис

Описание: Пит Менло владеет некоторыми золотыми приисками в Неваде, где к нему присоединяется его старый друг Энди Мартин. Другой владелец шахты Бэннон хочет объединить интересы, чтобы они могли создать монополию, но Менло отказывается. Пит интересуется «Невадой» Рэй, дочерью владельца шахты Фифти-фифти «Джекпот» Рэй, но ей нравится только Энди. Отвергнутый Пит объединяет силы с Бэнноном, и они узнают, что из-за расположения шахты Фифти-фифти «Джекпот» Рей может быть владельцем всего золота. Бэннон и его люди пытаются избавиться от Энди.


Исходник: Blu-Ray Remux
Видео: 1920x960, 9985 Kbps
Аудио: Авторский - Ю. Сербин
Субтитры: UTF-8 русские forced

Медиаинфо
Общее
Уникальный идентификатор : 108349650901346095439649532800578686855 (0x5183623B0BF22B9CC1ED00D654510F87)
Полное имя : D:\Торрент_хранение\Вестерн\Желтая гора The Yellow Mountain (1954) BDRip 1080p [HEVC] 10 bit.mkv
Формат : Matroska
Версия формата : Version 4
Размер файла : 6,08 Гбайт
Продолжительность : 1 ч. 18 м.
Общий поток : 11,1 Мбит/сек
Название фильма : Желтая гора / The Yellow Mountain / 1954_рип_от_Joker63
Дата кодирования : UTC 2020-02-16 17:36:26
Программа кодирования : mkvmerge v36.0.0 ('Is That Jazz?') 64-bit
Библиотека кодирования : libebml v1.3.9 + libmatroska v1.5.2
Обложка : Yes
Attachments : cover.jpg

Видео
Идентификатор : 1
Формат : HEVC
Формат/Информация : High Efficiency Video Coding
Профиль формата : Main 10@L4.1@Main
Идентификатор кодека : V_MPEGH/ISO/HEVC
Продолжительность : 1 ч. 18 м.
Битрейт : 9985 Кбит/сек
Ширина : 1920 пикселей
Высота : 960 пикселей
Соотношение сторон : 2,000
Режим частоты кадров : Постоянный
Частота кадров : 23,976 (24000/1001) кадра/сек
Цветовое пространство : YUV
Субдискретизация насыщенности : 4:2:0
Битовая глубина : 10 бит
Бит/(Пиксели*Кадры) : 0.226
Размер потока : 5,45 Гбайт (90%)
Библиотека кодирования : x265 3.1+7-147fb92c5ed5:[Windows][clang 8.0.0][64 bit] 10bit
Настройки программы : cpuid=1111039 / frame-threads=13 / wpp / no-pmode / no-pme / no-psnr / no-ssim / log-level=3 / input-csp=1 / input-res=1920x960 / interlace=0 / total-frames=0 / level-idc=41 / high-tier=1 / uhd-bd=0 / ref=3 / allow-non-conformance / no-repeat-headers / annexb / no-aud / no-hrd / info / hash=0 / no-temporal-layers / open-gop / min-keyint=24 / keyint=240 / gop-lookahead=0 / bframes=4 / b-adapt=2 / b-pyramid / bframe-bias=0 / rc-lookahead=20 / lookahead-slices=6 / scenecut=40 / radl=0 / no-splice / no-intra-refresh / ctu=64 / min-cu-size=8 / no-rect / no-amp / max-tu-size=32 / tu-inter-depth=1 / tu-intra-depth=1 / limit-tu=0 / rdoq-level=0 / dynamic-rd=0.00 / no-ssim-rd / signhide / no-tskip / nr-intra=0 / nr-inter=0 / no-constrained-intra / strong-intra-smoothing / max-merge=3 / limit-refs=1 / no-limit-modes / me=3 / subme=7 / merange=57 / temporal-mvp / no-hme / weightp / no-weightb / no-analyze-src-pics / deblock=-2:-2 / sao / no-sao-non-deblock / rd=3 / early-skip / rskip / no-fast-intra / no-tskip-fast / no-cu-lossless / b-intra / no-splitrd-skip / rdpenalty=0 / psy-rd=2.00 / psy-rdoq=0.00 / no-rd-refine / no-lossless / cbqpoffs=0 / crqpoffs=0 / rc=cbr / bitrate=10000 / qcomp=0.60 / qpstep=4 / stats-write=0 / stats-read=0 / vbv-maxrate=10000 / vbv-bufsize=7142 / vbv-init=0.9 / ipratio=1.40 / pbratio=1.30 / aq-mode=2 / aq-strength=1.00 / cutree / zone-count=0 / no-strict-cbr / qg-size=32 / no-rc-grain / qpmax=69 / qpmin=0 / no-const-vbv / sar=1 / overscan=0 / videoformat=5 / range=0 / colorprim=1 / transfer=1 / colormatrix=1 / chromaloc=0 / display-window=0cll=0,0 / min-luma=0 / max-luma=1023 / log2-max-poc-lsb=8 / vui-timing-info / vui-hrd-info / slices=1 / no-opt-qp-pps / no-opt-ref-list-length-pps / no-multi-pass-opt-rps / scenecut-bias=0.05 / no-opt-cu-delta-qp / no-aq-motion / no-hdr / no-hdr-opt / no-dhdr10-opt / no-idr-recovery-sei / analysis-reuse-level=5 / scale-factor=0 / refine-intra=0 / refine-inter=0 / refine-mv=0 / refine-ctu-distortion=0 / no-limit-sao / ctu-info=0 / no-lowpass-dct / refine-analysis-type=12 / copy-pic=1 / max-ausize-factor=1.0 / no-dynamic-refine / no-single-sei / no-hevc-aq / no-svt / no-field / qp-adaptation-range=1.00
Язык : Russian
Default : Да
Forced : Нет
Цветовой диапазон : Limited
Основные цвета : BT.709
Характеристики трансфера : BT.709
Коэффициенты матрицы : BT.709

Аудио
Идентификатор : 2
Формат : DTS
Формат/Информация : Digital Theater Systems
Идентификатор кодека : A_DTS
Продолжительность : 1 ч. 18 м.
Вид битрейта : Постоянный
Битрейт : 1152 Кбит/сек
Каналы : 2 канала
ChannelLayout : L R
Частота : 48,0 КГц
Частота кадров : 93,750 кадра/сек (512 SPF)
Битовая глубина : 16 бит
Метод сжатия : С потерями
Размер потока : 644 Мбайт (10%)
Заголовок : Авторский - Ю. Сербин
Язык : Russian
Default : Да
Forced : Нет

Текст
Идентификатор : 3
Формат : UTF-8
Идентификатор кодека : S_TEXT/UTF8
Идентификатор кодека/Информация : UTF-8 Plain Text
Продолжительность : 3 м. 29 с.
Битрейт : 165 бит/сек
ElementCount : 64
Размер потока : 4,24 Кбайт (0%)
Заголовок : forced
Язык : Russian
Default : Да
Forced : Да

Меню
00:00:00.000 : :Chapter 01
00:01:20.580 : :Chapter 02
00:09:59.307 : :Chapter 03
00:16:17.351 : :Chapter 04
00:22:34.853 : :Chapter 05
00:29:06.244 : :Chapter 06
00:35:05.603 : :Chapter 07
00:41:28.652 : :Chapter 08
00:51:04.394 : :Chapter 09
00:59:13.841 : :Chapter 10
01:10:55.834 : :Chapter 11
Загрузка...Cкриншот1 Жёлтая гора / The Yellow Mountain (1954) BDRip 1080p [HEVC] 10 bit от joker63Загрузка...Cкриншот2 Жёлтая гора / The Yellow Mountain (1954) BDRip 1080p [HEVC] 10 bit от joker63Загрузка...Cкриншот3 Жёлтая гора / The Yellow Mountain (1954) BDRip 1080p [HEVC] 10 bit от joker63Загрузка...Cкриншот4 Жёлтая гора / The Yellow Mountain (1954) BDRip 1080p [HEVC] 10 bit от joker63
Сэмпл Торрент🧲 Магнет

Рейтинги КП и IMDB, кнопки "Позвать в чате" и "Спасибо", а также мультитрекерная статистика сидов и пиров доступны только зарегистрированным/авторизованным пользователям!

Файлы: 1
  • Желтая гора The Yellow Mountain (1954) BDRip 1080p [HEVC] 10 bit.mkv   6.08 ГБ
Поблагодарили: 6
2ps63, and50, brukvalub, ivan_1965, LastSurviv0r, makss333
joker63
020006.08 ГБ

Добавление нового комментария

Добавление комментариев доступно только зарегистрированным/авторизованным пользователям.