Регистрация / Смена пароля

💬 Мини-чат

Адрес сайта поменялся с hevc-club.video на rips.club. Новый адрес анонсера - http://rips.club:2710/announce
Admin: Manson_Fan, там заголовок этой статьи писал какой-то дебил. H.266/VVC это не видеокодек, а стандарт сжатия.
Alex302: Manson_Fan, по появления аппаратной поддержки в железках вряд ли он будет интересен.
Manson_Fan: https://3dnews.ru/1015038/ ну что - все раздачи перекодируем? 😁
Cocobongo: На днях кто то просил бриллиантового полицейского раздать,я сейчас закинул его себе обратно,кому надо пробуйте скачать, только именно пятигиговый торрент, а то их два
JackShredder: Cthulhu, Мэйби, время покажет)
Cthulhu: JackShredder, Ресурсоемкость (требования к оборудованию) как раз наоборот увеличилась, для кодирования в 10 раз, для декодирования в 2 раза. А остальное очередной маркетинговый треп. Про хевк тоже самое писали, а на деле все оказывается не так просто.
JackShredder: Интересно сравнить, раз говорят что меньшая ресурсоемкость. По идее размер должен уменьшиться раза в два без потери качества, а то на hevc насыщенность картинки отличная, но на моем ведре больше 15gb или 4к уже не тянет ровно, но и даже по 10-12 гигов рипы смотряться шикарно.
Admin: Но ПО для кодирования/просмотра выйдет наверно не раньше, чем через пару месяцев.
Admin: Я готов обеспечить техническую возможность добавления таких рипов.
JackShredder: Какие мысли по поводу нового формата, как думаете, как скоро сможем пощупать?
Cocobongo: прочитал сегодня,что теперь сделали H.266 (VVC) ,не успел я значит накачать 265ых,а уже 266,ну а ты,админ,вовремя поменял адрес и название😀
  • Admin
Отправка сообщений доступно только зарегистрированным/авторизованным пользователям.
Онлайн (за 10 мин.): 1

Мидуэй / Midway (2019) [iTunes] BDRip 1080p [HEVC] 10 bit от HANNIBAL

HEVC
10 bit
Обложка Мидуэй / Midway (2019) [iTunes] BDRip 1080p [HEVC] 10 bit от HANNIBAL Год: 2019
Страна: США, Гонконг, Канада, Китай
Студия: AGC Studios, Centropolis Entertainment, Entertainment One
Жанр: Боевик, Драма, Военный, История
Продолжительность: 02:18:24

Режиссер: Роланд Эммерих
В ролях: Эд Скрейн, Патрик Уилсон, Вуди Харрельсон, Люк Эванс, Мэнди Мур, Люк Клеинтенк, Дэннис Куэйд, Аарон Экхарт, Киан Джонсон, Ник Джонас

Описание: История одного из самых масштабных и стратегически важных морских сражений на Тихом океане Второй мировой войны. В июне 1942 года американский флот под командованием адмирала Честера Нимица одержал победу над японцами в сражении у атолла Мидуэй, что стало ключевым моментом в Тихоокеанской войне.

КиноПоиск
6.373 10959
IMDb
6.7
50588


Видео: 1920x804, ~13.0 Mb/s
Аудио1: AC3, 6 ch, 384 Kbps -
Русский, Дублированный (iTunes)
Аудио2: AC3, 6 ch, 448 Kbps -
Английский, Оригинал
Субтитры: Русские (форсированные, полные), английские

Как за пару секунд удалить ненужные аудиодорожки и субтитры (Внимание! После удаления вы не сможете поддержать раздачу)

Медиаинфо
General
Unique ID : 69818772711178459684048961863570170747 (0x34869B43E0B53607DD638E66E7B4237B)
Complete name : D:Midway (2019) BDRip 1080p [HEVC] 10bit.mkv
Format : Matroska
Format version : Version 4
File size : 13.7 GiB
Duration : 2 h 18 min
Overall bit rate : 14.2 Mb/s
Movie name : Мидуэй
Writing application : XviD4PSP 7.0.499 PRO
Writing library : Lavf57.71.100
ErrorDetectionType : Per level 1
Attachments : poster.jpg
ACTORS : Эд Скрейн, Патрик Уилсон,
COUNTRY : США
DATE : 2019
DIRECTOR : Роланд Эммерих
ENCODING_INFO : MATROSKA,WEBM > MKV Пользовательский / H264 > X265 CRF 20.5 Slow / AC3 > AC3 CBR 384kbps / AC3 > AC3 CBR 448kbps
GENRE : военный, боевик, история
HD_VIDEO : 1
Language : und
MEDIA_TYPE : 9
ORIGINAL_TITLE : Midway

Video
ID : 1
Format : HEVC
Format/Info : High Efficiency Video Coding
Format profile : Main 10@L4.1@High
Codec ID : V_MPEGH/ISO/HEVC
Duration : 2 h 18 min
Bit rate : 13.0 Mb/s
Width : 1 920 pixels
Height : 804 pixels
Display aspect ratio : 2.40:1
Frame rate mode : Constant
Frame rate : 23.976 (24000/1001) FPS
Color space : YUV
Chroma subsampling : 4:2:0
Bit depth : 10 bits
Bits/(Pixel*Frame) : 0.352
Stream size : 12.6 GiB (92%)
Writing library : x265 3.1+7-147fb92c5ed5:[Windows][clang 8.0.0][64 bit] 10bit
Encoding settings : cpuid=1111039 / frame-threads=13 / wpp / no-pmode / no-pme / no-psnr / no-ssim / log-level=3 / input-csp=1 / input-res=1920x804 / interlace=0 / total-frames=0 / level-idc=41 / high-tier=1 / uhd-bd=0 / ref=5 / allow-non-conformance / no-repeat-headers / annexb / no-aud / no-hrd / info / hash=0 / no-temporal-layers / open-gop / min-keyint=23 / keyint=240 / gop-lookahead=0 / bframes=8 / b-adapt=2 / b-pyramid / bframe-bias=0 / rc-lookahead=60 / lookahead-slices=4 / scenecut=60 / radl=0 / no-splice / no-intra-refresh / ctu=64 / min-cu-size=8 / rect / amp / max-tu-size=32 / tu-inter-depth=4 / tu-intra-depth=4 / limit-tu=4 / rdoq-level=2 / dynamic-rd=0.00 / no-ssim-rd / signhide / no-tskip / nr-intra=0 / nr-inter=0 / no-constrained-intra / no-strong-intra-smoothing / max-merge=5 / limit-refs=3 / limit-modes / me=3 / subme=7 / merange=57 / temporal-mvp / no-hme / weightp / weightb / no-analyze-src-pics / deblock=-3:-3 / no-sao / no-sao-non-deblock / rd=6 / no-early-skip / no-rskip / no-fast-intra / no-tskip-fast / no-cu-lossless / no-b-intra / no-splitrd-skip / rdpenalty=0 / psy-rd=2.00 / psy-rdoq=1.00 / no-rd-refine / no-lossless / cbqpoffs=0 / crqpoffs=0 / rc=crf / crf=20.5 / qcomp=0.60 / qpstep=4 / stats-write=0 / stats-read=0 / vbv-maxrate=50000 / vbv-bufsize=50000 / vbv-init=0.9 / crf-max=30.0 / crf-min=0.0 / ipratio=1.40 / pbratio=1.30 / aq-mode=2 / aq-strength=1.00 / no-cutree / zone-count=0 / no-strict-cbr / qg-size=32 / no-rc-grain / qpmax=69 / qpmin=0 / no-const-vbv / sar=1 / overscan=0 / videoformat=5 / range=0 / colorprim=1 / transfer=1 / colormatrix=1 / chromaloc=0 / display-window=0cll=0,0 / min-luma=0 / max-luma=1023 / log2-max-poc-lsb=8 / vui-timing-info / vui-hrd-info / slices=1 / no-opt-qp-pps / no-opt-ref-list-length-pps / no-multi-pass-opt-rps / scenecut-bias=0.05 / no-opt-cu-delta-qp / no-aq-motion / no-hdr / no-hdr-opt / no-dhdr10-opt / no-idr-recovery-sei / analysis-reuse-level=5 / scale-factor=0 / refine-intra=0 / refine-inter=0 / refine-mv=0 / refine-ctu-distortion=0 / no-limit-sao / ctu-info=0 / no-lowpass-dct / refine-analysis-type=803214745 / copy-pic=1 / max-ausize-factor=1.0 / no-dynamic-refine / no-single-sei / no-hevc-aq / no-svt / no-field / qp-adaptation-range=1.00
Language : English
Default : Yes
Forced : No
Color range : Limited
Color primaries : BT.709
Transfer characteristics : BT.709
Matrix coefficients : BT.709

Audio #1
ID : 2
Format : AC-3
Format/Info : Audio Coding 3
Commercial name : Dolby Digital
Codec ID : A_AC3
Duration : 2 h 18 min
Bit rate mode : Constant
Bit rate : 384 kb/s
Channel(s) : 6 channels
Channel layout : L R C LFE Ls Rs
Sampling rate : 48.0 kHz
Frame rate : 31.250 FPS (1536 SPF)
Bit depth : 32 bits
Compression mode : Lossy
Stream size : 380 MiB (3%)
Title : iTunes
Language : Russian
Service kind : Complete Main
Default : Yes
Forced : Yes

Audio #2
ID : 3
Format : AC-3
Format/Info : Audio Coding 3
Commercial name : Dolby Digital
Codec ID : A_AC3
Duration : 2 h 18 min
Bit rate mode : Constant
Bit rate : 448 kb/s
Channel(s) : 6 channels
Channel layout : L R C LFE Ls Rs
Sampling rate : 48.0 kHz
Frame rate : 31.250 FPS (1536 SPF)
Bit depth : 32 bits
Compression mode : Lossy
Stream size : 444 MiB (3%)
Title : Original
Language : English
Service kind : Complete Main
Default : Yes
Forced : No

Text #1
ID : 4
Format : UTF-8
Codec ID : S_TEXT/UTF8
Codec ID/Info : UTF-8 Plain Text
Title : Forced
Language : Russian
Default : Yes
Forced : Yes

Text #2
ID : 5
Format : UTF-8
Codec ID : S_TEXT/UTF8
Codec ID/Info : UTF-8 Plain Text
Title : Full
Language : English
Default : Yes
Forced : No

Menu
00:00:00.000 : :Глава 01
00:06:55.832 : :Глава 02
00:13:53.207 : :Глава 03
00:20:24.765 : :Глава 04
00:27:03.330 : :Глава 05
00:32:55.182 : :Глава 06
00:40:35.975 : :Глава 07
00:46:57.732 : :Глава 08
00:53:50.769 : :Глава 09
01:01:12.544 : :Глава 10
01:07:55.113 : :Глава 11
01:14:48.734 : :Глава 12
01:21:41.105 : :Глава 13
01:27:32.038 : :Глава 14
01:35:09.537 : :Глава 15
01:42:11.125 : :Глава 16
01:48:30.671 : :Глава 17
01:54:44.127 : :Глава 18
02:02:23.002 : :Глава 19
02:09:12.787 : :Глава 20
Cкриншот1 Мидуэй / Midway (2019) [iTunes] BDRip 1080p [HEVC] 10 bit от HANNIBAL
Загружается...
Cкриншот2 Мидуэй / Midway (2019) [iTunes] BDRip 1080p [HEVC] 10 bit от HANNIBAL
Загружается...
Cкриншот3 Мидуэй / Midway (2019) [iTunes] BDRip 1080p [HEVC] 10 bit от HANNIBAL
Загружается...
Cкриншот4 Мидуэй / Midway (2019) [iTunes] BDRip 1080p [HEVC] 10 bit от HANNIBAL
Загружается...
Сэмпл Торрент🧲 Магнет

Кнопки "Позвать в чате" и "Спасибо" доступны только зарегистрированным/авторизованным пользователям!

Файлы: 1
  • Midway (2019) BDRip 1080p [HEVC] 10bit.mkv   13.68 ГБ
Поблагодарили: 9
and50, antaures, bitum, Chance, D16T, ko1ob, makss333, serg1962, stas67
OldGamer
0741113.68 ГБ

Добавление нового комментария

Добавление комментариев доступно только зарегистрированным/авторизованным пользователям.