💬 Мини-чат

OldGamerну и акустические излучатели собрать хорошие, типа Penaudio Legato Signature или похожие, тут надо тщательно собирать систему для прослушивания
OldGamerне помешает ещё посетить отоларинголога для промывки слухового аппарата от серных пробок специализированным сертифицированным раствором, это (промывка) имеет немаловажное значение
OldGamer😆🤐🤐
OldGamerи всё же лучше hi-end, с подключением кабелями типа Analysis-Plus Oval 9 из бескислородной меди и с их предварительным прогревом системой типа Nordost Vidar, иначе всё теряет смысл
XuMuKManson_Fan, не надо hi-end акустики, достаточно hi-fi. "Кристольность" на высоких частотах другая, в DTS кажется более "живым" звук. Но самая большая разница, когда сравниваешь АС3 с каким-нибудь DTS-HD MA
IRITРаздайте, пожалуйста, Байки из склепа: Демон ночи / Tales from the Crypt: Demon Knight (1995) BDRip 1080p [HEVC] 10 bit от druidblack
OldGamerManson_Fan, у меня нет hi-end акустики, поэтому не слушал, не знаю, может и есть разница. За других говорить не буду. В любом случае, продвинутым слухачам будет несложно найти, скачать и прикрепить дорожки требуемого им качества.
mafo2Manson_Fan, не все телевизоры поддерживают DTS. например, мой через встроенный плеер его не воспроизводит. можно конечно смотреть через ПК, но порой хочется и через ТВ.
Manson_FanOldGamer, "Скажите зачем релизёры звук DTS 768 kbps переделывают в AC3 640 kbps" Интересно, а разницу в качестве в фильмах кому то удавалось услышать?😕 мне вот нет
Manson_Fanникто еще не сравнивал HEVC и новый AV1?
IRITРаздайте, пожалуйста, Маньяк-полицейский 3: Знак молчания / Maniac Cop 3: Badge of Silence (1993) BDRip 1080p [HEVC] 10 bit от HANNIBAL
Spartanec1308С Днём Великой Победы!
BrooklynВсех с праздником! С Днем Великой Победы! Ура-Ура-Урааааааа
BrooklynADVOKAT69, Спасибо большое!
ADVOKAT69Операция «Ы» и другие приключения Шурика (1965) раздаю
mafo2С Днем Победы!
joker63Поздравляю всех с Днем Победы!
ADVOKAT69Admin, Спасибо деду за победу!Тебе за поздравление!
AdminADVOKAT69, Дедам спасибо.
ADVOKAT69Admin, спасибо большое!✋
  • Rendre
  • Rezident
Отправка сообщений доступна только зарегистрированным/авторизованным пользователям.
Онлайн (за 10 мин.): 2

Бесславные ублюдки / Inglourious Basterds (2009) BDRip 1080p [HEVC] 10 bit от Mr. Fox

HEVC
10 bit
Обложка Бесславные ублюдки / Inglourious Basterds (2009) BDRip 1080p [HEVC] 10 bit от Mr. Fox Год: 2009
Страна: Германия, США
Студия: Universal Pictures, The Weinstein Company, A Band Apart
Жанр: Боевик, Драма, Комедия, Военный
Продолжительность: 02:46:41

Режиссер: Квентин Тарантино
В ролях: Брэд Питт, Кристоф Вальц, Мелани Лоран, Даниэль Брюль, Дайан Крюгер, Майкл Фассбендер, Аугуст Диль, Элай Рот, Тиль Швайгер, Гедеон Буркхард

Описание: Вторая мировая война, в оккупированной немцами Франции группа американских солдат-евреев наводит страх на нацистов, жестоко убивая и скальпируя солдат.


Видео: 1920x800, ~5833 Kbps
Аудио1: AC3, 6 ch, 448 Kbps - РусскийРусский, дублированный
Аудио2: AC3, 2 ch, 192 Kbps - УкраинскийУкраинский, дублированный
Аудио3: AC3, 6 ch, 640 Kbps - АнглийскийАнглийский
Субтитры: Русские (форсированные, полные), украинские, английские (форсированные, полные, SDH-Colored)

Как за пару секунд удалить ненужные аудиодорожки и субтитры (Внимание! После удаления вы не сможете поддержать раздачу)

Медиаинфо
Общее
Уникальный идентификатор : 163246629854231445223150630629727743595 (0x7AD0284337A88AB2A1D0662ABC732E6B)
Полное имя : R:Inglourious Basterds (2009) BDRip 1080p.mkv
Формат : Matroska
Версия формата : Version 4 / Version 2
Размер файла : 7,60 Гбайт
Продолжительность : 2 ч. 46 м.
Общий поток : 6526 Кбит/сек
Название фильма : Inglourious Basterds (2009)
Дата кодирования : UTC 2020-02-22 08:16:51
Программа кодирования : mkvmerge v43.0.0 ('The Quartermaster') 64-bit
Библиотека кодирования : libebml v1.3.10 + libmatroska v1.5.2
Обложка : Yes
Attachments : cover.jpg

Видео
Идентификатор : 1
Формат : HEVC
Формат/Информация : High Efficiency Video Coding
Профиль формата : Main 10@L4.1@High
Идентификатор кодека : V_MPEGH/ISO/HEVC
Продолжительность : 2 ч. 32 м.
Битрейт : 5833 Кбит/сек
Ширина : 1920 пикселей
Высота : 800 пикселей
Соотношение сторон : 2,40:1
Режим частоты кадров : Постоянный
Частота кадров : 23,976 (24000/1001) кадра/сек
Цветовое пространство : YUV
Субдискретизация насыщенности : 4:2:0
Битовая глубина : 10 бит
Бит/(Пиксели*Кадры) : 0.158
Размер потока : 6,23 Гбайт (82%)
Библиотека кодирования : x265 3.2.1+1-b5c86a64bbbe:[Windows][MSVC 1923][64 bit] 10bit
Настройки программы : cpuid=1111039 / frame-threads=3 / numa-pools=12 / wpp / no-pmode / no-pme / no-psnr / no-ssim / log-level=2 / input-csp=1 / input-res=1920x800 / interlace=0 / total-frames=215089 / level-idc=41 / high-tier=1 / uhd-bd=0 / ref=5 / no-allow-non-conformance / no-repeat-headers / annexb / no-aud / no-hrd / info / hash=0 / no-temporal-layers / open-gop / min-keyint=23 / keyint=240 / gop-lookahead=0 / bframes=16 / b-adapt=2 / b-pyramid / bframe-bias=0 / rc-lookahead=60 / lookahead-slices=4 / scenecut=40 / radl=0 / no-splice / no-intra-refresh / ctu=32 / min-cu-size=8 / rect / amp / max-tu-size=32 / tu-inter-depth=4 / tu-intra-depth=4 / limit-tu=1 / rdoq-level=2 / dynamic-rd=0.00 / no-ssim-rd / signhide / no-tskip / nr-intra=0 / nr-inter=0 / no-constrained-intra / no-strong-intra-smoothing / max-merge=4 / limit-refs=2 / limit-modes / me=3 / subme=7 / merange=57 / temporal-mvp / no-hme / weightp / weightb / no-analyze-src-pics / deblock=-3:-3 / no-sao / no-sao-non-deblock / rd=6 / selective-sao=0 / no-early-skip / no-rskip / no-fast-intra / no-tskip-fast / no-cu-lossless / no-b-intra / no-splitrd-skip / rdpenalty=0 / psy-rd=2.00 / psy-rdoq=1.00 / no-rd-refine / no-lossless / cbqpoffs=0 / crqpoffs=0 / rc=crf / crf=20.0 / qcomp=0.65 / qpstep=4 / stats-write=0 / stats-read=0 / vbv-maxrate=50000 / vbv-bufsize=50000 / vbv-init=0.9 / crf-max=0.0 / crf-min=0.0 / ipratio=1.40 / pbratio=1.30 / aq-mode=1 / aq-strength=1.00 / no-cutree / zone-count=0 / no-strict-cbr / qg-size=32 / no-rc-grain / qpmax=69 / qpmin=0 / no-const-vbv / sar=1 / overscan=0 / videoformat=5 / range=0 / colorprim=1 / transfer=1 / colormatrix=1 / chromaloc=0 / display-window=0 / cll=0,0 / min-luma=0 / max-luma=1023 / log2-max-poc-lsb=8 / vui-timing-info / vui-hrd-info / slices=1 / no-opt-qp-pps / no-opt-ref-list-length-pps / no-multi-pass-opt-rps / scenecut-bias=0.05 / no-opt-cu-delta-qp / no-aq-motion / no-hdr / no-hdr-opt / no-dhdr10-opt / no-idr-recovery-sei / analysis-reuse-level=5 / scale-factor=0 / refine-intra=0 / refine-inter=0 / refine-mv=1 / refine-ctu-distortion=0 / no-limit-sao / ctu-info=0 / no-lowpass-dct / refine-analysis-type=0 / copy-pic=1 / max-ausize-factor=1.0 / no-dynamic-refine / no-single-sei / no-hevc-aq / no-svt / no-field / qp-adaptation-range=1.00
Default : Да
Forced : Нет
Цветовой диапазон : Limited
Основные цвета : BT.709
Характеристики трансфера : BT.709
Коэффициенты матрицы : BT.709

Аудио #1
Идентификатор : 2
Формат : AC-3
Формат/Информация : Audio Coding 3
Идентификатор кодека : A_AC3
Продолжительность : 2 ч. 33 м.
Вид битрейта : Постоянный
Битрейт : 448 Кбит/сек
Каналы : 6 каналов
Расположение каналов : Front: L C R, Side: L R, LFE
Частота : 48,0 КГц
Частота кадров : 31,250 кадров/сек (1536 SPF)
Битовая глубина : 16 бит
Метод сжатия : С потерями
Размер потока : 490 Мбайт (6%)
Заголовок : Дубляж
Язык : Russian
ServiceKind/Strin : Complete Main
Default : Да
Forced : Нет

Аудио #2
Идентификатор : 3
Формат : AC-3
Формат/Информация : Audio Coding 3
Идентификатор кодека : A_AC3
Продолжительность : 2 ч. 32 м.
Вид битрейта : Постоянный
Битрейт : 192 Кбит/сек
Каналы : 2 канала
Расположение каналов : Front: L R
Частота : 48,0 КГц
Частота кадров : 31,250 кадров/сек (1536 SPF)
Битовая глубина : 16 бит
Метод сжатия : С потерями
Размер потока : 209 Мбайт (3%)
Заголовок : Дубляж
Язык : Ukrainian
ServiceKind/Strin : Complete Main
Default : Нет
Forced : Нет

Аудио #3
Идентификатор : 4
Формат : AC-3
Формат/Информация : Audio Coding 3
Идентификатор кодека : A_AC3
Продолжительность : 2 ч. 32 м.
Вид битрейта : Постоянный
Битрейт : 640 Кбит/сек
Каналы : 6 каналов
Расположение каналов : Front: L C R, Side: L R, LFE
Частота : 48,0 КГц
Частота кадров : 31,250 кадров/сек (1536 SPF)
Битовая глубина : 16 бит
Метод сжатия : С потерями
Размер потока : 700 Мбайт (9%)
Заголовок : Original
Язык : English
ServiceKind/Strin : Complete Main
Default : Нет
Forced : Нет

Текст #1
Идентификатор : 5
Формат : UTF-8
Идентификатор кодека : S_TEXT/UTF8
Идентификатор кодека/Информация : UTF-8 Plain Text
Продолжительность : 1 ч. 27 м.
Битрейт : 0 бит/сек
ElementCount : 19
Размер потока : 485 байт (0%)
Заголовок : Forced
Язык : Russian
Default : Да
Forced : Да

Текст #2
Идентификатор : 6
Формат : UTF-8
Идентификатор кодека : S_TEXT/UTF8
Идентификатор кодека/Информация : UTF-8 Plain Text
Продолжительность : 2 ч. 28 м.
Битрейт : 109 бит/сек
ElementCount : 1817
Размер потока : 119 Кбайт (0%)
Заголовок : Full
Язык : Russian
Default : Нет
Forced : Нет

Текст #3
Идентификатор : 7
Формат : UTF-8
Идентификатор кодека : S_TEXT/UTF8
Идентификатор кодека/Информация : UTF-8 Plain Text
Продолжительность : 2 ч. 27 м.
Битрейт : 91 бит/сек
ElementCount : 1810
Размер потока : 98,6 Кбайт (0%)
Заголовок : Full
Язык : Ukrainian
Default : Нет
Forced : Нет

Текст #4
Идентификатор : 8
Формат : UTF-8
Идентификатор кодека : S_TEXT/UTF8
Идентификатор кодека/Информация : UTF-8 Plain Text
Продолжительность : 2 ч. 44 м.
Битрейт : 26 бит/сек
ElementCount : 969
Размер потока : 32,1 Кбайт (0%)
Заголовок : Forced
Язык : English
Default : Нет
Forced : Нет

Текст #5
Идентификатор : 9
Формат : UTF-8
Идентификатор кодека : S_TEXT/UTF8
Идентификатор кодека/Информация : UTF-8 Plain Text
Продолжительность : 2 ч. 27 м.
Битрейт : 60 бит/сек
ElementCount : 1811
Размер потока : 65,5 Кбайт (0%)
Заголовок : Full
Язык : English
Default : Нет
Forced : Нет

Текст #6
Идентификатор : 10
Формат : UTF-8
Идентификатор кодека : S_TEXT/UTF8
Идентификатор кодека/Информация : UTF-8 Plain Text
Продолжительность : 2 ч. 27 м.
Битрейт : 44 бит/сек
ElementCount : 1179
Размер потока : 48,3 Кбайт (0%)
Заголовок : SDH-Colored
Язык : English
Default : Нет
Forced : Нет

Меню
00:00:00.000 : :(01)00:00:00:000
00:01:50.610 : :(02)00:01:50:610
00:07:06.384 : :(03)00:07:06:384
00:21:20.820 : :(04)00:21:20:820
00:24:12.826 : :(05)00:24:12:826
00:28:15.902 : :(06)00:28:15:902
00:30:18.942 : :(07)00:30:18:942
00:37:57.108 : :(08)00:37:57:108
00:41:47.922 : :(09)00:41:47:922
00:48:28.405 : :(10)00:48:28:405
00:53:53.563 : :(11)00:53:53:563
01:00:50.438 : :(12)01:00:50:438
01:04:05.341 : :(13)01:04:05:341
01:09:24.702 : :(14)01:09:24:702
01:12:17.166 : :(15)01:12:17:166
01:19:25.927 : :(16)01:19:25:927
01:32:54.777 : :(17)01:32:54:777
01:37:02.233 : :(18)01:37:02:233
01:43:51.475 : :(19)01:43:51:475
01:45:38.040 : :(20)01:45:38:040
01:50:30.623 : :(21)01:50:30:623
01:57:35.089 : :(22)01:57:35:089
02:03:38.452 : :(23)02:03:38:452
02:10:30.072 : :(24)02:10:30:072
02:16:40.859 : :(25)02:16:40:859
02:23:10.748 : :(26)02:23:10:748
02:25:47.280 : :(27)02:25:47:280
02:29:30.960 : :(28)02:29:30:960
02:32:51.912 : :(29)02:32:51:912
Загрузка...Cкриншот1 Бесславные ублюдки / Inglourious Basterds (2009) BDRip 1080p [HEVC] 10 bit от Mr. FoxЗагрузка...Cкриншот2 Бесславные ублюдки / Inglourious Basterds (2009) BDRip 1080p [HEVC] 10 bit от Mr. FoxЗагрузка...Cкриншот3 Бесславные ублюдки / Inglourious Basterds (2009) BDRip 1080p [HEVC] 10 bit от Mr. FoxЗагрузка...Cкриншот4 Бесславные ублюдки / Inglourious Basterds (2009) BDRip 1080p [HEVC] 10 bit от Mr. Fox
Сэмпл Торрент🧲 Магнет

Рейтинги КП и IMDB, кнопки "Позвать в чате" и "Спасибо", а также мультитрекерная статистика доступны только зарегистрированным/авторизованным пользователям!

Файлы: 1
  • Inglourious Basterds (2009) BDRip 1080p.mkv   7.6 ГБ
Поблагодарили: 11
antaures, Aquantum, aquarius, Brooklyn, bs158250, elog, makss333, NoMaD, torrentzulu, Undervest, z_artem
OldGamer
1167007.6 ГБ

Добавление нового комментария

Добавление комментариев доступно только зарегистрированным/авторизованным пользователям.
Аватар mafo2
  mafo2  
XuMuK писал(а):
Не смотря на хорошее качество видео, сам файл имеет значимый недочёт.
Могу сам поправить перезалив на оба ресурса, но хотелось бы, чтоб это сделал автор
Автор ничего никуда не заливает и как-то вообще не собирается этого делать в дальнейшем.
Аватар mafo2
  mafo2  (Отредактировал mafo2)    
Ну вы и шум подняли. Не стоит это того, ведь это просто баловство, а не нечто очень серьезное и важное.
Аватар не указан
  XuMuK  
OldGamer писал(а):
Без проблем. Могу потом подхватить на раздачу на пару месяцев.
Антох, спасибо конечно. Но я хотел другого результата. А его судя по всему не будет
Аватар OldGamer
  OldGamer  
XuMuK писал(а):
я скачал, пересобрал. могу перезалить
Без проблем. Могу потом подхватить на раздачу на пару месяцев.
Аватар не указан
  XuMuK  
OldGamer писал(а):
Даже не скачивал. Да и сам фильм "не зашёл".
Впрочем, автор заходил, наверняка видел комментарии.
я скачал, пересобрал. могу перезалить
Аватар OldGamer
  OldGamer  (Отредактировал OldGamer)    
Даже не скачивал. Да и сам фильм "не зашёл".
Впрочем, автор заходил, наверняка видел комментарии.
Аватар не указан
  XuMuK  
Не смотря на хорошее качество видео, сам файл имеет значимый недочёт.
Могу сам поправить перезалив на оба ресурса, но хотелось бы, чтоб это сделал автор
Аватар не указан
  XuMuK  
Исправлять никто не собираеться?
Аватар не указан
  XuMuK  
косяк в сабах под номером 4. их надо убрать и длительность вернётся к нормальной
Аватар OldGamer
  OldGamer  (Отредактировал OldGamer)    
косяк с файлом, на 02:33:00 воспроизведение заканчивается, но по медиаинфо появились лишние 13 минут
Аватар не указан
  Aquantum  (Отредактировал Aquantum)    
А что это за версия, продолжительностью 02:46:41? Во всех официальных источниках указана продолжительность 02:32:59. Данная версия отличается на 13 минут. Не мог бы автор прокоментировать отличия и где он взял расширенную редакцию?