💬 Мини-чат

BrooklynOldGamer, Ок, спасибо, качаю.
OldGamerBrooklyn, они все на раздаче пока что
BrooklynOldGamer, Пораздавайте, пожалуйста, все сезоны сериала "Гримм" ближайшие 3 дня, очень хочу их забрать. Качество отличное. Заранее Благодарен.
StarLordСообщение удалено (удалил: StarLord)
OldGamerвыводить
mafo2Admin, можно вывести, наглядно будет
StarLordAdmin, +
AdminНадпись HDR выводить на обложку?
OldGamerGiggalo, но лучше всего вообще не затрагивайте этот ключ, по умолчанию будет установлено оптимальное значение
OldGamerGiggalo, но если уж очень хочется то пишите --frame-threads 3
OldGamerGiggalo, а зачем его менять?) нужное значение устанавливается автоматически
GiggaloДобрый вечер всем! OldGamer Покажи пожалуйста почему когда пишу в командной строке frame-threads=3 он не меняется. Какой там стоит 13 он его и держит, а ругие установки спокойно меняет?
AdminStarLord, спасибо. Пока сойдет.
StarLordAdmin, ага, вижу
StarLordAdmin, а как должно брать?
AdminStarLord, ты шаришь?
AdminStarLord, у меня сейчас такая, но с точками беда. Доработать бы (https?://([-\w\.]+)+(:\d+)?(/([-\w/_:%]*(\.\w+)*(\?\S+)?)?)?)
AdminStarLord, скрины в bb некорректно берет
StarLordwww, ftp(s), http(s), #, :, &
StarLordAdmin, все мои кейсы покрыла
  • OldGamer
  • DKV
  • InSpector
  • moonson
Отправка сообщений доступна только зарегистрированным/авторизованным пользователям.
Онлайн (за 10 мин.): 4

Петя и Красная Шапочка (1958) BDRip 1080p [HEVC] 10 bit от ADVOKAT69

HEVC
10 bit
Обложка Петя и Красная Шапочка (1958) BDRip 1080p [HEVC] 10 bit от ADVOKAT69 Год: 1958
Страна: СССР
Студия: Союзмультфильм
Жанр: Мультфильм, Комедия, Семейный
Продолжительность: 00:18:31

Режиссер: Борис Степанцев, Евгений Райковский
В ролях: Сергей Филиппов, Сергей Мартинсон, Валентина Сперантова, Валентина Туманова

Описание: По мотивам сказки Шарля Перро — современная версия, в которой Пионер Петя помогает героям старой сказки победить Волка.


Исходник: Blu-Ray
Видео: 1456x1080, 4 005 Kbps
Аудио: AC3, 6 ch, 448 Kbps - РусскийРусский, Оригинал
Субтитры: нет

Лог (x265 info)
x265 [info]: frame I: 190, Avg QP:16.98 kb/s: 20023.47
x265 [info]: frame P: 7537, Avg QP:18.74 kb/s: 8974.38
x265 [info]: frame B: 20050, Avg QP:21.25 kb/s: 1984.16
x265 [info]: Weighted P-Frames: Y:27.7% UV:24.0%
x265 [info]: Weighted B-Frames: Y:13.7% UV:10.3%
x265 [info]: consecutive B-frames: 12.1% 7.4% 10.2% 56.8% 8.4% 3.8% 0.6% 0.2% 0.4%

encoded 27777 frames in 14088.54s (1.97 fps), 4004.28 kb/s, Avg QP:20.54
Медиаинфо
Общее
Уникальный идентификатор : 251613122005201995650744803517229465325 (0xBD4AECB30C52AC7C90131C1A0CB47EED)
Полное имя : D:\Петя и Красная Шапочка (1958).mkv
Формат : Matroska
Версия формата : Version 4
Размер файла : 590 Мбайт
Продолжительность : 18 м. 31 с.
Общий поток : 4 455 Кбит/сек
Дата кодирования : UTC 2021-02-01 22:16:20
Программа кодирования : mkvmerge v9.2.0 ('Photograph') 64bit
Библиотека кодирования : libebml v1.3.3 + libmatroska v1.4.4

Видео
Идентификатор : 1
Формат : HEVC
Формат/Информация : High Efficiency Video Coding
Профиль формата : Main 10@L4.1@High
Идентификатор кодека : V_MPEGH/ISO/HEVC
Продолжительность : 18 м. 31 с.
Битрейт : 4 005 Кбит/сек
Ширина : 1 456 пикселей
Высота : 1 080 пикселей
Соотношение сторон : 4:3
Режим частоты кадров : Постоянный
Частота кадров : 25,000 кадров/сек
Цветовое пространство : YUV
Субдискретизация насыщенности : 4:2:0
Битовая глубина : 10 бит
Бит/(Пиксели*Кадры) : 0.102
Размер потока : 530 Мбайт (90%)
Библиотека кодирования : x265 3.4+12-g9103319fc:[Windows][MSVC 1927][64 bit] 10bit
Настройки программы : cpuid=1049583 / frame-threads=3 / numa-pools=8 / wpp / no-pmode / no-pme / no-psnr / no-ssim / log-level=2 / input-csp=1 / input-res=1456x1080 / interlace=0 / total-frames=27777 / level-idc=41 / high-tier=1 / uhd-bd=0 / ref=5 / no-allow-non-conformance / no-repeat-headers / annexb / no-aud / no-hrd / info / hash=0 / no-temporal-layers / open-gop / min-keyint=24 / keyint=240 / gop-lookahead=0 / bframes=8 / b-adapt=2 / b-pyramid / bframe-bias=0 / rc-lookahead=40 / lookahead-slices=4 / scenecut=40 / hist-scenecut=0 / radl=0 / no-splice / no-intra-refresh / ctu=32 / min-cu-size=8 / rect / no-amp / max-tu-size=32 / tu-inter-depth=4 / tu-intra-depth=4 / limit-tu=1 / rdoq-level=2 / dynamic-rd=4.00 / no-ssim-rd / signhide / no-tskip / nr-intra=0 / nr-inter=0 / constrained-intra / no-strong-intra-smoothing / max-merge=3 / limit-refs=3 / limit-modes / me=3 / subme=7 / merange=57 / temporal-mvp / no-frame-dup / no-hme / weightp / weightb / no-analyze-src-pics / deblock=-2:-2 / no-sao / no-sao-non-deblock / rd=4 / selective-sao=0 / no-early-skip / rskip / no-fast-intra / no-tskip-fast / no-cu-lossless / b-intra / no-splitrd-skip / rdpenalty=0 / psy-rd=1.50 / psy-rdoq=0.70 / no-rd-refine / no-lossless / cbqpoffs=0 / crqpoffs=0 / rc=crf / crf=19.5 / qcomp=0.60 / qpstep=4 / stats-write=0 / stats-read=0 / vbv-maxrate=50000 / vbv-bufsize=50000 / vbv-init=0.9 / crf-max=0.0 / crf-min=0.0 / ipratio=1.40 / pbratio=1.30 / aq-mode=2 / aq-strength=0.80 / no-cutree / zone-count=0 / no-strict-cbr / qg-size=32 / no-rc-grain / qpmax=69 / qpmin=0 / no-const-vbv / sar=1 / overscan=0 / videoformat=5 / range=0 / colorprim=1 / transfer=1 / colormatrix=1 / chromaloc=0 / display-window=0 / cll=0,0 / min-luma=0 / max-luma=1023 / log2-max-poc-lsb=8 / vui-timing-info / vui-hrd-info / slices=1 / no-opt-qp-pps / no-opt-ref-list-length-pps / no-multi-pass-opt-rps / scenecut-bias=0.05 / hist-threshold=0.01 / no-opt-cu-delta-qp / no-aq-motion / no-hdr10 / no-hdr10-opt / no-dhdr10-opt / no-idr-recovery-sei / analysis-reuse-level=0 / analysis-save-reuse-level=0 / analysis-load-reuse-level=0 / scale-factor=0 / refine-intra=0 / refine-inter=0 / refine-mv=1 / refine-ctu-distortion=0 / no-limit-sao / ctu-info=0 / no-lowpass-dct / refine-analysis-type=0 / copy-pic=1 / max-ausize-factor=1.0 / no-dynamic-refine / no-single-sei / no-hevc-aq / no-svt / no-field / qp-adaptation-range=1.00 / no-scenecut-aware-qpconformance-window-offsets / right=0 / bottom=0 / decoder-max-rate=0
Default : Да
Forced : Нет
Цветовой диапазон : Limited
Основные цвета : BT.709
Характеристики трансфера : BT.709
Коэффициенты матрицы : BT.709

Аудио
Идентификатор : 2
Формат : AC-3
Формат/Информация : Audio Coding 3
Коммерческое название : Dolby Digital
Идентификатор кодека : A_AC3
Продолжительность : 18 м. 31 с.
Вид битрейта : Постоянный
Битрейт : 448 Кбит/сек
Каналы : 6 каналов
Channel layout : L R C LFE Ls Rs
Частота : 48,0 КГц
Частота кадров : 31,250 кадров/сек (1536 SPF)
Метод сжатия : С потерями
Задержка видео : 24 мс.
Размер потока : 59,3 Мбайт (10%)
Заголовок : Русский BD
Service kind : Complete Main
Default : Да
Forced : Нет
Загрузка...Cкриншот1 Петя и Красная Шапочка (1958) BDRip 1080p [HEVC] 10 bit от ADVOKAT69Загрузка...Cкриншот2 Петя и Красная Шапочка (1958) BDRip 1080p [HEVC] 10 bit от ADVOKAT69Загрузка...Cкриншот3 Петя и Красная Шапочка (1958) BDRip 1080p [HEVC] 10 bit от ADVOKAT69Загрузка...Cкриншот4 Петя и Красная Шапочка (1958) BDRip 1080p [HEVC] 10 bit от ADVOKAT69
Сэмпл Торрент🧲 Магнет

Раздача обновлена!
Перекодировано!

Рейтинги КП и IMDB, кнопки "Позвать в чате" и "Спасибо", а также мультитрекерная статистика сидов и пиров доступны только зарегистрированным/авторизованным пользователям!

Файлы: 1
  • Петя и Красная Шапочка (1958).mkv   590.07 МБ
Поблагодарили: 11
andreynnn, animen67, cnn, iona999, LastSurviv0r, Manson_Fan, NRK888, Nuclear70, OldGamer, z1M4p9i0, ригиль
ADVOKAT69
42280590.07 МБ

Добавление нового комментария

Добавление комментариев доступно только зарегистрированным/авторизованным пользователям.
Аватар OldGamer
  OldGamer  
Manson_Fan писал(а):
А от старой чем отличается? У старой даже битрейт повыше.
Перекодировано с повышением качества рипа, это заметно по mediainfo.
Аватар Manson_Fan
  Manson_Fan  (Отредактировал Admin)    
А от старой чем отличается? У старой даже битрейт повыше.
Аватар ADVOKAT69
  ADVOKAT69  
OldGamer писал(а):
ещё вспомнился "Ивашка из дворца пионеров"
да очень хороший мультик!жаль его нет на блюрее!
Аватар OldGamer
  OldGamer  
ещё вспомнился "Ивашка из дворца пионеров"