💬 Мини-чат

Для тех, кому интересен процесс переделки сайта - https://rips.club/changelog.html (обновлен 22.02.2024)
OldGamerz1M4p9i0, и этот релиз скачался
Adminatomicheart, встал, но у Вас в профиле не видно. Вам бы перекачать.
OldGamerz1M4p9i0, Хан Соло скачался, но релиз, который был на руторе, там аудиодорожек меньше, чем тут, а видеоряд тот же. Попробуйте оттуда, я пока что сидирую.
OldGamerХан Соло откуда-то по чайной ложке в час скачивается, за сутки 50%, наблюдаем-с дальше
Adminatomicheart, завтра посмотрю, он у меня должен быть.
atomicheartРаздайте, пожалуйста, Тихое место: Дилогия / A Quiet Place: Dilogy (2018-2020) UHD-BDRip 1080p [HEVC] 10 bit [HDR] от Mr. Fox
z1M4p9i0Раздайте, пожалуйста, Хан Соло: Звёздные войны. Истории / Solo: A Star Wars Story (2018) [Локализованная версия] BDRip 1080p [HEVC] 10 bit от Cthulhu
z1M4p9i0Раздайте, пожалуйста, Терминатор: Тёмные судьбы / Terminator: Dark Fate (2019) [iTunes] UHD-BDRip 1440p [HEVC] 10 bit от HANNIBAL
OldGamerKeynol, честно говоря, пока что не планировалось, так как у нас есть отличный рип этого фильма
KeynolПриветствую! А можно сделать HEVC 10 bit на Трон Наследие Hybrid ? там файл на 31 гиг :-( на рутрекере. Хороший, но очень массивный..
  • OldGamer
  • ancestor87
  • AndresUA
  • InSpector
Отправка сообщений доступна только зарегистрированным/авторизованным пользователям.
Онлайн (за 10 мин.): 4

Приключения Шерлока Холмса и доктора Ватсона: Собака Баскервилей (1981) BDRip 1080p [HEVC] 10 bit от ADVOKAT69

HEVC
10 bit
Обложка Приключения Шерлока Холмса и доктора Ватсона: Собака Баскервилей (1981) BDRip 1080p [HEVC] 10 bit от ADVOKAT69 Год: 1981
Страна: СССР
Студия: Ленфильм
Жанр: Детектив
Продолжительность: 2 серии - 02:32:25

Режиссер: Игорь Масленников
В ролях: Василий Ливанов, Виталий Соломин, Рина Зеленая, Ирина Купченко, Никита Михалков, Алла Демидова, Светлана Крючкова, Александр Адабашьян, Борислав Брондуков, Евгений Стеблов

Описание: Труп Чарльза Баскервиля обнаруживают неподалеку от его родового поместья. Выражение нечеловеческого ужаса на лице покойника и следы крупной собаки поблизости заставляют вспомнить старинную легенду о проклятии, тяготеющем над родом Баскервилей. Шерлоку Холмсу предстоит докопаться до истины...


Исходник: Blu-Ray
Видео: 1496x1080, 7348 Kbps
Аудио: DTS, 6 ch, 1509 Kbps - РусскийРусский, Оригинал
Субтитры: нет

Лог (x265 info)
x265 [info]: frame I: 622, Avg QP:17.38 kb/s: 38524.34
x265 [info]: frame P: 26817, Avg QP:19.00 kb/s: 22264.44
x265 [info]: frame B: 83233, Avg QP:21.69 kb/s: 2307.66
x265 [info]: Weighted P-Frames: Y:4.9% UV:3.1%
x265 [info]: Weighted B-Frames: Y:2.6% UV:1.7%
x265 [info]: consecutive B-frames: 6.7% 5.5% 3.1% 63.5% 6.7% 13.7% 0.4% 0.4% 0.1%
Медиаинфо
Общее
Уникальный идентификатор : 175120830104455281954280467234266362225 (0x83BF0B88F2B60271B95F1C58BCDD3171)
Полное имя : H:\Приключения Шерлока Холмса и доктора Ватсона. Собака Баскервилей\1 серия HEVC 10bit.mkv
Формат : Matroska
Версия формата : Version 4
Размер файла : 4,76 Гбайт
Продолжительность : 1 ч. 16 м.
Общий поток : 8859 Кбит/сек
Дата кодирования : UTC 2020-04-28 09:04:30
Программа кодирования : mkvmerge v9.2.0 ('Photograph') 64bit
Библиотека кодирования : libebml v1.3.3 + libmatroska v1.4.4

Видео
Идентификатор : 1
Формат : HEVC
Формат/Информация : High Efficiency Video Coding
Профиль формата : Main 10@L4.1@High
Идентификатор кодека : V_MPEGH/ISO/HEVC
Продолжительность : 1 ч. 16 м.
Битрейт : 7348 Кбит/сек
Ширина : 1496 пикселей
Высота : 1080 пикселей
Соотношение сторон : 1,385
Режим частоты кадров : Постоянный
Частота кадров : 23,976 (24000/1001) кадра/сек
Цветовое пространство : YUV
Субдискретизация насыщенности : 4:2:0
Битовая глубина : 10 бит
Бит/(Пиксели*Кадры) : 0.190
Размер потока : 3,95 Гбайт (83%)
Библиотека кодирования : x265 3.3+2-gd9a7411cc:[Windows][MSVC 1925][64 bit] 10bit
Настройки программы : cpuid=1049583 / frame-threads=3 / numa-pools=8 / wpp / no-pmode / no-pme / no-psnr / no-ssim / log-level=2 / input-csp=1 / input-res=1496x1080 / interlace=0 / total-frames=110672 / level-idc=41 / high-tier=1 / uhd-bd=0 / ref=5 / no-allow-non-conformance / no-repeat-headers / annexb / no-aud / no-hrd / info / hash=0 / no-temporal-layers / open-gop / min-keyint=24 / keyint=240 / gop-lookahead=0 / bframes=8 / b-adapt=2 / b-pyramid / bframe-bias=0 / rc-lookahead=40 / lookahead-slices=4 / scenecut=40 / hist-scenecut=0 / radl=0 / no-splice / no-intra-refresh / ctu=32 / min-cu-size=8 / rect / no-amp / max-tu-size=32 / tu-inter-depth=4 / tu-intra-depth=4 / limit-tu=1 / rdoq-level=2 / dynamic-rd=4.00 / no-ssim-rd / signhide / no-tskip / nr-intra=0 / nr-inter=0 / constrained-intra / no-strong-intra-smoothing / max-merge=3 / limit-refs=3 / limit-modes / me=3 / subme=7 / merange=57 / temporal-mvp / no-frame-dup / no-hme / weightp / weightb / no-analyze-src-pics / deblock=-2:-2 / no-sao / no-sao-non-deblock / rd=4 / selective-sao=0 / no-early-skip / rskip / no-fast-intra / no-tskip-fast / no-cu-lossless / b-intra / no-splitrd-skip / rdpenalty=0 / psy-rd=1.50 / psy-rdoq=0.70 / no-rd-refine / no-lossless / cbqpoffs=0 / crqpoffs=0 / rc=crf / crf=19.5 / qcomp=0.60 / qpstep=4 / stats-write=0 / stats-read=0 / vbv-maxrate=50000 / vbv-bufsize=50000 / vbv-init=0.9 / crf-max=0.0 / crf-min=0.0 / ipratio=1.40 / pbratio=1.30 / aq-mode=2 / aq-strength=0.80 / no-cutree / zone-count=0 / no-strict-cbr / qg-size=32 / no-rc-grain / qpmax=69 / qpmin=0 / no-const-vbv / sar=1 / overscan=0 / videoformat=5 / range=0 / colorprim=1 / transfer=1 / colormatrix=1 / chromaloc=0 / display-window=0 / cll=0,0 / min-luma=0 / max-luma=1023 / log2-max-poc-lsb=8 / vui-timing-info / vui-hrd-info / slices=1 / no-opt-qp-pps / no-opt-ref-list-length-pps / no-multi-pass-opt-rps / scenecut-bias=0.05 / hist-threshold=0.01 / no-opt-cu-delta-qp / no-aq-motion / no-hdr10 / no-hdr10-opt / no-dhdr10-opt / no-idr-recovery-sei / analysis-reuse-level=0 / analysis-save-reuse-level=0 / analysis-load-reuse-level=0 / scale-factor=0 / refine-intra=0 / refine-inter=0 / refine-mv=1 / refine-ctu-distortion=0 / no-limit-sao / ctu-info=0 / no-lowpass-dct / refine-analysis-type=0 / copy-pic=1 / max-ausize-factor=1.0 / no-dynamic-refine / no-single-sei / no-hevc-aq / no-svt / no-field / qp-adaptation-range=1.00 / no-scenecut-aware-qpconformance-window-offsets / right=0 / bottom=0
Default : Да
Forced : Нет
Цветовой диапазон : Limited
Основные цвета : BT.709
Характеристики трансфера : BT.709
Коэффициенты матрицы : BT.709

Аудио
Идентификатор : 2
Формат : DTS
Формат/Информация : Digital Theater Systems
Идентификатор кодека : A_DTS
Продолжительность : 1 ч. 16 м.
Вид битрейта : Постоянный
Битрейт : 1509 Кбит/сек
Каналы : 6 каналов
ChannelLayout : C L R Ls Rs LFE
Частота : 48,0 КГц
Частота кадров : 93,750 кадра/сек (512 SPF)
Битовая глубина : 24 бит
Метод сжатия : С потерями
Размер потока : 830 Мбайт (17%)
Заголовок : Русский
Default : Да
Forced : Нет

Меню
00:00:00.000 : en:Chapter 1
00:05:38.087 : en:Chapter 2
00:12:47.767 : en:Chapter 3
00:19:43.807 : en:Chapter 4
00:25:50.257 : en:Chapter 5
00:36:35.651 : en:Chapter 6
00:42:28.295 : en:Chapter 7
00:49:08.236 : en:Chapter 8
00:53:26.119 : en:Chapter 9
01:00:04.392 : en:Chapter 10
01:03:24.675 : en:Chapter 11
01:07:25.666 : en:Chapter 12
Загрузка...Cкриншот1 Приключения Шерлока Холмса и доктора Ватсона: Собака Баскервилей (1981) BDRip 1080p [HEVC] 10 bit от ADVOKAT69Загрузка...Cкриншот2 Приключения Шерлока Холмса и доктора Ватсона: Собака Баскервилей (1981) BDRip 1080p [HEVC] 10 bit от ADVOKAT69Загрузка...Cкриншот3 Приключения Шерлока Холмса и доктора Ватсона: Собака Баскервилей (1981) BDRip 1080p [HEVC] 10 bit от ADVOKAT69Загрузка...Cкриншот4 Приключения Шерлока Холмса и доктора Ватсона: Собака Баскервилей (1981) BDRip 1080p [HEVC] 10 bit от ADVOKAT69
Сэмпл Торрент🧲 Магнет

Раздача обновлена!
Перекодировал!

Рейтинги КП и IMDB, кнопки "Позвать в чате" и "Спасибо", а также мультитрекерная статистика доступны только зарегистрированным/авторизованным пользователям!

Файлы: 2
  • Приключения Шерлока Холмса и доктора Ватсона. Собака Баскервилей
    • 1 серия HEVC 10bit.mkv   4.76 ГБ
    • 2 серия HEVC 10bit.mkv   4.51 ГБ
Поблагодарили: 24
and50, andreynnn, animen67, aquarius, bad999, bright, cdmitry, cnn, D16T, denisspb, Diman, kacznelbogene, kapany3, Kilop77, Kiran, LastSurviv0r, makss333, mat, MIGRANT, saney, SAVOYAR, stas67, Undervest, z1M4p9i0
ADVOKAT69
35300 (2)  9.27 ГБ

Добавление нового комментария

Добавление комментариев доступно только зарегистрированным/авторизованным пользователям.
Аватар не указан
  z1M4p9i0  
На раздачу встаньте пожалуста ?
Аватар ADVOKAT69
  ADVOKAT69  
cnn писал(а):
спасибо,если можно залейте весь сериал Приключения Шерлока Холмса и доктора Ватсона
на блюрее выходил только Собака Баскервилей!
Аватар не указан
  cnn  
спасибо,если можно залейте весь сериал Приключения Шерлока Холмса и доктора Ватсона