💬 Мини-чат

Убедительная просьба не обсуждать тут политику.
AdminЛёшикоБэст, вроде потихоньку идёт. Подождем, если не докачается, то встану.
AdminЛёшикоБэст, перекачайте торрент, а то в профиле не отображается ждете или уже нет
ЛёшикоБэстРаздайте, пожалуйста, Неудержимые / The Expendables (2010) [Theatrical Cut] BDRip 1080p [HEVC] 10 bit от Spartanec1308
OldGamerДа, есть.
ЛёшикоБэстДоброго вечера) Скажите пожалуйста, есть ли в планах сделать релиз дилогии "Зорро" с Антонио Бандерасом?
HANNIBALAdmin, 👍
AdminГоро, встал
ГороРаздайте, пожалуйста, Хищники / Predators (2010) BDRip 1080p [HEVC] 10 bit от HANNIBAL
AdminHANNIBAL, привет. Не помню за сколько брал, но продление в этот раз обошлось примерно в $14 со всякими комиссиями. А аренда VDS обходится примерно в $30-35 за год. Не исключено, что всё это подорожает. Пока что пожертвования с трудом покрывают расходы. Иногда если требуется и со своего кармана оплачиваю, не страшно. Прорвемся.
HANNIBALсколько сейчас стоит
HANNIBALAdmin, ПРИВЕТ
AdminНаконец-то получил банковскую карту. Продлил доменное имя (адрес сайта) на год.
  • ivan_1965
Отправка сообщений доступна только зарегистрированным/авторизованным пользователям.
Онлайн (за 10 мин.): 1

Пункт назначения 3 / Final Destination 3 (2006) BDRip 1080p [HEVC] 10 bit от M@kSIMus

HEVC
10 bit
Обложка Пункт назначения 3 / Final Destination 3 (2006) BDRip 1080p [HEVC] 10 bit от M@kSIMus Год: 2006
Страна: США, Германия
Студия: Hard Eight Pictures, KUMAR Mobiliengesellschaft mbH & Co. Projekt Nr. 1 KG, Matinee Pictures, New Line Cinema, Practical Pictures, Road Rebel, Zid
Жанр: Ужасы, Триллер
Продолжительность: 01:32:49

Режиссер: Джеймс Вонг
В ролях: Мэри Элизабет Уинстэд, Райан Мерриман, Крис Лемке, Алекс Джонсон, Сэм Истон, Джесси Мосс, Джина Холден, Тексас Бэттл, Челан Симмонс, Кристал Лоу

Описание: У старшеклассницы Венди Кристенсен однажды возникает предчувствие, что она и её друзья станут жертвами несчастного случая, который произойдёт на «американских горках». Когда же самые страшные опасения Венди подтверждаются, то те, кто сумел всё-таки обмануть смерть и выжить, оказываются вынужденными расплачиваться за то, что изменили свою судьбу.


Видео: 1920x814, 11.8 Mbps
Аудио1: AC3, 6 ch, 640 Kbps - РусскийРусский, Дублированный
Аудио2: AC3, 6 ch, 640 Kbps - АнглийскийАнглийский, Оригинал
Субтитры: Русские (форсированные, полные), английские

Как за пару секунд удалить ненужные аудиодорожки и субтитры (Внимание! После удаления вы не сможете поддержать раздачу)

Лог (x265 info)
x265 info: frame I: 1640, Avg QP:17.11 kb/s: 24862.51
x265 info: frame P: 26475, Avg QP:18.31 kb/s: 16904.15
x265 info: frame B: 105446, Avg QP:20.59 kb/s: 10370.52
x265 info: Weighted P-Frames: Y:11.9% UV:9.1%
x265 info: consecutive B-frames: 17.2% 6.5% 9.0% 14.4% 10.7% 23.8% 4.8% 3.5% 3.4% 2.5% 4.3%
x265 info: encoded 133561 frames in 183310.85s (0.73 fps), 11843.59 kb/s, Avg QP:20.09
Медиаинфо
Формат : Matroska
Версия формата : Version 4
Размер файла : 8,51 Гбайт
Продолжительность : 1 ч. 32 м.
Общий поток : 13,1 Мбит/сек
Название фильма : Final Destination 3 (2006)
Дата кодирования : UTC 2020-03-31 06:46:19
Программа кодирования : mkvmerge v44.0.0 ('Domino') 64-bit
Библиотека кодирования : libebml v1.3.10 + libmatroska v1.5.2
Обложка : Yes
Attachments : cover03.jpg

Видео
Идентификатор : 1
Формат : HEVC
Формат/Информация : High Efficiency Video Coding
Профиль формата : Main 10@L4.1@High
Идентификатор кодека : V_MPEGH/ISO/HEVC
Продолжительность : 1 ч. 32 м.
Битрейт : 11,8 Мбит/сек
Ширина : 1920 пикселей
Высота : 814 пикселей
Соотношение сторон : 2,35:1
Режим частоты кадров : Постоянный
Частота кадров : 23,976 (24000/1001) кадра/сек
Цветовое пространство : YUV
Субдискретизация насыщенности : 4:2:0
Битовая глубина : 10 бит
Бит/(Пиксели*Кадры) : 0.316
Размер потока : 7,68 Гбайт (90%)
Библиотека кодирования : x265 3.2+5-354901970679:[Windows][clang 8.0.1][64 bit] 10bit
Настройки программы : cpuid=1049583 / frame-threads=5 / numa-pools=4 / wpp / no-pmode / no-pme / no-psnr / no-ssim / log-level=3 / input-csp=1 / input-res=1920x814 / interlace=0 / total-frames=0 / level-idc=41 / high-tier=1 / uhd-bd=0 / ref=5 / allow-non-conformance / no-repeat-headers / annexb / no-aud / no-hrd / info / hash=0 / no-temporal-layers / open-gop / min-keyint=24 / keyint=240 / gop-lookahead=0 / bframes=10 / b-adapt=2 / b-pyramid / bframe-bias=0 / rc-lookahead=40 / lookahead-slices=5 / scenecut=40 / radl=0 / no-splice / no-intra-refresh / ctu=32 / min-cu-size=8 / rect / no-amp / max-tu-size=32 / tu-inter-depth=4 / tu-intra-depth=4 / limit-tu=1 / rdoq-level=1 / dynamic-rd=0.00 / no-ssim-rd / signhide / no-tskip / nr-intra=0 / nr-inter=0 / no-constrained-intra / no-strong-intra-smoothing / max-merge=5 / limit-refs=1 / no-limit-modes / me=3 / subme=7 / merange=57 / temporal-mvp / no-frame-dup / no-hme / weightp / no-weightb / no-analyze-src-pics / deblock=-3:-3 / no-sao / no-sao-non-deblock / rd=4 / selective-sao=0 / early-skip / no-rskip / no-fast-intra / no-tskip-fast / no-cu-lossless / b-intra / no-splitrd-skip / rdpenalty=0 / psy-rd=2.00 / psy-rdoq=1.00 / no-rd-refine / no-lossless / cbqpoffs=0 / crqpoffs=0 / rc=crf / crf=20.0 / qcomp=0.60 / qpstep=4 / stats-write=0 / stats-read=0 / vbv-maxrate=50000 / vbv-bufsize=50000 / vbv-init=0.9 / crf-max=0.0 / crf-min=0.0 / ipratio=1.40 / pbratio=1.30 / aq-mode=3 / aq-strength=1.00 / no-cutree / zone-count=0 / no-strict-cbr / qg-size=32 / no-rc-grain / qpmax=69 / qpmin=0 / no-const-vbv / sar=1 / overscan=0 / videoformat=5 / range=0 / colorprim=1 / transfer=1 / colormatrix=1 / chromaloc=0 / display-window=0 / cll=0,0 / min-luma=0 / max-luma=1023 / log2-max-poc-lsb=8 / vui-timing-info / vui-hrd-info / slices=1 / no-opt-qp-pps / no-opt-ref-list-length-pps / no-multi-pass-opt-rps / scenecut-bias=0.05 / no-opt-cu-delta-qp / no-aq-motion / no-hdr / no-hdr-opt / no-dhdr10-opt / no-idr-recovery-sei / analysis-reuse-level=5 / scale-factor=0 / refine-intra=0 / refine-inter=0 / refine-mv=1 / refine-ctu-distortion=0 / no-limit-sao / ctu-info=0 / no-lowpass-dct / refine-analysis-type=0 / copy-pic=1 / max-ausize-factor=1.0 / no-dynamic-refine / no-single-sei / no-hevc-aq / no-svt / no-field / qp-adaptation-range=1.00
Default : Да
Forced : Нет
Цветовой диапазон : Limited
Основные цвета : BT.709
Характеристики трансфера : BT.709
Коэффициенты матрицы : BT.709

Аудио #1
Идентификатор : 2
Формат : AC-3
Формат/Информация : Audio Coding 3
Коммерческое название : Dolby Digital
Идентификатор кодека : A_AC3
Продолжительность : 1 ч. 32 м.
Вид битрейта : Постоянный
Битрейт : 640 Кбит/сек
Каналы : 6 каналов
ChannelLayout : L R C LFE Ls Rs
Частота : 48,0 КГц
Частота кадров : 31,250 кадров/сек (1536 SPF)
Метод сжатия : С потерями
Размер потока : 425 Мбайт (5%)
Заголовок : Дубляж
Язык : Russian
Default : Да
Forced : Нет

Аудио #2
Идентификатор : 3
Формат : AC-3
Формат/Информация : Audio Coding 3
Коммерческое название : Dolby Digital
Идентификатор кодека : A_AC3
Продолжительность : 1 ч. 32 м.
Вид битрейта : Постоянный
Битрейт : 640 Кбит/сек
Каналы : 6 каналов
ChannelLayout : L R C LFE Ls Rs
Частота : 48,0 КГц
Частота кадров : 31,250 кадров/сек (1536 SPF)
Метод сжатия : С потерями
Размер потока : 425 Мбайт (5%)
Заголовок : Оригинал
Язык : English
Default : Нет
Forced : Нет

Текст #1
Идентификатор : 4
Формат : UTF-8
Идентификатор кодека : S_TEXT/UTF8
Идентификатор кодека/Информация : UTF-8 Plain Text
Продолжительность : 1 ч. 31 м.
Битрейт : 1 бит/сек
ElementCount : 32
Размер потока : 1,10 Кбайт (0%)
Заголовок : Forced
Язык : Russian
Default : Да
Forced : Да

Текст #2
Идентификатор : 5
Формат : UTF-8
Идентификатор кодека : S_TEXT/UTF8
Идентификатор кодека/Информация : UTF-8 Plain Text
Продолжительность : 1 ч. 32 м.
Битрейт : 70 бит/сек
ElementCount : 941
Размер потока : 47,9 Кбайт (0%)
Заголовок : Full
Язык : Russian
Default : Нет
Forced : Нет

Текст #3
Идентификатор : 6
Формат : UTF-8
Идентификатор кодека : S_TEXT/UTF8
Идентификатор кодека/Информация : UTF-8 Plain Text
Продолжительность : 1 ч. 27 м.
Битрейт : 59 бит/сек
ElementCount : 1497
Размер потока : 38,3 Кбайт (0%)
Заголовок : Full
Язык : English
Default : Нет
Forced : Нет

Меню
00:00:00.000 : :00:00:00.000
00:02:35.572 : :00:02:35.572
00:04:02.868 : :00:04:02.868
00:09:22.687 : :00:09:22.687
00:14:33.706 : :00:14:33.706
00:21:27.286 : :00:21:27.286
00:26:22.414 : :00:26:22.414
00:38:11.122 : :00:38:11.122
00:44:43.681 : :00:44:43.681
00:49:45.983 : :00:49:45.983
00:52:33.776 : :00:52:33.776
00:55:42.339 : :00:55:42.339
01:03:51.453 : :01:03:51.453
01:06:13.178 : :01:06:13.178
01:11:16.981 : :01:11:16.981
01:17:54.295 : :01:17:54.295
01:19:58.002 : :01:19:58.002
01:27:08.849 : :01:27:08.849
Загрузка...Cкриншот1 Пункт назначения 3 / Final Destination 3 (2006) BDRip 1080p [HEVC] 10 bit от M@kSIMusЗагрузка...Cкриншот2 Пункт назначения 3 / Final Destination 3 (2006) BDRip 1080p [HEVC] 10 bit от M@kSIMusЗагрузка...Cкриншот3 Пункт назначения 3 / Final Destination 3 (2006) BDRip 1080p [HEVC] 10 bit от M@kSIMusЗагрузка...Cкриншот4 Пункт назначения 3 / Final Destination 3 (2006) BDRip 1080p [HEVC] 10 bit от M@kSIMus
Сэмпл Торрент🧲 Магнет

Рейтинги КП и IMDB, кнопки "Позвать в чате" и "Спасибо", а также мультитрекерная статистика доступны только зарегистрированным/авторизованным пользователям!

Файлы: 1
  • 03. Final Destination 3 (2006) BDRip 1080p [HEVC] 10 bit.mkv   8.51 ГБ
Поблагодарили: 3
LastSurviv0r, makss333, VadimM
Admin
0244008.51 ГБ

Добавление нового комментария

Добавление комментариев доступно только зарегистрированным/авторизованным пользователям.