💬 Мини-чат

OldGamerвыводить
mafo2Admin, можно вывести, наглядно будет
StarLordAdmin, +
AdminНадпись HDR выводить на обложку?
OldGamerGiggalo, но лучше всего вообще не затрагивайте этот ключ, по умолчанию будет установлено оптимальное значение
OldGamerGiggalo, но если уж очень хочется то пишите --frame-threads 3
OldGamerGiggalo, а зачем его менять?) нужное значение устанавливается автоматически
GiggaloДобрый вечер всем! OldGamer Покажи пожалуйста почему когда пишу в командной строке frame-threads=3 он не меняется. Какой там стоит 13 он его и держит, а ругие установки спокойно меняет?
AdminStarLord, спасибо. Пока сойдет.
StarLordAdmin, ага, вижу
StarLordAdmin, а как должно брать?
AdminStarLord, ты шаришь?
AdminStarLord, у меня сейчас такая, но с точками беда. Доработать бы (https?://([-\w\.]+)+(:\d+)?(/([-\w/_:%]*(\.\w+)*(\?\S+)?)?)?)
AdminStarLord, скрины в bb некорректно берет
StarLordwww, ftp(s), http(s), #, :, &
StarLordAdmin, все мои кейсы покрыла
StarLordAdmin, вот эта хорошая -(?:(?:https?|ftps?):\/\/|\b(?:[a-z\d]+\.))(?:(?:[^\s()<>]+|\((?:[^\s()<>]+|(?:\([^\s()<>]+\)))?\))+(?:\((?:[^\s()<>]+|(?:\(?:[^\s()<>]+\)))?\)|[^\s`!()\[\]{};:'".,<>?«»“”‘’]))?
AdminStarLord, мне бы с обязательным указанием протокола
AdminСообщение удалено (удалил: Admin)
AdminСообщение удалено (удалил: Admin)
  • StarLord
  • alexyak
  • Andrey_alex
  • InSpector
  • pmihail99
Отправка сообщений доступна только зарегистрированным/авторизованным пользователям.
Онлайн (за 10 мин.): 5

Паркер / Parker (2013) BDRip 1080p [HEVC] 10 bit от Spartanec1308

HEVC
10 bit
Обложка Паркер / Parker (2013) BDRip 1080p [HEVC] 10 bit от Spartanec1308 Год: 2013
Страна: США
Студия: Anvil Films, Current Entertainment, Incentive Filmed Entertainment
Жанр: Триллер, Криминал
Продолжительность: 01:58:40

Режиссер: Тейлор Хэкфорд
В ролях: Джейсон Стэйтем, Дженнифер Лопез, Майкл Чиклис, Ник Нолти, Эмма Бут, Майка А. Хауптмен, Уенделл Пирс, Клифтон Коллинз мл., Дэниэл Бернхард, Бобби Каннавале

Описание: Главный герой — профессиональный вор, руководствующийся собственным моральным кодексом, но способный запросто отправить на тот свет любого, кто перейдёт ему дорогу.


Видео: 1920x796, 7132 Кбит/сек, 0.195 бит/(Пиксели*Кадры), 23,976 кадр/сек, HEVC (Main10@L.4.1@High) 10 бит
Аудио1: AC3, 6 ch, 640 Kbps - РусскийРусский, Дублированный (Лицензия)
Аудио2: AC3, 6 ch, 640 Kbps - РусскийРусский, Одноголосый (Андрей Гаврилов)
Аудио3: AC3, 6 ch, 640 Kbps - РусскийРусский, Одноголосый (Михаил Яроцкий )
Аудио4: AC3, 6 ch, 640 Kbps - EnglishEnglish, Original
Субтитры: Русские (полные, форсированные), Английские

Как за пару секунд удалить ненужные аудиодорожки и субтитры (Внимание! После удаления вы не сможете поддержать раздачу)

Лог (x265 info)
x265 [info]: frame I: 1773, Avg QP:17.68 kb/s: 22489.33
x265 [info]: frame P: 34702, Avg QP:19.17 kb/s: 12334.48
x265 [info]: frame B: 134238, Avg QP:21.38 kb/s: 5583.49
x265 [info]: Weighted P-Frames: Y:6.8% UV:5.1%
x265 [info]: Weighted B-Frames: Y:6.3% UV:4.7%
x265 [info]: consecutive B-frames: 9.2% 6.6% 8.4% 31.7% 10.6% 20.6% 3.5% 3.1% 1.6% 1.2% 1.0% 2.0% 0.4%

encoded 170713 frames in 348418.58s (0.49 fps), 7131.40 kb/s, Avg QP:20.89
Медиаинфо
Формат : Matroska
Версия формата : Version 4
Размер файла : 8,04 Гбайт
Продолжительность : 1 ч. 58 м.
Общий поток : 9687 Кбит/сек
Название фильма : by Spartanec
Дата кодирования : UTC 2020-04-12 12:23:33
Программа кодирования : mkvmerge v7.0.0 ('Where We Going') 64bit built on Jun 9 2014 15:16:27
Библиотека кодирования : libebml v1.3.0 + libmatroska v1.4.1
Обложка : Yes
Attachments : cover.jpg

Видео
Идентификатор : 1
Формат : HEVC
Формат/Информация : High Efficiency Video Coding
Профиль формата : Main 10@L4.1@High
Идентификатор кодека : V_MPEGH/ISO/HEVC
Продолжительность : 1 ч. 58 м.
Битрейт : 7132 Кбит/сек
Ширина : 1920 пикселей
Высота : 796 пикселей
Соотношение сторон : 2,40:1
Режим частоты кадров : Постоянный
Частота кадров : 23,976 (23976/1000) кадра/сек
Частота кадров в оригинале : 23,976 (24000/1001) кадра/сек
Цветовое пространство : YUV
Субдискретизация насыщенности : 4:2:0
Битовая глубина : 10 бит
Бит/(Пиксели*Кадры) : 0.195
Размер потока : 5,91 Гбайт (74%)
Заголовок : by Spartanec
Библиотека кодирования : x265 3.2.1+1-b5c86a64bbbe:[Windows][GCC 9.2.0][64 bit] 10bit
Настройки программы : cpuid=1111039 / frame-threads=4 / numa-pools=16 / wpp / no-pmode / no-pme / no-psnr / no-ssim / log-level=2 / input-csp=1 / input-res=1920x796 / interlace=0 / total-frames=170713 / level-idc=41 / high-tier=1 / uhd-bd=0 / ref=5 / no-allow-non-conformance / no-repeat-headers / annexb / no-aud / no-hrd / info / hash=0 / no-temporal-layers / open-gop / min-keyint=23 / keyint=240 / gop-lookahead=0 / bframes=12 / b-adapt=2 / b-pyramid / bframe-bias=0 / rc-lookahead=60 / lookahead-slices=1 / scenecut=40 / radl=0 / no-splice / no-intra-refresh / ctu=32 / min-cu-size=8 / rect / amp / max-tu-size=32 / tu-inter-depth=4 / tu-intra-depth=4 / limit-tu=1 / rdoq-level=1 / dynamic-rd=0.00 / no-ssim-rd / signhide / no-tskip / nr-intra=0 / nr-inter=0 / no-constrained-intra / no-strong-intra-smoothing / max-merge=5 / limit-refs=0 / no-limit-modes / me=3 / subme=7 / merange=57 / temporal-mvp / no-hme / weightp / weightb / no-analyze-src-pics / deblock=-2:-2 / no-sao / no-sao-non-deblock / rd=6 / selective-sao=0 / no-early-skip / no-rskip / no-fast-intra / no-tskip-fast / no-cu-lossless / b-intra / no-splitrd-skip / rdpenalty=0 / psy-rd=2.00 / psy-rdoq=1.00 / no-rd-refine / no-lossless / cbqpoffs=0 / crqpoffs=0 / rc=crf / crf=20.5 / qcomp=0.70 / qpstep=4 / stats-write=0 / stats-read=0 / vbv-maxrate=50000 / vbv-bufsize=50000 / vbv-init=0.9 / crf-max=0.0 / crf-min=0.0 / ipratio=1.40 / pbratio=1.30 / aq-mode=2 / aq-strength=1.00 / no-cutree / zone-count=0 / no-strict-cbr / qg-size=32 / no-rc-grain / qpmax=69 / qpmin=0 / no-const-vbv / sar=1 / overscan=0 / videoformat=5 / range=0 / colorprim=1 / transfer=1 / colormatrix=1 / chromaloc=0 / display-window=0 / cll=0,0 / min-luma=0 / max-luma=1023 / log2-max-poc-lsb=8 / vui-timing-info / vui-hrd-info / slices=1 / no-opt-qp-pps / no-opt-ref-list-length-pps / no-multi-pass-opt-rps / scenecut-bias=0.05 / no-opt-cu-delta-qp / no-aq-motion / no-hdr / no-hdr-opt / no-dhdr10-opt / no-idr-recovery-sei / analysis-reuse-level=5 / scale-factor=0 / refine-intra=0 / refine-inter=0 / refine-mv=0 / refine-ctu-distortion=0 / no-limit-sao / ctu-info=0 / no-lowpass-dct / refine-analysis-type=0 / copy-pic=1 / max-ausize-factor=1.0 / no-dynamic-refine / no-single-sei / no-hevc-aq / no-svt / no-field / qp-adaptation-range=1.00
Язык : English
Default : Да
Forced : Нет
Цветовой диапазон : Limited
Основные цвета : BT.709
Характеристики трансфера : BT.709
Коэффициенты матрицы : BT.709

Аудио #1
Идентификатор : 2
Формат : AC-3
Формат/Информация : Audio Coding 3
Коммерческое название : Dolby Digital
Идентификатор кодека : A_AC3
Продолжительность : 1 ч. 58 м.
Вид битрейта : Постоянный
Битрейт : 640 Кбит/сек
Каналы : 6 каналов
Channel layout : L R C LFE Ls Rs
Частота : 48,0 КГц
Частота кадров : 31,250 кадров/сек (1536 SPF)
Битовая глубина : 16 бит
Метод сжатия : С потерями
Размер потока : 543 Мбайт (7%)
Заголовок : Дубляж, Blu-ray
Язык : Russian
ServiceKind/ : Complete Main
Default : Да
Forced : Нет

Аудио #2
Идентификатор : 3
Формат : AC-3
Формат/Информация : Audio Coding 3
Коммерческое название : Dolby Digital
Идентификатор кодека : A_AC3
Продолжительность : 1 ч. 58 м.
Вид битрейта : Постоянный
Битрейт : 640 Кбит/сек
Каналы : 6 каналов
Channel layout : L R C LFE Ls Rs
Частота : 48,0 КГц
Частота кадров : 31,250 кадров/сек (1536 SPF)
Битовая глубина : 16 бит
Метод сжатия : С потерями
Размер потока : 544 Мбайт (7%)
Заголовок : Андрей Гаврилов
Язык : Russian
ServiceKind/ : Complete Main
Default : Нет
Forced : Нет

Аудио #3
Идентификатор : 4
Формат : AC-3
Формат/Информация : Audio Coding 3
Коммерческое название : Dolby Digital
Идентификатор кодека : A_AC3
Продолжительность : 1 ч. 58 м.
Вид битрейта : Постоянный
Битрейт : 640 Кбит/сек
Каналы : 6 каналов
Channel layout : L R C LFE Ls Rs
Частота : 48,0 КГц
Частота кадров : 31,250 кадров/сек (1536 SPF)
Битовая глубина : 16 бит
Метод сжатия : С потерями
Размер потока : 543 Мбайт (7%)
Заголовок : Михаил Яроцкий
Язык : Russian
ServiceKind/ : Complete Main
Default : Нет
Forced : Нет

Аудио #4
Идентификатор : 5
Формат : AC-3
Формат/Информация : Audio Coding 3
Коммерческое название : Dolby Digital
Идентификатор кодека : A_AC3
Продолжительность : 1 ч. 58 м.
Вид битрейта : Постоянный
Битрейт : 640 Кбит/сек
Каналы : 6 каналов
Channel layout : L R C LFE Ls Rs
Частота : 48,0 КГц
Частота кадров : 31,250 кадров/сек (1536 SPF)
Битовая глубина : 16 бит
Метод сжатия : С потерями
Размер потока : 543 Мбайт (7%)
Заголовок : Оригинал
Язык : English
ServiceKind/ : Complete Main
Default : Нет
Forced : Нет

Текст #1
Идентификатор : 6
Формат : UTF-8
Идентификатор кодека : S_TEXT/UTF8
Идентификатор кодека/Информация : UTF-8 Plain Text
Продолжительность : 1 ч. 49 м.
Битрейт : 0 бит/сек
ElementCount : 4
Размер потока : 113 байт (0%)
Заголовок : Rus (Forced)
Язык : Russian
Default : Нет
Forced : Нет

Текст #2
Идентификатор : 7
Формат : UTF-8
Идентификатор кодека : S_TEXT/UTF8
Идентификатор кодека/Информация : UTF-8 Plain Text
Продолжительность : 1 ч. 51 м.
Битрейт : 86 бит/сек
ElementCount : 1258
Размер потока : 71,2 Кбайт (0%)
Заголовок : Rus
Язык : Russian
Default : Нет
Forced : Нет

Текст #3
Идентификатор : 8
Формат : UTF-8
Идентификатор кодека : S_TEXT/UTF8
Идентификатор кодека/Информация : UTF-8 Plain Text
Продолжительность : 1 ч. 51 м.
Битрейт : 65 бит/сек
ElementCount : 1683
Размер потока : 53,9 Кбайт (0%)
Заголовок : Eng
Язык : English
Default : Нет
Forced : Нет
Загрузка...Cкриншот1 Паркер / Parker (2013) BDRip 1080p [HEVC] 10 bit от Spartanec1308Загрузка...Cкриншот2 Паркер / Parker (2013) BDRip 1080p [HEVC] 10 bit от Spartanec1308Загрузка...Cкриншот3 Паркер / Parker (2013) BDRip 1080p [HEVC] 10 bit от Spartanec1308Загрузка...Cкриншот4 Паркер / Parker (2013) BDRip 1080p [HEVC] 10 bit от Spartanec1308
Сэмпл Торрент🧲 Магнет

Рейтинги КП и IMDB, кнопки "Позвать в чате" и "Спасибо", а также мультитрекерная статистика сидов и пиров доступны только зарегистрированным/авторизованным пользователям!

Файлы: 1
  • Паркер (2013) BDRip 1080p [HEVC] 10bit by Spartanec.mkv   8.04 ГБ
Поблагодарили: 16
and50, aquarius, bs158250, Chance, crash, D16T, denisptp4, grudich, Kiran, makss333, NoMaD, OldGamer, Papawalun, SAVOYAR, sharkey71, stas67
Spartanec1308
040008.04 ГБ

Добавление нового комментария

Добавление комментариев доступно только зарегистрированным/авторизованным пользователям.