Чат

⚫︎
Список изменений сайта - https://rips.club/changelog.html (обновлен 24.05.2024)
  • atomicheart
  • bronsonw200
  • kacznelbogene
  • lugava
  • Winsent
Онлайн (за 10 мин.): 5
  • Antilord90: Может кто переделает "Секс по дружбе" телики не воспроизводят!
  • Гл. Админ: Niflung, раздаю
  • VIS: Раздайте, пожалуйста, Большое путешествие / The Wild (2006) BDRip 1080p [HEVC] 10 bit от Мичман
  • Niflung: Раздайте, пожалуйста, Тихое место: Дилогия / A Quiet Place: Dilogy (2018-2020) UHD-BDRip 1080p [HEVC] 10 bit [HDR] от Mr. Fox
  • Antilord90: Сообщение удалено (удалил: Antilord90)
  • Niflung: Гл. Админ, Ладно, буду качать 10 bit версию)
  • Гл. Админ: Niflung, у меня только 10-битная версия
  • HANNIBAL: Гл. Админ, все норм раздача идет
  • Niflung: Раздайте, пожалуйста, Берегись автомобиля (1966) [Цветная версия] BDRip 1080p [HEVC] 8 bit от ADVOKAT69
  • Гл. Админ: HANNIBAL, Я удалил раздачу, которую заливал я. А другую заливал ты, и она была как на руторе. Теперь не понятно на что ты перезалил (в чем разница по сравнению с предыдущей, т.е. руторовской), потому что сидов нет. По моему ты не исправил, а сломал ) ( отредактировано: )
  • Гл. Админ: OldGamer, вообще задумка была сделать цветовую дифференциацию как в фильме Кин-дза-дза!, но поскольку желтый ник лучше подходит для випов, то немного не получилось.
  • Гл. Админ: HANNIBAL, их 2. Что там нужно исправлять?
  • Гл. Админ: HANNIBAL, Я думаю в добавок к зеленой могут появиться и другие цвета. ( отредактировано: )
  • HANNIBAL: Гл. Админ, и исправь раздачу Голая правда
  • HANNIBAL: Гл. Админ, не пора убрать с посторов эту зеленую надпись )))
  • HANNIBAL: Сообщение удалено (удалил: HANNIBAL)
  • Гл. Админ: HANNIBAL, админов теперь 2 ( отредактировано: )
  • HANNIBAL: админ привет
  • Antilord90: Раздайте, пожалуйста, Мальчикам это нравится / The House Bunny (2008) BDRip 1080p [HEVC] 10 bit от -Star-Lord- (RG RIPS CLUB)
  • Гл. Админ: Продлил доменное имя (адрес сайта) на год. Что-то он подорожал (24 евро вместо прежних 12). Ещё раз спасибо всем, кто поддерживает финансово. ( отредактировано: )
Отправка сообщений доступна только зарегистрированным/авторизованным пользователям.

🎥︎Святые из Бундока (Святые из трущоб) / The Boondock Saints (1999) BDRip 1080p [HEVC] 10 bit от Cthulhu (RG KORSAR)


Обложка Святые из Бундока (Святые из трущоб) / The Boondock Saints (1999) BDRip 1080p [HEVC] 10 bit от Cthulhu (RG KORSAR)
HEVC
10 bit
✂︎Сэмпл⤓︎Торрент🧲︎Магнет$Пожертвования
Год: 1999
Страна: Канада, США
Студия: B.D.S. Productions Inc., Chris Brinker Productions
Жанр: Боевик, Триллер, Драма, Криминал
Длительность: 01:48:27

Режиссер: Трой Даффи
В ролях: Уиллем Дефо, Шон Патрик Флэнери, Норман Ридус, Дэвид Делла Рокко, Билли Коннолли, Дэвид Ферри, Брайан Махони, Боб Марли, Ричард Фицпатрик, Уильям Янг

Описание: Чего только не бывает на свете! Два обычных ирландских парня, братья Коннор и Мерфи, преспокойно жили и работали в своем родном Бостоне, пока в один прекрасный день на них не снизошло озарение: сам Бог послал их на землю с особой миссией, наделив святой силой, чтобы очистить мир от зла. И братья взялись за дело со всей серьезностью, присущей ирландцам... Вскоре местную мафию охватывает настоящая паника - ведь методы «святых» не отличаются особой гуманностью, зато оказались очень эффективными - кровь полилась рекой! Массовый отстрел мафиози не смог не привлечь внимания ФБР. Спецагент Пол Смекер, ведущий расследование, попадает в непростую ситуацию: служебный долг требует пресечь деятельность «святых братьев», однако в душе он не только сочувствует им, но даже готов присоединиться к исполнителям «священной» миссии...


Релиз-группа: KORSAR
Видео: 1920x816, 9788 Kbps
Аудио1: AC3, 6 ch, 448 Kbps - РусскийРусский, Многоголосый (Tycoon)
Аудио2: AC3, 6 ch, 448 Kbps - РусскийРусский, Многоголосый (Total DVD)
Аудио3: AC3, 6 ch, 448 Kbps - РусскийРусский, Двухголосый (Союз)
Аудио4: AC3, 6 ch, 640 Kbps - РусскийРусский, Одноголосый (Пучков Goblin)
Аудио5: AC3, 6 ch, 640 Kbps - АнглийскийАнглийский, Оригинал
Субтитры: Русские, английские

Как за несколько секунд удалить ненужные аудиодорожки и субтитры (Внимание! После удаления вы не сможете поддержать раздачу)


Медиаинфоx265 [info]: frame I: 1356, Avg QP:18.27 kb/s: 25824.69
x265 [info]: frame P: 28412, Avg QP:19.63 kb/s: 18994.45
x265 [info]: frame B: 126239, Avg QP:21.67 kb/s: 7542.67
x265 [info]: Weighted P-Frames: Y:5.5% UV:4.4%
x265 [info]: Weighted B-Frames: Y:5.3% UV:3.6%
x265 [info]: consecutive B-frames: 5.9% 0.5% 1.6% 21.9% 13.2% 48.5% 4.0% 2.0% 0.8% 0.5% 0.4%

General
Unique ID : 254318420741199808316660746047465555600 (0xBF53F2399AC046A5206B28F17D5D8690)
Complete name : H:\HEVC4\Святые из Бундока - The Boondock Saints (1999) BDRip-HEVC 1080p - KORSAR.mkv
Format : Matroska
Format version : Version 4 / Version 2
File size : 9.40 GiB
Duration : 1 h 48 min
Overall bit rate : 12.4 Mb/s
Movie name : The Boondock Saints (1999)_rip_by_Cthulhu
Encoded date : UTC 2020-03-26 18:04:12
Writing application : mkvmerge v37.0.0 ('Leave It') 64-bit
Writing library : libebml v1.3.9 + libmatroska v1.5.2
Cover : Yes
Attachments : cover14.jpg

Video
ID : 1
Format : HEVC
Format/Info : High Efficiency Video Coding
Format profile : Main 10@L4.1@High
Codec ID : V_MPEGH/ISO/HEVC
Duration : 1 h 48 min
Bit rate : 9 788 kb/s
Width : 1 920 pixels
Height : 816 pixels
Display aspect ratio : 2.35:1
Frame rate mode : Constant
Frame rate : 23.976 (24000/1001) FPS
Color space : YUV
Chroma subsampling : 4:2:0
Bit depth : 10 bits
Bits/(Pixel*Frame) : 0.261
Stream size : 7.41 GiB (79%)
Writing library : x265 3.3+2-gbe2d82093:[Windows][GCC 10.0.1][64 bit] 10bit
Encoding settings : cpuid=1111039 / frame-threads=4 / numa-pools=16 / wpp / no-pmode / no-pme / no-psnr / no-ssim / log-level=2 / input-csp=1 / input-res=1920x816 / interlace=0 / total-frames=156007 / level-idc=41 / high-tier=1 / uhd-bd=0 / ref=6 / no-allow-non-conformance / no-repeat-headers / annexb / no-aud / no-hrd / info / hash=0 / no-temporal-layers / open-gop / min-keyint=23 / keyint=240 / gop-lookahead=0 / bframes=10 / b-adapt=2 / b-pyramid / bframe-bias=0 / rc-lookahead=60 / lookahead-slices=1 / scenecut=40 / hist-scenecut=0 / radl=0 / no-splice / no-intra-refresh / ctu=32 / min-cu-size=8 / rect / amp / max-tu-size=32 / tu-inter-depth=4 / tu-intra-depth=4 / limit-tu=1 / rdoq-level=2 / dynamic-rd=0.00 / no-ssim-rd / signhide / no-tskip / nr-intra=0 / nr-inter=0 / no-constrained-intra / no-strong-intra-smoothing / max-merge=5 / limit-refs=3 / limit-modes / me=3 / subme=7 / merange=57 / temporal-mvp / no-frame-dup / hme / Level / merange / L0,L1,L2=16,32,57 / weightp / weightb / no-analyze-src-pics / deblock=-2:-1 / no-sao / no-sao-non-deblock / rd=6 / selective-sao=0 / no-early-skip / rskip / rskip-edge-threshold=0.050000 / no-fast-intra / no-tskip-fast / no-cu-lossless / no-b-intra / no-splitrd-skip / rdpenalty=0 / psy-rd=2.00 / psy-rdoq=1.00 / no-rd-refine / no-lossless / cbqpoffs=0 / crqpoffs=0 / rc=crf / crf=19.7 / qcomp=0.68 / qpstep=4 / stats-write=0 / stats-read=0 / vbv-maxrate=50000 / vbv-bufsize=50000 / vbv-init=0.9 / crf-max=0.0 / crf-min=0.0 / ipratio=1.40 / pbratio=1.30 / aq-mode=4 / aq-strength=0.80 / no-cutree / zone-count=0 / no-strict-cbr / qg-size=32 / no-rc-grain / qpmax=69 / qpmin=0 / no-const-vbv / sar=1 / overscan=0 / videoformat=5 / range=0 / colorprim=1 / transfer=1 / colormatrix=1 / chromaloc=0 / display-window=0 / cll=0,0 / min-luma=0 / max-luma=1023 / log2-max-poc-lsb=8 / vui-timing-info / vui-hrd-info / slices=1 / no-opt-qp-pps / no-opt-ref-list-length-pps / no-multi-pass-opt-rps / scenecut-bias=0.05 / hist-threshold=0.01 / no-opt-cu-delta-qp / no-aq-motion / no-hdr10 / no-hdr10-opt / no-dhdr10-opt / no-idr-recovery-sei / analysis-reuse-level=0 / analysis-save-reuse-level=0 / analysis-load-reuse-level=0 / scale-factor=0 / refine-intra=0 / refine-inter=0 / refine-mv=1 / refine-ctu-distortion=0 / no-limit-sao / ctu-info=0 / no-lowpass-dct / refine-analysis-type=0 / copy-pic=1 / max-ausize-factor=1.0 / no-dynamic-refine / no-single-sei / no-hevc-aq / no-svt / no-field / qp-adaptation-range=1.00 / no-scenecut-aware-qpconformance-window-offsets / right=0 / bottom=0
Language : English
Default : Yes
Forced : No
Color range : Limited
Color primaries : BT.709
Transfer characteristics : BT.709
Matrix coefficients : BT.709

Audio #1
ID : 2
Format : AC-3
Format/Info : Audio Coding 3
Commercial name : Dolby Digital
Codec ID : A_AC3
Duration : 1 h 48 min
Bit rate mode : Constant
Bit rate : 448 kb/s
Channel(s) : 6 channels
Channel layout : L R C LFE Ls Rs
Sampling rate : 48.0 kHz
Frame rate : 31.250 FPS (1536 SPF)
Bit depth : 16 bits
Compression mode : Lossy
Stream size : 348 MiB (4%)
Title : MVO (Tycoon)
Language : Russian
Service kind : Complete Main
Default : Yes
Forced : No

Audio #2
ID : 3
Format : AC-3
Format/Info : Audio Coding 3
Commercial name : Dolby Digital
Codec ID : A_AC3
Duration : 1 h 48 min
Bit rate mode : Constant
Bit rate : 448 kb/s
Channel(s) : 6 channels
Channel layout : L R C LFE Ls Rs
Sampling rate : 48.0 kHz
Frame rate : 31.250 FPS (1536 SPF)
Bit depth : 16 bits
Compression mode : Lossy
Stream size : 348 MiB (4%)
Title : MVO (Total DVD)
Language : Russian
Service kind : Complete Main
Default : No
Forced : No

Audio #3
ID : 4
Format : AC-3
Format/Info : Audio Coding 3
Commercial name : Dolby Digital
Codec ID : A_AC3
Duration : 1 h 48 min
Bit rate mode : Constant
Bit rate : 448 kb/s
Channel(s) : 6 channels
Channel layout : L R C LFE Ls Rs
Sampling rate : 48.0 kHz
Frame rate : 31.250 FPS (1536 SPF)
Bit depth : 16 bits
Compression mode : Lossy
Stream size : 347 MiB (4%)
Title : DVO (Союз)
Language : Russian
Service kind : Complete Main
Default : No
Forced : No

Audio #4
ID : 5
Format : AC-3
Format/Info : Audio Coding 3
Commercial name : Dolby Digital
Codec ID : A_AC3
Duration : 1 h 48 min
Bit rate mode : Constant
Bit rate : 640 kb/s
Channel(s) : 6 channels
Channel layout : L R C LFE Ls Rs
Sampling rate : 48.0 kHz
Frame rate : 31.250 FPS (1536 SPF)
Bit depth : 16 bits
Compression mode : Lossy
Stream size : 496 MiB (5%)
Title : AVO (Пучков Goblin)
Language : Russian
Service kind : Complete Main
Default : No
Forced : No

Audio #5
ID : 6
Format : AC-3
Format/Info : Audio Coding 3
Commercial name : Dolby Digital
Codec ID : A_AC3
Duration : 1 h 48 min
Bit rate mode : Constant
Bit rate : 640 kb/s
Channel(s) : 6 channels
Channel layout : L R C LFE Ls Rs
Sampling rate : 48.0 kHz
Frame rate : 31.250 FPS (1536 SPF)
Bit depth : 16 bits
Compression mode : Lossy
Stream size : 496 MiB (5%)
Language : English
Service kind : Complete Main
Default : No
Forced : No

Text #1
ID : 7
Format : UTF-8
Codec ID : S_TEXT/UTF8
Codec ID/Info : UTF-8 Plain Text
Duration : 1 h 45 min
Bit rate : 104 b/s
Count of elements : 1369
Stream size : 80.5 KiB (0%)
Language : Russian
Default : No
Forced : No

Text #2
ID : 8
Format : UTF-8
Codec ID : S_TEXT/UTF8
Codec ID/Info : UTF-8 Plain Text
Duration : 1 h 45 min
Bit rate : 74 b/s
Count of elements : 1396
Stream size : 57.3 KiB (0%)
Language : English
Default : No
Forced : No

Menu
00:00:00.000 : en:1. A Monster
00:05:33.374 : en:2. Yard Sale
00:08:37.141 : en:3. Strangely Comfortable
00:15:21.295 : en:4. Closure
00:19:22.494 : en:5. Recruitment
00:22:28.680 : en:6. The Funny Man
00:26:34.342 : en:7. Dropping In
00:33:09.862 : en:8. Pay the Toll
00:35:58.573 : en:9. Suit Up
00:40:21.919 : en:10. Call to Duty
00:44:50.896 : en:11. Feed the Dogs
00:49:43.814 : en:12. Just a Bar Fight
00:54:08.495 : en:13. Need a Favor
00:59:01.246 : en:14. Classic Forensics
01:02:58.608 : en:15. St. Patty's Day
01:07:15.698 : en:16. Main Credits/Indifference of Good Men
01:11:27.491 : en:17. Party Crashers
01:17:07.122 : en:18. Armageddon
01:21:29.092 : en:19. Liability
01:26:09.914 : en:20. Advice
01:30:54.407 : en:21. Saint Down
01:33:29.979 : en:22. Entertainment
01:38:53.344 : en:23. Justice
01:43:08.390 : en:24. Saint Hunt/End Credits
Загрузка...Cкриншот1 Святые из Бундока (Святые из трущоб) / The Boondock Saints (1999) BDRip 1080p [HEVC] 10 bit от Cthulhu (RG KORSAR)Загрузка...Cкриншот2 Святые из Бундока (Святые из трущоб) / The Boondock Saints (1999) BDRip 1080p [HEVC] 10 bit от Cthulhu (RG KORSAR)Загрузка...Cкриншот3 Святые из Бундока (Святые из трущоб) / The Boondock Saints (1999) BDRip 1080p [HEVC] 10 bit от Cthulhu (RG KORSAR)Загрузка...Cкриншот4 Святые из Бундока (Святые из трущоб) / The Boondock Saints (1999) BDRip 1080p [HEVC] 10 bit от Cthulhu (RG KORSAR)
Поблагодарили: 12Alex302, bs158250, FFantasy, Kiran, ko1ob, makss333, maximka, Nuclear70, sabretooth, SoulBoy, Undervest, zzzlayasss
Файлы: 1
  • Святые из Бундока - The Boondock Saints (1999) BDRip-HEVC 1080p - KORSAR.mkv

Рейтинги КП и IMDB, кнопки "Раздайте, пожалуйста" и "Спасибо", а также мультитрекерная статистика доступны только зарегистрированным/авторизованным пользователям!

Cthulhu
0071829.4 ГБ

💬︎ Комментарии

Добавление комментариев доступно только зарегистрированным/авторизованным пользователям.

Всего: 2
Аватар BOPOHA
BOPOHA
А еще Уиллем Дефо шикарно сыграл!
Аватар не указан
EiffeL
В этом фильме главное - озвучка Гоблина.