Чат

⚫︎
Список изменений сайта - https://rips.club/changelog.html (обновлен 24.05.2024)
  • arwis
Онлайн (за 10 мин.): 1
Отправка сообщений доступна только зарегистрированным/авторизованным пользователям.

🎨︎Рататуй / Ratatouille (2007) BDRip 1080p [HEVC] 10 bit от Мичман


Обложка Рататуй / Ratatouille (2007) BDRip 1080p [HEVC] 10 bit от Мичман
HEVC
10 bit
✂︎Сэмпл⤓︎Торрент🧲︎Магнет$Пожертвования
Год: 2007
Страна: США
Студия: Walt Disney Pictures, Pixar Animation Studios
Жанр: Мультфильм, Приключения, Комедия, Семейный
Длительность: 01:50:58

Режиссер: Брэд Бёрд, Ян Пинкава
В ролях: Пэттон Освальт, Иэн Холм, Лу Романо, Брайан Деннехи, Питер Сон, Питер О’Тул, Брэд Гэррет, Джанин Гарофало, Уилл Арнетт, Джулиус Каллахан

Описание: Крыс Реми обладает уникальным вкусом. Он готов рисковать собственной жизнью, чтобы посмотреть любимое кулинарное шоу и раздобыть какую-нибудь приправку или просто свежий продукт. Реми живет со своими сородичами, которые его не понимают и не принимают его увлечения кулинарией. Когда Реми случайно попадает на кухню шикарного ресторана, он решает воспользоваться выпавшим ему шансом и проверить свои навыки.


Видео: 1920x804, ~3998 Kbps
Аудио1: AC3, 6 ch, 640 Kbps - РусскийРусский, дублированный
Аудио2: AC3, 6 ch, 640 Kbps - УкраинскийУкраинский, дублированный
Аудио3: AC3, 6 ch, 640 Kbps - АнглийскийАнглийский
Субтитры: Русские (форсированные, полные), украинские (форсированные, полные), английские (полные, SDH)

Как за несколько секунд удалить ненужные аудиодорожки и субтитры (Внимание! После удаления вы не сможете поддержать раздачу)


Лог (x265 info)x265 [info]: frame I: Avg QP:14.38 kb/s
x265 [info]: frame P: Avg QP:15.83 kb/s
x265 [info]: frame B: Avg QP:18.69 kb/s
МедиаинфоОбщее
Уникальный идентификатор : 138765595487153622245072996381126411976 (0x686548144FFD62D19FA8975BD361C6C8)
Полное имя : R:Ratatouille (2007) BDRip-HEVC 1080p.mkv
Формат : Matroska
Версия формата : Version 4 / Version 2
Размер файла : 4,58 Гбайт
Продолжительность : 1 ч. 50 м.
Общий поток : 5906 Кбит/сек
Название фильма : Ratatouille (2007)
Дата кодирования : UTC 2020-04-24 16:33:01
Программа кодирования : mkvmerge v43.0.0 ('The Quartermaster') 64-bit
Библиотека кодирования : libebml v1.3.10 + libmatroska v1.5.2
Обложка : Yes
Attachments : cover.jpg

Видео
Идентификатор : 1
Формат : HEVC
Формат/Информация : High Efficiency Video Coding
Профиль формата : Main 10@L4.1@High
Идентификатор кодека : V_MPEGH/ISO/HEVC
Продолжительность : 1 ч. 50 м.
Битрейт : 3998 Кбит/сек
Ширина : 1920 пикселей
Высота : 804 пикселя
Соотношение сторон : 2,40:1
Режим частоты кадров : Постоянный
Частота кадров : 23,976 (23976/1000) кадра/сек
Частота кадров в оригинале : 23,976 (24000/1001) кадра/сек
Цветовое пространство : YUV
Субдискретизация насыщенности : 4:2:0
Битовая глубина : 10 бит
Бит/(Пиксели*Кадры) : 0.108
Размер потока : 3,09 Гбайт (67%)
Библиотека кодирования : x265 3.3+1-g554c887ac:[Windows][MSVC 1924][64 bit] 10bit
Настройки программы : cpuid=1111039 / frame-threads=3 / numa-pools=12 / wpp / no-pmode / no-pme / no-psnr / no-ssim / log-level=2 / input-csp=1 / input-res=1920x804 / interlace=0 / total-frames=159042 / level-idc=41 / high-tier=1 / uhd-bd=0 / ref=5 / no-allow-non-conformance / no-repeat-headers / annexb / no-aud / no-hrd / info / hash=0 / no-temporal-layers / open-gop / min-keyint=23 / keyint=240 / gop-lookahead=0 / bframes=12 / b-adapt=2 / b-pyramid / bframe-bias=0 / rc-lookahead=60 / lookahead-slices=4 / scenecut=40 / hist-scenecut=0 / radl=0 / no-splice / no-intra-refresh / ctu=32 / min-cu-size=8 / rect / amp / max-tu-size=32 / tu-inter-depth=4 / tu-intra-depth=4 / limit-tu=1 / rdoq-level=2 / dynamic-rd=0.00 / no-ssim-rd / signhide / no-tskip / nr-intra=0 / nr-inter=0 / no-constrained-intra / no-strong-intra-smoothing / max-merge=4 / limit-refs=2 / limit-modes / me=3 / subme=7 / merange=57 / temporal-mvp / no-frame-dup / no-hme / weightp / weightb / no-analyze-src-pics / deblock=-3:-3 / no-sao / no-sao-non-deblock / rd=6 / selective-sao=0 / no-early-skip / no-rskip / no-fast-intra / no-tskip-fast / no-cu-lossless / no-b-intra / no-splitrd-skip / rdpenalty=0 / psy-rd=2.00 / psy-rdoq=1.00 / no-rd-refine / no-lossless / cbqpoffs=0 / crqpoffs=0 / rc=crf / crf=19.0 / qcomp=0.60 / qpstep=4 / stats-write=0 / stats-read=0 / vbv-maxrate=50000 / vbv-bufsize=50000 / vbv-init=0.9 / crf-max=0.0 / crf-min=0.0 / ipratio=1.40 / pbratio=1.30 / aq-mode=1 / aq-strength=1.00 / no-cutree / zone-count=0 / no-strict-cbr / qg-size=32 / no-rc-grain / qpmax=69 / qpmin=0 / no-const-vbv / sar=1 / overscan=0 / videoformat=5 / range=0 / colorprim=1 / transfer=1 / colormatrix=1 / chromaloc=0 / display-window=0 / cll=0,0 / min-luma=0 / max-luma=1023 / log2-max-poc-lsb=8 / vui-timing-info / vui-hrd-info / slices=1 / no-opt-qp-pps / no-opt-ref-list-length-pps / no-multi-pass-opt-rps / scenecut-bias=0.05 / hist-threshold=0.01 / no-opt-cu-delta-qp / no-aq-motion / no-hdr10 / no-hdr10-opt / no-dhdr10-opt / no-idr-recovery-sei / analysis-reuse-level=0 / analysis-save-reuse-level=0 / analysis-load-reuse-level=0 / scale-factor=0 / refine-intra=0 / refine-inter=0 / refine-mv=1 / refine-ctu-distortion=0 / no-limit-sao / ctu-info=0 / no-lowpass-dct / refine-analysis-type=0 / copy-pic=1 / max-ausize-factor=1.0 / no-dynamic-refine / no-single-sei / no-hevc-aq / no-svt / no-field / qp-adaptation-range=1.00 / no-scenecut-aware-qpconformance-window-offsets / right=0 / bottom=0
Default : Да
Forced : Нет
Цветовой диапазон : Limited
Основные цвета : BT.709
Характеристики трансфера : BT.709
Коэффициенты матрицы : BT.709

Аудио #1
Идентификатор : 2
Формат : AC-3
Формат/Информация : Audio Coding 3
Идентификатор кодека : A_AC3
Продолжительность : 1 ч. 50 м.
Вид битрейта : Постоянный
Битрейт : 640 Кбит/сек
Каналы : 6 каналов
Расположение каналов : Front: L C R, Side: L R, LFE
Частота : 48,0 КГц
Частота кадров : 31,250 кадров/сек (1536 SPF)
Битовая глубина : 16 бит
Метод сжатия : С потерями
Задержка видео : 1 с. 0 мс.
Размер потока : 508 Мбайт (11%)
Заголовок : Дубляж - BD EUR
Язык : Russian
ServiceKind/Strin : Complete Main
Default : Да
Forced : Нет

Аудио #2
Идентификатор : 3
Формат : AC-3
Формат/Информация : Audio Coding 3
Идентификатор кодека : A_AC3
Продолжительность : 1 ч. 50 м.
Вид битрейта : Постоянный
Битрейт : 640 Кбит/сек
Каналы : 6 каналов
Расположение каналов : Front: L C R, Side: L R, LFE
Частота : 48,0 КГц
Частота кадров : 31,250 кадров/сек (1536 SPF)
Битовая глубина : 16 бит
Метод сжатия : С потерями
Задержка видео : 1 с. 0 мс.
Размер потока : 508 Мбайт (11%)
Заголовок : Дубляж - BD EUR
Язык : Ukrainian
ServiceKind/Strin : Complete Main
Default : Нет
Forced : Нет

Аудио #3
Идентификатор : 4
Формат : AC-3
Формат/Информация : Audio Coding 3
Идентификатор кодека : A_AC3
Продолжительность : 1 ч. 50 м.
Вид битрейта : Постоянный
Битрейт : 640 Кбит/сек
Каналы : 6 каналов
Расположение каналов : Front: L C R, Side: L R, LFE
Частота : 48,0 КГц
Частота кадров : 31,250 кадров/сек (1536 SPF)
Битовая глубина : 16 бит
Метод сжатия : С потерями
Задержка видео : 1 с. 0 мс.
Размер потока : 508 Мбайт (11%)
Заголовок : Original - BD 3D
Язык : English
ServiceKind/Strin : Complete Main
Default : Нет
Forced : Нет

Текст #1
Идентификатор : 5
Формат : UTF-8
Идентификатор кодека : S_TEXT/UTF8
Идентификатор кодека/Информация : UTF-8 Plain Text
Продолжительность : 1 ч. 42 м.
Битрейт : 2 бит/сек
ElementCount : 40
Размер потока : 1,88 Кбайт (0%)
Заголовок : Форсированные
Язык : Russian
Default : Да
Forced : Нет

Текст #2
Идентификатор : 6
Формат : UTF-8
Идентификатор кодека : S_TEXT/UTF8
Идентификатор кодека/Информация : UTF-8 Plain Text
Продолжительность : 1 ч. 42 м.
Битрейт : 103 бит/сек
ElementCount : 1338
Размер потока : 77,5 Кбайт (0%)
Заголовок : Полные
Язык : Russian
Default : Нет
Forced : Нет

Текст #3
Идентификатор : 7
Формат : UTF-8
Идентификатор кодека : S_TEXT/UTF8
Идентификатор кодека/Информация : UTF-8 Plain Text
Продолжительность : 1 ч. 42 м.
Битрейт : 2 бит/сек
ElementCount : 32
Размер потока : 1,54 Кбайт (0%)
Заголовок : Форсированные
Язык : Ukrainian
Default : Нет
Forced : Нет

Текст #4
Идентификатор : 8
Формат : UTF-8
Идентификатор кодека : S_TEXT/UTF8
Идентификатор кодека/Информация : UTF-8 Plain Text
Продолжительность : 1 ч. 42 м.
Битрейт : 109 бит/сек
ElementCount : 1339
Размер потока : 81,9 Кбайт (0%)
Заголовок : Полные
Язык : Ukrainian
Default : Нет
Forced : Нет

Текст #5
Идентификатор : 9
Формат : UTF-8
Идентификатор кодека : S_TEXT/UTF8
Идентификатор кодека/Информация : UTF-8 Plain Text
Продолжительность : 1 ч. 42 м.
Битрейт : 63 бит/сек
ElementCount : 1301
Размер потока : 47,7 Кбайт (0%)
Заголовок : Full
Язык : English
Default : Нет
Forced : Нет

Текст #6
Идентификатор : 10
Формат : UTF-8
Идентификатор кодека : S_TEXT/UTF8
Идентификатор кодека/Информация : UTF-8 Plain Text
Продолжительность : 1 ч. 42 м.
Битрейт : 69 бит/сек
ElementCount : 1599
Размер потока : 52,1 Кбайт (0%)
Заголовок : SDH
Язык : English
Default : Нет
Forced : Нет

Меню
00:00:00.000 : :1
00:01:15.242 : :2
00:06:28.471 : :3
00:09:21.936 : :4
00:10:57.115 : :5
00:13:30.017 : :6
00:17:39.058 : :7
00:19:36.592 : :8
00:24:47.361 : :9
00:28:54.274 : :10
00:33:04.107 : :11
00:38:12.457 : :12
00:40:32.180 : :13
00:44:10.272 : :14
00:46:58.357 : :15
00:51:26.708 : :16
00:57:01.209 : :17
00:59:31.359 : :18
01:00:52.565 : :19
01:07:18.785 : :20
01:11:24.697 : :21
01:15:27.272 : :22
01:19:24.134 : :23
01:23:29.171 : :24
01:25:33.503 : :25
01:28:17.375 : :26
01:32:38.052 : :27
01:35:40.484 : :28
01:38:48.756 : :29
01:40:53.714 : :30
01:42:58.005 : :31
Загрузка...Cкриншот1 Рататуй / Ratatouille (2007) BDRip 1080p [HEVC] 10 bit от МичманЗагрузка...Cкриншот2 Рататуй / Ratatouille (2007) BDRip 1080p [HEVC] 10 bit от МичманЗагрузка...Cкриншот3 Рататуй / Ratatouille (2007) BDRip 1080p [HEVC] 10 bit от МичманЗагрузка...Cкриншот4 Рататуй / Ratatouille (2007) BDRip 1080p [HEVC] 10 bit от Мичман
Поблагодарили: 9andreynnn, curly2, DjBadan, ilyich05, Laska020489, normalllhuman, pel_fam, sabretooth, sharkey71
Файлы: 1
  • Ratatouille (2007) BDRip-HEVC 1080p.mkv

Рейтинги КП и IMDB, кнопки "Раздайте, пожалуйста" и "Спасибо", а также мультитрекерная статистика доступны только зарегистрированным/авторизованным пользователям!

OldGamer
1123604.58 ГБ

💬︎ Комментарии

Добавление комментариев доступно только зарегистрированным/авторизованным пользователям.