Чат

⚫︎
Список изменений сайта - https://rips.club/changelog.html (обновлен 24.05.2024)
  • arwis
  • justmkr
  • Денис
Онлайн (за 10 мин.): 3
Отправка сообщений доступна только зарегистрированным/авторизованным пользователям.

🎥︎Последний легион / The Last Legion (2006) BDRip 1080p [HEVC] 10 bit от OldGamer (RG RIPS CLUB)


Обложка Последний легион / The Last Legion (2006) BDRip 1080p [HEVC] 10 bit от OldGamer (RG RIPS CLUB)
HEVC
10 bit
✂︎Сэмпл⤓︎Торрент🧲︎Магнет$Пожертвования

При перезаливке на другие сайты просьба указать автора и релиз-группу.


Год: 2006
Страна: Великобритания, Франция, Словакия, Тунис, Италия
Студия: Dino De Laurentiis Productions, Ingenious Film Partners, Quinta Communications, Zephyr Films
Жанр: Боевик, Приключения, Военный, История
Длительность: 01:41:55

Режиссер: Даг Лефлер
В ролях: Колин Ферт, Бен Кингсли, Айшвария Рай, Питер Муллан, Кевин МакКидд, Джон Ханна, Йен Глен, Томас Броди Сэнгстер, Руперт Френд, Нонсо Аноци, Оуэн Тил, Александр Сиддиг

Описание: 476 год нашей эры. Римская империя в агонии… Династия Цезарей повержена... Последнего императора, 12-летнего Ромулуса Августуса, правившего страной всего один день, варвары заключают в темницу на острове Капри. Однако с помощью своего учителя и легионера Августус совершает побег и отправляется в рискованное путешествие к берегам Британии, чтобы возглавить Девятый легион, единственный сохранивший верность Риму. Последний легион... Августус должен спасти страну, вернуть власть, восстановить династию. Кому соблаговолит Небо в решающей битве?..


Релиз-группа: RIPS CLUB
Исходник: Blu-Ray Remux 1080p (rutracker)
Видео: 1912x796 (2.40:1), 11,0 Мбит/сек, HEVC (Main10@L.4.1@High)
Аудио1: AC3, 6 ch, 640 Kbps - РусскийРусский, DUB
Аудио2: AC3, 6 ch, 640 Kbps - АнглийскийАнглийский
Субтитры: русские, английские

Как за несколько секунд удалить ненужные аудиодорожки и субтитры (Внимание! После удаления вы не сможете поддержать раздачу)


Лог (x265 info)x265 [info]: frame I: 615, Avg QP:18.01 kb/s: 28070.60
x265 [info]: frame P: 30168, Avg QP:19.71 kb/s: 19640.61
x265 [info]: frame B: 115832, Avg QP:21.51 kb/s: 8704.58
x265 [info]: Weighted P-Frames: Y:13.6% UV:10.4%
x265 [info]: Weighted B-Frames: Y:14.9% UV:10.1%
x265 [info]: consecutive B-frames: 2.0% 4.0% 11.0% 32.8% 13.0% 29.0% 4.4% 2.8% 0.6% 0.2% 0.1% 0.1% 0.0%
x265 [info]: encoded 146615 frames in 103334.32s (1.42 fps), 11036.05 kb/s, Avg QP:21.13
МедиаинфоОбщее
Уникальный идентификатор : 257680512639054464976965904148184600783 (0xC1DB76275507431FE51AC08D44DE90CF)
Полное имя : \\.\Последний.легион.The.Last.Legion.2006.BDRip-HEVC.1080p.mkv
Формат : Matroska
Версия формата : Version 4
Размер файла : 8,77 Гбайт
Продолжительность : 1 ч. 41 м.
Общий поток : 12,3 Мбит/сек
Название фильма : Последний.легион.The.Last.Legion.2006.BDRip-HEVC.1080p
Дата кодирования : UTC 2022-10-01 20:10:35
Программа кодирования : mkvmerge v70.0.0 ('Caught A Lite Sneeze') 64-bit
Библиотека кодирования : libebml v1.4.2 + libmatroska v1.6.4

Видео
Идентификатор : 1
Формат : HEVC
Формат/Информация : High Efficiency Video Coding
Профиль формата : Main 10@L4.1@High
Идентификатор кодека : V_MPEGH/ISO/HEVC
Продолжительность : 1 ч. 41 м.
Битрейт : 11,0 Мбит/сек
Ширина : 1 912 пикселей
Высота : 796 пикселей
Соотношение сторон : 2,40:1
Режим частоты кадров : Постоянный
Частота кадров : 23,976 (24000/1001) кадра/сек
Цветовое пространство : YUV
Субдискретизация насыщенности : 4:2:0
Битовая глубина : 10 бит
Бит/(Пиксели*Кадры) : 0.302
Размер потока : 7,86 Гбайт (90%)
Заголовок : The Last Legion / Rip by OldGamer
Библиотека кодирования : x265 3.5+35-e3713124d:[Windows][GCC 11.2.0][64 bit] 10bit
Настройки программы : cpuid=1111039 / frame-threads=3 / numa-pools=8 / wpp / no-pmode / no-pme / no-psnr / no-ssim / log-level=2 / input-csp=1 / input-res=1912x796 / interlace=0 / total-frames=146615 / level-idc=41 / high-tier=1 / uhd-bd=0 / ref=5 / no-allow-non-conformance / no-repeat-headers / annexb / no-aud / no-eob / no-eos / no-hrd / info / hash=0 / no-temporal-layers / open-gop / min-keyint=23 / keyint=240 / gop-lookahead=0 / bframes=12 / b-adapt=2 / b-pyramid / bframe-bias=0 / rc-lookahead=40 / lookahead-slices=0 / scenecut=40 / no-hist-scenecut / radl=0 / no-splice / no-intra-refresh / ctu=32 / min-cu-size=8 / rect / amp / max-tu-size=32 / tu-inter-depth=4 / tu-intra-depth=4 / limit-tu=1 / rdoq-level=2 / dynamic-rd=0.00 / no-ssim-rd / signhide / no-tskip / nr-intra=0 / nr-inter=0 / no-constrained-intra / no-strong-intra-smoothing / max-merge=5 / limit-refs=3 / no-limit-modes / me=3 / subme=7 / merange=57 / temporal-mvp / no-frame-dup / no-hme / weightp / weightb / no-analyze-src-pics / deblock=-2:-2 / no-sao / no-sao-non-deblock / rd=6 / selective-sao=0 / no-early-skip / no-rskip / no-fast-intra / no-tskip-fast / no-cu-lossless / b-intra / no-splitrd-skip / rdpenalty=0 / psy-rd=2.00 / psy-rdoq=1.00 / no-rd-refine / no-lossless / cbqpoffs=0 / crqpoffs=0 / rc=crf / crf=18.7 / qcomp=0.70 / qpstep=4 / stats-write=0 / stats-read=0 / vbv-maxrate=50000 / vbv-bufsize=50000 / vbv-init=0.9 / min-vbv-fullness=50.0 / max-vbv-fullness=80.0 / crf-max=0.0 / crf-min=0.0 / ipratio=1.40 / pbratio=1.30 / aq-mode=1 / aq-strength=1.00 / no-cutree / zone-count=1 / zones: / start-frame=138729 / end-frame=146615 / qp=36 / no-strict-cbr / qg-size=32 / no-rc-grain / qpmax=69 / qpmin=0 / no-const-vbv / sar=1 / overscan=0 / videoformat=5 / range=0 / colorprim=2 / transfer=2 / colormatrix=2 / chromaloc=0 / display-window=0 / cll=0,0 / min-luma=0 / max-luma=1023 / log2-max-poc-lsb=8 / vui-timing-info / vui-hrd-info / slices=1 / no-opt-qp-pps / no-opt-ref-list-length-pps / no-multi-pass-opt-rps / scenecut-bias=0.00 / hist-threshold=0.03 / no-opt-cu-delta-qp / no-aq-motion / no-hdr10 / no-hdr10-opt / no-dhdr10-opt / no-idr-recovery-sei / analysis-reuse-level=0 / analysis-save-reuse-level=0 / analysis-load-reuse-level=0 / scale-factor=0 / refine-intra=0 / refine-inter=0 / refine-mv=1 / refine-ctu-distortion=0 / no-limit-sao / ctu-info=0 / no-lowpass-dct / refine-analysis-type=0 / copy-pic=1 / max-ausize-factor=1.0 / no-dynamic-refine / no-single-sei / no-hevc-aq / no-svt / no-field / qp-adaptation-range=1.00 / scenecut-aware-qp=0conformance-window-offsets / right=0 / bottom=0 / decoder-max-rate=0 / no-vbv-live-multi-pass
Язык : English
Default : Да
Forced : Нет

Аудио #1
Идентификатор : 2
Формат : AC-3
Формат/Информация : Audio Coding 3
Коммерческое название : Dolby Digital
Идентификатор кодека : A_AC3
Продолжительность : 1 ч. 41 м.
Вид битрейта : Постоянный
Битрейт : 640 Кбит/сек
Каналы : 6 каналов
Channel layout : L R C LFE Ls Rs
Частота : 48,0 КГц
Частота кадров : 31,250 кадров/сек (1536 SPF)
Метод сжатия : С потерями
Размер потока : 467 Мбайт (5%)
Заголовок : DUB
Язык : Russian
Service kind : Complete Main
Default : Да
Forced : Нет

Аудио #2
Идентификатор : 3
Формат : AC-3
Формат/Информация : Audio Coding 3
Коммерческое название : Dolby Digital
Идентификатор кодека : A_AC3
Продолжительность : 1 ч. 41 м.
Вид битрейта : Постоянный
Битрейт : 640 Кбит/сек
Каналы : 6 каналов
Channel layout : L R C LFE Ls Rs
Частота : 48,0 КГц
Частота кадров : 31,250 кадров/сек (1536 SPF)
Метод сжатия : С потерями
Размер потока : 467 Мбайт (5%)
Язык : English
Service kind : Complete Main
Default : Нет
Forced : Нет

Текст #1
Идентификатор : 4
Формат : UTF-8
Идентификатор кодека : S_TEXT/UTF8
Идентификатор кодека/Информация : UTF-8 Plain Text
Продолжительность : 1 ч. 36 м.
Битрейт : 62 бит/сек
Частота кадров : 0,136 кадр/сек
Count of elements : 784
Размер потока : 44,0 Кбайт (0%)
Язык : Russian
Default : Нет
Forced : Нет

Текст #2
Идентификатор : 5
Формат : UTF-8
Идентификатор кодека : S_TEXT/UTF8
Идентификатор кодека/Информация : UTF-8 Plain Text
Продолжительность : 1 ч. 32 м.
Битрейт : 42 бит/сек
Частота кадров : 0,167 кадр/сек
Count of elements : 927
Размер потока : 28,6 Кбайт (0%)
Язык : English
Default : Нет
Forced : Нет

Меню
00:00:00.000 : Kapitel 01
00:09:07.338 : Kapitel 02
00:18:07.377 : Kapitel 03
00:25:35.825 : Kapitel 04
00:34:07.628 : Kapitel 05
00:43:32.693 : Kapitel 06
00:51:09.399 : Kapitel 07
00:58:58.993 : Kapitel 08
01:07:46.645 : Kapitel 09
01:17:52.042 : Kapitel 10
01:24:08.501 : Kapitel 11
01:34:00.301 : Kapitel 12
Загрузка...Cкриншот1 Последний легион / The Last Legion (2006) BDRip 1080p [HEVC] 10 bit от OldGamer (RG RIPS CLUB)Загрузка...Cкриншот2 Последний легион / The Last Legion (2006) BDRip 1080p [HEVC] 10 bit от OldGamer (RG RIPS CLUB)Загрузка...Cкриншот3 Последний легион / The Last Legion (2006) BDRip 1080p [HEVC] 10 bit от OldGamer (RG RIPS CLUB)Загрузка...Cкриншот4 Последний легион / The Last Legion (2006) BDRip 1080p [HEVC] 10 bit от OldGamer (RG RIPS CLUB)
История обновленийПерекодировано с устранением перекропа и некоторым повышением качества.
Поблагодарили: 6and50, denisptp4, ilyich05, IRIT, MIGRANT, Nuclear70
Файлы: 1
  • Последний.легион.The.Last.Legion.2006.BDRip-HEVC.1080p.mkv

Рейтинги КП и IMDB, кнопки "Раздайте, пожалуйста" и "Спасибо", а также мультитрекерная статистика доступны только зарегистрированным/авторизованным пользователям!

OldGamer
107108.77 ГБ

💬︎ Комментарии

Добавление комментариев доступно только зарегистрированным/авторизованным пользователям.