💬 Мини-чат

Для тех, кому интересен процесс переделки сайта - https://rips.club/changelog.html (обновлен 20.04.2024)
  • justmkr
  • MIGRANT
Отправка сообщений доступна только зарегистрированным/авторизованным пользователям.
Онлайн (за 10 мин.): 2

Легенды осени / Legends of the Fall (1994) BDRip 1080p [HEVC] 10 bit от HANNIBAL

HEVC
10 bit
Обложка Легенды осени / Legends of the Fall (1994) BDRip 1080p [HEVC] 10 bit от HANNIBAL Год: 1994
Страна: США
Жанр: Драма
Продолжительность: 02:12:50

Режиссер: Эдвард Цвик
В ролях: Брэд Питт, Энтони Хопкинс, Эйдан Куинн, Джулия Ормонд, Генри Томас, Карина Ломбард, Танту Кардинал, Гордон Тутусис, Пол Десмонд, Кристина Пиклз

Описание: «Некоторые люди очень ясно слышат свой внутренний голос, и живут так, как он им подсказывает. Такие люди сходят с ума. Или становятся легендами». Так начинается история семьи Ладлоу - стремительный и романтический рассказ о трех братьях, их отце и молодой и неотразимой женщине, которая роковым образом изменяет жизнь каждого из них. С детства трое братьев неразлучны, однако они еще не подозревают, по какой тропе страстей и насилия поведет жизнь каждого из них. Сквозь ужасы Первой Мировой, сквозь потерянные годы, последовавшие за войной, через любовь и потери, предательство и надежду. И в центре всегда оказывался недосягаемый, непредсказуемый Тристан.


Видео: 1920x1040, 5046 Kbps
Аудио1: AC3, 6 ch, 640 Kbps - РусскийРусский, Дублированный (Лицензия)
Аудио2: AC3, 6 ch, 640 Kbps - РусскийРусский, Одноголосый (С.Визгунов)
Субтитры: Русские

Как за пару секунд удалить ненужные аудиодорожки и субтитры (Внимание! После удаления вы не сможете поддержать раздачу)

Медиаинфо
General
Unique ID : 181989747036390404116156164065066965284 (0x88E9F34968BBF7A7A348751D9CCF5924)
Complete name : D:\ВИДЕО\[HEVC]\Legends of the Fall (1994) BDRip 1080p [HEVC] 10bit.mkv
Format : Matroska
Format version : Version 4 / Version 2
File size : 5.87 GiB
Duration : 2 h 12 min
Overall bit rate : 6 328 kb/s
Encoded date : UTC 2018-05-05 17:44:33
Writing application : mkvmerge v8.9.0 ('Father Daughter') 64bit
Writing library : libebml v1.3.3 + libmatroska v1.4.4 / Lavf57.71.100
Cover : Yes
Attachments : cover.jpg
ENCODING_INFO : MATROSKA,WEBM > MKV Пользовательский / H264 > X265 CBR 5100kbps Ultra Fast / AC3 > AC3 CBR 640kbps / DTS-HD HRA > AC3 CBR 640kbps

Video
ID : 1
Format : HEVC
Format/Info : High Efficiency Video Coding
Format profile : Main 10@L5.1@Main
Codec ID : V_MPEGH/ISO/HEVC
Duration : 2 h 12 min
Bit rate : 5 046 kb/s
Width : 1 920 pixels
Height : 1 040 pixels
Display aspect ratio : 1.85:1
Frame rate mode : Constant
Frame rate : 23.976 (24000/1001) FPS
Color space : YUV
Chroma subsampling : 4:2:0
Bit depth : 10 bits
Bits/(Pixel*Frame) : 0.105
Stream size : 4.68 GiB (80%)
Title : Легенды осени. Legends Of The Fall (Эдвард Цвик. Edward Zwick) [1994 г., США, драма, BDRemux 1080p]
Writing library : x265 2.7+336-07defe235cde:[Windows][clang 7.0.0][64 bit] 10bit
Encoding settings : cpuid=1049583 / frame-threads=5 / numa-pools=4 / wpp / no-pmode / no-pme / no-psnr / no-ssim / log-level=3 / input-csp=1 / input-res=1920x1040 / interlace=0 / total-frames=0 / level-idc=51 / high-tier=1 / uhd-bd=0 / ref=1 / allow-non-conformance / no-repeat-headers / annexb / no-aud / no-hrd / info / hash=0 / no-temporal-layers / open-gop / min-keyint=24 / keyint=240 / gop-lookahead=0 / bframes=3 / b-adapt=0 / b-pyramid / bframe-bias=0 / rc-lookahead=5 / lookahead-slices=6 / scenecut=0 / radl=0 / no-intra-refresh / ctu=64 / min-cu-size=8 / no-rect / no-amp / max-tu-size=32 / tu-inter-depth=1 / tu-intra-depth=1 / limit-tu=0 / rdoq-level=0 / dynamic-rd=0.00 / no-ssim-rd / signhide / no-tskip / nr-intra=0 / nr-inter=0 / no-constrained-intra / strong-intra-smoothing / max-merge=2 / limit-refs=3 / no-limit-modes / me=0 / subme=0 / merange=57 / temporal-mvp / no-weightp / no-weightb / no-analyze-src-pics / deblock=-2:-2 / sao / no-sao-non-deblock / rd=3 / no-early-skip / rskip / no-fast-intra / no-tskip-fast / no-cu-lossless / no-b-intra / no-splitrd-skip / rdpenalty=0 / psy-rd=2.00 / psy-rdoq=0.00 / no-rd-refine / no-lossless / cbqpoffs=0 / crqpoffs=0 / rc=cbr / bitrate=5100 / qcomp=0.60 / qpstep=4 / stats-write=0 / stats-read=0 / vbv-maxrate=5100 / vbv-bufsize=3642 / vbv-init=0.9 / ipratio=1.40 / pbratio=1.30 / aq-mode=1 / aq-strength=0.00 / cutree / zone-count=0 / no-strict-cbr / qg-size=32 / no-rc-grain / qpmax=69 / qpmin=0 / no-const-vbv / sar=1 / overscan=0 / videoformat=5 / range=0 / colorprim=1 / transfer=14 / colormatrix=1 / chromaloc=0 / display-window=0 / max-cll=0,0 / min-luma=0 / max-luma=1023 / log2-max-poc-lsb=8 / vui-timing-info / vui-hrd-info / slices=1 / no-opt-qp-pps / no-opt-ref-list-length-pps / no-multi-pass-opt-rps / scenecut-bias=0.05 / no-opt-cu-delta-qp / no-aq-motion / no-hdr / no-hdr-opt / no-dhdr10-opt / no-idr-recovery-sei / analysis-reuse-level=5 / scale-factor=0 / refine-intra=0 / refine-inter=0 / refine-mv=0 / no-limit-sao / ctu-info=0 / no-lowpass-dct / refine-mv-type=0 / copy-pic=1 / max-ausize-factor=1.0 / no-dynamic-refine / no-single-sei
Default : Yes
Forced : No
Color range : Limited
Color primaries : BT.709
Transfer characteristics : BT.2020 (10-bit)
Matrix coefficients : BT.709

Audio #1
ID : 2
Format : AC-3
Format/Info : Audio Coding 3
Codec ID : A_AC3
Duration : 2 h 12 min
Bit rate mode : Constant
Bit rate : 640 kb/s
Channel(s) : 6 channels
Channel positions : Front: L C R, Side: L R, LFE
Sampling rate : 48.0 kHz
Frame rate : 31.250 FPS (1536 SPF)
Bit depth : 16 bits
Compression mode : Lossy
Stream size : 608 MiB (10%)
Title : Dub, 5.1 channels, 640 kbps, 48000 Hz
Language : Russian
Service kind : Complete Main
Default : Yes
Forced : No

Audio #2
ID : 3
Format : AC-3
Format/Info : Audio Coding 3
Codec ID : A_AC3
Duration : 2 h 12 min
Bit rate mode : Constant
Bit rate : 640 kb/s
Channel(s) : 6 channels
Channel positions : Front: L C R, Side: L R, LFE
Sampling rate : 48.0 kHz
Frame rate : 31.250 FPS (1536 SPF)
Bit depth : 16 bits
Compression mode : Lossy
Stream size : 608 MiB (10%)
Title : AVO (S. Vizgunov), DTS-HD HR, 5.1 channels, 20466 kbps, 48000 Hz
Language : Russian
Service kind : Complete Main
Default : No
Forced : No

Text
ID : 4
Format : UTF-8
Codec ID : S_TEXT/UTF8
Codec ID/Info : UTF-8 Plain Text
Duration : 2 h 5 min
Bit rate : 1 b/s
Count of elements : 22
Stream size : 1.15 KiB (0%)
Title : DVO forsed
Language : Russian
Default : Yes
Forced : No

Menu
00:00:00.000 : :Start
00:02:07.500 : :Ludlow Family History
00:08:00.834 : :Susannah
00:13:08.501 : :Isabel Two
00:14:59.568 : :Dinner & Entertainment
00:21:48.569 : :O'Bannions & Sheriff Tynert
00:25:24.236 : :Tristan & Susannah
00:34:03.539 : :"The Horror's Indescribable"
00:39:49.074 : :Looking for Samuel
00:44:59.708 : :The Indian Way
00:50:00.008 : :"I'm in love with you"
00:52:30.909 : :Tristan Returns
00:56:43.909 : :Passion Consummated
00:59:26.409 : :Alfred Leaves
01:05:53.744 : :Four Beers
01:07:30.578 : :The Bear's Voice
01:09:05.279 : :"I'll Wait Forever"
01:11:59.147 : :Letter For Herself
01:17:27.816 : :Defending Tristan
01:21:58.849 : :Tristan Comes Home
01:30:22.417 : :All Grown Up
01:32:19.252 : :The Oddest News
01:37:13.187 : :Bootlegger's Meeting
01:38:17.822 : :Family Reunion
01:41:52.690 : :"Stay Out Of Our Way"
01:47:12.957 : :Prison Visitor
01:53:41.125 : :Revenge & Suicide
02:00:20.526 : :Not Here To Arrest Him
Загрузка...Cкриншот1 Легенды осени / Legends of the Fall (1994) BDRip 1080p [HEVC] 10 bit от HANNIBALЗагрузка...Cкриншот2 Легенды осени / Legends of the Fall (1994) BDRip 1080p [HEVC] 10 bit от HANNIBALЗагрузка...Cкриншот3 Легенды осени / Legends of the Fall (1994) BDRip 1080p [HEVC] 10 bit от HANNIBALЗагрузка...Cкриншот4 Легенды осени / Legends of the Fall (1994) BDRip 1080p [HEVC] 10 bit от HANNIBAL
Сэмпл Торрент🧲 Магнет

Рейтинги КП и IMDB, кнопки "Позвать в чате" и "Спасибо", а также мультитрекерная статистика доступны только зарегистрированным/авторизованным пользователям!

Файлы: 1
  • Legends of the Fall (1994) BDRip 1080p [HEVC] 10bit.mkv   5.87 ГБ
Поблагодарили: 4
GIS88, hold, ko1ob, Korbis
HANNIBAL
1122005.87 ГБ

Добавление нового комментария

Добавление комментариев доступно только зарегистрированным/авторизованным пользователям.
Аватар не указан
  Korbis  
Дубляж, сам по себе отвратительный, лучше с другой озвучкой скачать на торрентах.