💬 Мини-чат

NoMaDAdmin, купил HDD на три гига за 4000 тысячи. С рук, 2015 года выпуска, но в заводской упаковке
AdminЗВ сегодня думаю выложу
AdminNoMaD, да я тут уже пару недель занят был поисками HDD. Мои 2 по 3 ТБ уже забиты.
Adminтолько что по объявлению купил 4 ТБ в заводской упаковке, привезенный из США, за примерно 6300 руб. Без гарантии конечно, но учитывая нынешние цены на HDD, думаю выгодная покупка.
NoMaDAdmin, глаза закрыл и уснул на несколько дней - уже давно скачаны Звёздные войны, трилогия Бегущего в лабиринте наверное тоже, но почему то выкладывать это никто не торопится
NoMaDСообщение удалено (удалил: NoMaD)
Adminглаза закрыл
OldGamerЯ забыл про страну Доставки, тогда не смотри Германию
OldGamerПосмотри ещё из Германии, хотя амазоновские цены выглядят привлекательней
StarLordAdmin, брал на амазоне
StarLordAdmin, у меня такой на 8. https://www.amazon.com/Seagate-Expansion-Desktop-External-STEB6000403/dp/B07CX8QBG4/ref=sr_1_3?dchild=1&keywords=Seagate+Expansion+Desktop+6TB&qid=1623047449&s=electronics&sr=1-3
AdminКто знает в какой стране сейчас дешевле заказать HDD? Хотел недавно 6ТБ купить, а цены в последний день взлетели в 2 раза.
  • ivan_1965
Отправка сообщений доступна только зарегистрированным/авторизованным пользователям.
Онлайн (за 10 мин.): 1

Терминатор 2: Судный день / Terminator 2: Judgment Day (1991) UHD-BDRip 2160p [HEVC] 10 bit [HDR] от HANNIBAL

HEVC
HDR
10 bit
Обложка Терминатор 2: Судный день / Terminator 2: Judgment Day (1991) UHD-BDRip 2160p [HEVC] 10 bit [HDR] от HANNIBAL Год: 1991
Страна: США, Франция
Студия: Canal+, Carolco Pictures Inc. Lights
Жанр: Боевик, Фантастика
Продолжительность: 02:17:08

Режиссер: Джеймс Кэмерон
В ролях: Арнольд Шварценеггер, Линда Хэмилтон, Эдвард Ферлонг, Роберт Патрик, Эрл Боэн, Джо Мортон, С. Ипейта Меркерсон, Кастуло Герра, Дэнни Кукси, Дженетт Голдстин, Ксандер Беркли, Лесли Хэмилтон Геррен, Кен Гиббел, Роберт Уинли, Питер Шрум, Шэйн Уайлдер, Майкл Эдвардс, Джаред Лоунсбери, Кэйси Чавез

Описание: Война роботов и людей продолжается. Казалось, что человечество обречено на полное уничтожение. Но благодаря своему лидеру Джону Коннору у сопротивления появляется шанс победить. Не имея возможности убить Джона в реальном времени, роботы отправляют в прошлое свою самую совершенную разработку — терминатора-убийцу из жидкого металла, способного принимать любое обличье. Теперь, чтобы победить в будущем, юному Джону Коннору надо выжить в настоящем. Его шансы существенно повышаются, когда на помощь приходит перепрограммированный сопротивлением терминатор предыдущего поколения. Оба робота вступают в смертельный бой, от исхода которого зависит судьба человечества.


Видео: 3840x1600, 15,200 Kbps
Аудио1: AC3, 5.1, 48 КГц, 640 Кбит/с - РусскийРусский, Профессиональный многоголосый (Twister)
Аудио2: AC3, 5.1, 48 КГц, 640 Кбит/с - Оригинал
Субтитры: Русские (forced, full), Английские

Как за пару секунд удалить ненужные аудиодорожки и субтитры (Внимание! После удаления вы не сможете поддержать раздачу)

Медиаинфо
General
Unique ID : 92297230749536683274524487277980215608 (0x456FCCCFF9BDE532C56F52240320E938)
Complete name : G:\[HEVC]\UHD [HEVC]\Terminator 2 Judgment Day (1991) UHDRip 2160p [HEVC] 10bit.mkv
Format : Matroska
Format version : Version 4 / Version 2
File size : 15.8 GiB
Duration : 2 h 17 min
Overall bit rate : 16.4 Mb/s
Movie name : Terminator 2 Judgment Day 1991 from ExKinoRay
Encoded date : UTC 2018-07-01 20:25:47
Writing application : mkvmerge v20.0.0 ('I Am The Sun') 64-bit
Writing library : libebml v1.3.5 + libmatroska v1.4.8 / Lavf57.71.100
Cover : Yes
Attachments : cover.jpg
ENCODING_INFO : MATROSKA,WEBM > MKV 2160p 10-bit / HEVC > X265 ABR 15200kbps Fast / AC3 > AC3 CBR 640kbps / DTS-HD MA > AC3 CBR 640kbps

Video
ID : 1
Format : HEVC
Format/Info : High Efficiency Video Coding
Format profile : Main 10@L5.1@Main
Codec ID : V_MPEGH/ISO/HEVC
Duration : 2 h 17 min
Bit rate : 15.2 Mb/s
Width : 3 840 pixels
Height : 1 600 pixels
Display aspect ratio : 2.40:1
Frame rate mode : Constant
Frame rate : 23.976 (24000/1001) FPS
Color space : YUV
Chroma subsampling : 4:2:0
Bit depth : 10 bits
Bits/(Pixel*Frame) : 0.103
Stream size : 14.5 GiB (92%)
Writing library : x265 2.7+336-07defe235cde:[Windows][clang 7.0.0][64 bit] 10bit
Encoding settings : cpuid=1049583 / frame-threads=5 / numa-pools=4 / wpp / no-pmode / no-pme / no-psnr / no-ssim / log-level=3 / input-csp=1 / input-res=3840x1600 / interlace=0 / total-frames=0 / level-idc=51 / high-tier=1 / uhd-bd=0 / ref=3 / allow-non-conformance / no-repeat-headers / annexb / no-aud / no-hrd / info / hash=0 / no-temporal-layers / open-gop / min-keyint=24 / keyint=240 / gop-lookahead=0 / bframes=6 / b-adapt=0 / b-pyramid / bframe-bias=0 / rc-lookahead=15 / lookahead-slices=8 / scenecut=40 / radl=0 / no-intra-refresh / ctu=64 / min-cu-size=8 / no-rect / no-amp / max-tu-size=32 / tu-inter-depth=1 / tu-intra-depth=1 / limit-tu=0 / rdoq-level=0 / dynamic-rd=0.00 / no-ssim-rd / signhide / no-tskip / nr-intra=0 / nr-inter=0 / no-constrained-intra / strong-intra-smoothing / max-merge=2 / limit-refs=3 / no-limit-modes / me=1 / subme=7 / merange=57 / temporal-mvp / weightp / no-weightb / no-analyze-src-pics / deblock=-3:-3 / sao / no-sao-non-deblock / rd=3 / no-early-skip / rskip / no-fast-intra / no-tskip-fast / no-cu-lossless / no-b-intra / no-splitrd-skip / rdpenalty=0 / psy-rd=2.00 / psy-rdoq=0.00 / no-rd-refine / no-lossless / cbqpoffs=0 / crqpoffs=0 / rc=abr / bitrate=15200 / qcomp=0.60 / qpstep=4 / stats-write=0 / stats-read=0 / ipratio=1.40 / pbratio=1.30 / aq-mode=1 / aq-strength=1.00 / cutree / zone-count=0 / no-strict-cbr / qg-size=32 / no-rc-grain / qpmax=69 / qpmin=0 / no-const-vbv / sar=1 / overscan=0 / videoformat=5 / range=0 / colorprim=9 / transfer=16 / colormatrix=9 / chromaloc=0 / display-window=0 / max-cll=0,0 / min-luma=0 / max-luma=1023 / log2-max-poc-lsb=8 / vui-timing-info / vui-hrd-info / slices=1 / no-opt-qp-pps / no-opt-ref-list-length-pps / no-multi-pass-opt-rps / scenecut-bias=0.05 / no-opt-cu-delta-qp / no-aq-motion / no-hdr / no-hdr-opt / no-dhdr10-opt / no-idr-recovery-sei / analysis-reuse-level=5 / scale-factor=0 / refine-intra=0 / refine-inter=0 / refine-mv=0 / no-limit-sao / ctu-info=0 / no-lowpass-dct / refine-mv-type=0 / copy-pic=1 / max-ausize-factor=1.0 / no-dynamic-refine / no-single-sei
Language : English
Default : Yes
Forced : No
Color range : Limited
Color primaries : BT.2020
Transfer characteristics : PQ
Matrix coefficients : BT.2020 non-constant

Audio #1
ID : 2
Format : AC-3
Format/Info : Audio Coding 3
Codec ID : A_AC3
Duration : 2 h 17 min
Bit rate mode : Constant
Bit rate : 640 kb/s
Channel(s) : 6 channels
Channel positions : Front: L C R, Side: L R, LFE
Sampling rate : 48.0 kHz
Frame rate : 31.250 FPS (1536 SPF)
Bit depth : 16 bits
Compression mode : Lossy
Stream size : 628 MiB (4%)
Title : MVO [Twister]
Language : Russian
Service kind : Complete Main
Default : Yes
Forced : No

Audio #2
ID : 3
Format : AC-3
Format/Info : Audio Coding 3
Codec ID : A_AC3
Duration : 2 h 17 min
Bit rate mode : Constant
Bit rate : 640 kb/s
Channel(s) : 6 channels
Channel positions : Front: L C R, Side: L R, LFE
Sampling rate : 48.0 kHz
Frame rate : 31.250 FPS (1536 SPF)
Bit depth : 16 bits
Compression mode : Lossy
Stream size : 629 MiB (4%)
Title : Original
Language : English
Service kind : Complete Main
Default : No
Forced : No

Text #1
ID : 4
Format : UTF-8
Codec ID : S_TEXT/UTF8
Codec ID/Info : UTF-8 Plain Text
Duration : 1 h 51 min
Bit rate : 1 b/s
Count of elements : 18
Stream size : 839 Bytes (0%)
Title : Forced
Language : Russian
Default : Yes
Forced : No

Text #2
ID : 5
Format : UTF-8
Codec ID : S_TEXT/UTF8
Codec ID/Info : UTF-8 Plain Text
Duration : 2 h 11 min
Bit rate : 45 b/s
Count of elements : 838
Stream size : 43.9 KiB (0%)
Title : Full
Language : Russian
Default : No
Forced : No

Text #3
ID : 6
Format : UTF-8
Codec ID : S_TEXT/UTF8
Codec ID/Info : UTF-8 Plain Text
Duration : 2 h 11 min
Bit rate : 33 b/s
Count of elements : 1003
Stream size : 32.2 KiB (0%)
Title : Full
Language : English
Default : No
Forced : No

Menu
00:00:00.000 : :Chapter 1
00:09:42.791 : :Chapter 2
00:22:07.034 : :Chapter 3
00:35:00.889 : :Chapter 4
00:47:57.583 : :Chapter 5
01:01:44.993 : :Chapter 6
01:13:17.143 : :Chapter 7
01:21:51.115 : :Chapter 8
01:30:19.122 : :Chapter 9
01:39:28.379 : :Chapter 10
01:50:05.474 : :Chapter 11
02:03:45.668 : :Chapter 12
Загрузка...Cкриншот1 Терминатор 2: Судный день / Terminator 2: Judgment Day (1991) UHD-BDRip 2160p [HEVC] 10 bit [HDR] от HANNIBALЗагрузка...Cкриншот2 Терминатор 2: Судный день / Terminator 2: Judgment Day (1991) UHD-BDRip 2160p [HEVC] 10 bit [HDR] от HANNIBALЗагрузка...Cкриншот3 Терминатор 2: Судный день / Terminator 2: Judgment Day (1991) UHD-BDRip 2160p [HEVC] 10 bit [HDR] от HANNIBALЗагрузка...Cкриншот4 Терминатор 2: Судный день / Terminator 2: Judgment Day (1991) UHD-BDRip 2160p [HEVC] 10 bit [HDR] от HANNIBAL
Сэмпл Торрент🧲 Магнет

Рейтинги КП и IMDB, кнопки "Позвать в чате" и "Спасибо", а также мультитрекерная статистика доступны только зарегистрированным/авторизованным пользователям!

Файлы: 1
  • Terminator 2 Judgment Day (1991) UHDRip 2160p [HEVC] 10bit.mkv   15.76 ГБ
Поблагодарили: 12
Alex302, brukvalub, dimm, fitaurari, igor3176, inoy, kkrasayev, Lovejoy, makss333, stormbringer, zee, Денис
HANNIBAL
23941015.76 ГБ

Добавление нового комментария

Добавление комментариев доступно только зарегистрированным/авторизованным пользователям.
Аватар не указан
  Lovejoy  
Спасибо за HDR!
Аватар не указан
  inoy  
первую часть не планируете в таком же качестве выложить?