💬 Мини-чат

BrooklynOldGamer, Ок, спасибо, качаю.
OldGamerBrooklyn, они все на раздаче пока что
BrooklynOldGamer, Пораздавайте, пожалуйста, все сезоны сериала "Гримм" ближайшие 3 дня, очень хочу их забрать. Качество отличное. Заранее Благодарен.
StarLordСообщение удалено (удалил: StarLord)
OldGamerвыводить
mafo2Admin, можно вывести, наглядно будет
StarLordAdmin, +
AdminНадпись HDR выводить на обложку?
OldGamerGiggalo, но лучше всего вообще не затрагивайте этот ключ, по умолчанию будет установлено оптимальное значение
OldGamerGiggalo, но если уж очень хочется то пишите --frame-threads 3
OldGamerGiggalo, а зачем его менять?) нужное значение устанавливается автоматически
GiggaloДобрый вечер всем! OldGamer Покажи пожалуйста почему когда пишу в командной строке frame-threads=3 он не меняется. Какой там стоит 13 он его и держит, а ругие установки спокойно меняет?
AdminStarLord, спасибо. Пока сойдет.
StarLordAdmin, ага, вижу
StarLordAdmin, а как должно брать?
AdminStarLord, ты шаришь?
AdminStarLord, у меня сейчас такая, но с точками беда. Доработать бы (https?://([-\w\.]+)+(:\d+)?(/([-\w/_:%]*(\.\w+)*(\?\S+)?)?)?)
AdminStarLord, скрины в bb некорректно берет
StarLordwww, ftp(s), http(s), #, :, &
StarLordAdmin, все мои кейсы покрыла
  • OldGamer
  • diesel0000
  • InSpector
  • moonson
Отправка сообщений доступна только зарегистрированным/авторизованным пользователям.
Онлайн (за 10 мин.): 4

Бэтмен навсегда / Batman Forever (1995) BDRip 1080p [HEVC] 10 bit от OldGamer (RG RIPS CLUB)

HEVC
10 bit
Обложка Бэтмен навсегда / Batman Forever (1995) BDRip 1080p [HEVC] 10 bit от OldGamer (RG RIPS CLUB) Год: 1995
Страна: США, Великобритания
Студия: Warner Bros.
Жанр: Фэнтези, Боевик, Приключения
Продолжительность: 02:01:35

Режиссер: Джоэл Шумахер
В ролях: Вэл Килмер, Томми Ли Джонс, Джим Керри, Николь Кидман, Крис О’Доннелл. Майкл Гоф, Пэт Хингл, Дрю Бэрримор, Деби Мейзар, Элизабет Сэндерс

Описание: Бэтмен продолжает войну со злом. На этот раз ему предстоит биться с двумя объединенными злодеями: бывшим окружным прокурором пострадавшим от кислоты Двуликим и сумасшедшим гением Загадочником. А помогать ему станет юный акробат по имени Робин.


Исходник: Blu-Ray 1080p
Видео: 1920x1040 (1.85:1), 7706 Кбит/сек, HEVC (Main10@L.4.1@High)
Аудио1: AC3, 6 ch, 448 Kbps - РусскийРусский, Дублированный (Лицензия)
Аудио2: AC3, 2 ch, 192 Kbps - РусскийРусский, Двухголосый (НТВ)
Аудио3: AC3, 2 ch, 192 Kbps - РусскийРусский, Авторский (Сергей Визгунов)
Аудио4: AC3, 2 ch, 192 Kbps - РусскийРусский, Авторский (Андрей Гаврилов)
Аудио5: AC3, 2 ch, 192 Kbps - РусскийРусский, Авторский (Василий Горчаков)
Аудио6: AC3, 2 ch, 192 Kbps - РусскийРусский, Авторский (Юрий Живов)
Аудио7: AC3, 2 ch, 192 Kbps - РусскийРусский, Одноголосый (Неизвестный)
Аудио8: AC3, 6 ch, 640 Kbps - EnglishEnglish, Original
Субтитры: Русские полные (SRT), English full (SRT)

Как за пару секунд удалить ненужные аудиодорожки и субтитры (Внимание! После удаления вы не сможете поддержать раздачу)

Лог (x265 info)
x265 [info]: frame I: 750, Avg QP:16.97 kb/s: 16968.78
x265 [info]: frame P: 33496, Avg QP:18.24 kb/s: 12962.56
x265 [info]: frame B: 140676, Avg QP:20.39 kb/s: 6403.82
x265 [info]: Weighted P-Frames: Y:9.8% UV:8.7%
x265 [info]: Weighted B-Frames: Y:11.1% UV:9.2%
x265 [info]: consecutive B-frames: 5.8% 5.4% 8.2% 19.8% 12.5% 33.3% 5.7% 3.7% 1.9% 1.1% 1.0% 1.0% 0.3% 0.2%
x265 [info]: encoded 174922 frames in 177783.22s (0.98 fps), 7705.06 kb/s, Avg QP:19.96
Медиаинфо
Формат : Matroska
Версия формата : Version 4
Размер файла : 8,45 Гбайт
Продолжительность : 2 ч. 1 м.
Общий поток : 9 950 Кбит/сек
Название фильма : 03.Бэтмен.навсегда.Batman.Forever.1995.BDRip-HEVC.1080p
Дата кодирования : UTC 2020-08-18 19:53:57
Программа кодирования : mkvmerge v49.0.0 ('Sick Of Losing Soulmates') 64-bit
Библиотека кодирования : libebml v1.4.0 + libmatroska v1.6.1
Attachments : CronosPro-Bold.ttf / CronosPro-Semibold.ttf / CronosPro-SemiboldIt.ttf

Видео
Идентификатор : 1
Формат : HEVC
Формат/Информация : High Efficiency Video Coding
Профиль формата : Main 10@L4@Main
Идентификатор кодека : V_MPEGH/ISO/HEVC
Продолжительность : 2 ч. 1 м.
Битрейт : 7 706 Кбит/сек
Ширина : 1 920 пикселей
Высота : 1 040 пикселей
Соотношение сторон : 1,85:1
Режим частоты кадров : Постоянный
Частота кадров : 23,976 (24000/1001) кадра/сек
Цветовое пространство : YUV
Субдискретизация насыщенности : 4:2:0
Битовая глубина : 10 бит
Бит/(Пиксели*Кадры) : 0.161
Размер потока : 6,54 Гбайт (77%)
Заголовок : Batman Forever / Rip by OldGamer
Библиотека кодирования : x265 3.4+1-7b120308dc64:[Windows][GCC 10.1.0][64 bit] 10bit
Настройки программы : cpuid=1111039 / frame-threads=3 / numa-pools=8 / wpp / no-pmode / no-pme / no-psnr / no-ssim / log-level=2 / input-csp=1 / input-res=1920x1040 / interlace=0 / total-frames=174922 / level-idc=0 / high-tier=1 / uhd-bd=0 / ref=5 / no-allow-non-conformance / no-repeat-headers / annexb / no-aud / no-hrd / info / hash=0 / no-temporal-layers / open-gop / min-keyint=23 / keyint=240 / gop-lookahead=0 / bframes=13 / b-adapt=2 / b-pyramid / bframe-bias=0 / rc-lookahead=60 / lookahead-slices=0 / scenecut=40 / hist-scenecut=0 / radl=0 / no-splice / no-intra-refresh / ctu=64 / min-cu-size=8 / rect / amp / max-tu-size=32 / tu-inter-depth=4 / tu-intra-depth=4 / limit-tu=1 / rdoq-level=2 / dynamic-rd=0.00 / no-ssim-rd / signhide / no-tskip / nr-intra=0 / nr-inter=0 / no-constrained-intra / no-strong-intra-smoothing / max-merge=5 / limit-refs=3 / no-limit-modes / me=3 / subme=7 / merange=57 / temporal-mvp / no-frame-dup / no-hme / weightp / weightb / no-analyze-src-pics / deblock=-3:-3 / no-sao / no-sao-non-deblock / rd=6 / selective-sao=0 / no-early-skip / rskip / no-fast-intra / no-tskip-fast / no-cu-lossless / b-intra / no-splitrd-skip / rdpenalty=0 / psy-rd=2.00 / psy-rdoq=1.00 / no-rd-refine / no-lossless / cbqpoffs=0 / crqpoffs=0 / rc=crf / crf=19.6 / qcomp=0.60 / qpstep=4 / stats-write=0 / stats-read=0 / ipratio=1.40 / pbratio=1.30 / aq-mode=4 / aq-strength=1.00 / no-cutree / zone-count=1 / zones: / start-frame=169052 / end-frame=174908 / qp=36 / no-strict-cbr / qg-size=32 / no-rc-grain / qpmax=69 / qpmin=0 / no-const-vbv / sar=1 / overscan=0 / videoformat=5 / range=0 / colorprim=2 / transfer=2 / colormatrix=2 / chromaloc=0 / display-window=0 / cll=0,0 / min-luma=0 / max-luma=1023 / log2-max-poc-lsb=8 / vui-timing-info / vui-hrd-info / slices=1 / no-opt-qp-pps / no-opt-ref-list-length-pps / no-multi-pass-opt-rps / scenecut-bias=0.00 / hist-threshold=0.01 / no-opt-cu-delta-qp / no-aq-motion / no-hdr10 / no-hdr10-opt / no-dhdr10-opt / no-idr-recovery-sei / analysis-reuse-level=0 / analysis-save-reuse-level=0 / analysis-load-reuse-level=0 / scale-factor=0 / refine-intra=0 / refine-inter=0 / refine-mv=1 / refine-ctu-distortion=0 / no-limit-sao / ctu-info=0 / no-lowpass-dct / refine-analysis-type=0 / copy-pic=1 / max-ausize-factor=1.0 / no-dynamic-refine / no-single-sei / no-hevc-aq / no-svt / no-field / qp-adaptation-range=1.00 / no-scenecut-aware-qpconformance-window-offsets / right=0 / bottom=0 / decoder-max-rate=0
Язык : English
Default : Да
Forced : Нет

Аудио #1
Идентификатор : 2
ID in the original source medium : 4362 (0x110A)
Формат : AC-3
Формат/Информация : Audio Coding 3
Коммерческое название : Dolby Digital
Идентификатор кодека : A_AC3
Продолжительность : 2 ч. 1 м.
Вид битрейта : Постоянный
Битрейт : 448 Кбит/сек
Каналы : 6 каналов
Channel layout : L R C LFE Ls Rs
Частота : 48,0 КГц
Частота кадров : 31,250 кадров/сек (1536 SPF)
Метод сжатия : С потерями
Размер потока : 390 Мбайт (5%)
Заголовок : Dub (CEE)
Язык : Russian
Service kind : Complete Main
Default : Да
Forced : Нет
Носитель оригинала : Blu-ray

Аудио #2
Идентификатор : 3
Формат : AC-3
Формат/Информация : Audio Coding 3
Коммерческое название : Dolby Digital
Идентификатор кодека : A_AC3
Продолжительность : 2 ч. 1 м.
Вид битрейта : Постоянный
Битрейт : 192 Кбит/сек
Каналы : 2 канала
Channel layout : L R
Частота : 48,0 КГц
Частота кадров : 31,250 кадров/сек (1536 SPF)
Метод сжатия : С потерями
Размер потока : 167 Мбайт (2%)
Заголовок : DVO (НТВ)
Язык : Russian
Service kind : Complete Main
Default : Нет
Forced : Нет

Аудио #3
Идентификатор : 4
Формат : AC-3
Формат/Информация : Audio Coding 3
Коммерческое название : Dolby Digital
Идентификатор кодека : A_AC3
Продолжительность : 2 ч. 1 м.
Вид битрейта : Постоянный
Битрейт : 192 Кбит/сек
Каналы : 2 канала
Channel layout : L R
Частота : 48,0 КГц
Частота кадров : 31,250 кадров/сек (1536 SPF)
Метод сжатия : С потерями
Размер потока : 167 Мбайт (2%)
Заголовок : AVO (Сергей Визгунов)
Язык : Russian
Service kind : Complete Main
Default : Нет
Forced : Нет

Аудио #4
Идентификатор : 5
Формат : AC-3
Формат/Информация : Audio Coding 3
Коммерческое название : Dolby Digital
Идентификатор кодека : A_AC3
Продолжительность : 2 ч. 1 м.
Вид битрейта : Постоянный
Битрейт : 192 Кбит/сек
Каналы : 2 канала
Channel layout : L R
Частота : 48,0 КГц
Частота кадров : 31,250 кадров/сек (1536 SPF)
Метод сжатия : С потерями
Размер потока : 167 Мбайт (2%)
Заголовок : AVO (Андрей Гаврилов)
Язык : Russian
Service kind : Complete Main
Default : Нет
Forced : Нет

Аудио #5
Идентификатор : 6
Формат : AC-3
Формат/Информация : Audio Coding 3
Коммерческое название : Dolby Digital
Идентификатор кодека : A_AC3
Продолжительность : 2 ч. 1 м.
Вид битрейта : Постоянный
Битрейт : 192 Кбит/сек
Каналы : 2 канала
Channel layout : L R
Частота : 48,0 КГц
Частота кадров : 31,250 кадров/сек (1536 SPF)
Метод сжатия : С потерями
Размер потока : 167 Мбайт (2%)
Заголовок : AVO (Василий Горчаков)
Язык : Russian
Service kind : Complete Main
Default : Нет
Forced : Нет

Аудио #6
Идентификатор : 7
Формат : AC-3
Формат/Информация : Audio Coding 3
Коммерческое название : Dolby Digital
Идентификатор кодека : A_AC3
Продолжительность : 2 ч. 1 м.
Вид битрейта : Постоянный
Битрейт : 192 Кбит/сек
Каналы : 2 канала
Channel layout : L R
Частота : 48,0 КГц
Частота кадров : 31,250 кадров/сек (1536 SPF)
Метод сжатия : С потерями
Размер потока : 167 Мбайт (2%)
Заголовок : AVO (Юрий Живов)
Язык : Russian
Service kind : Complete Main
Default : Нет
Forced : Нет

Аудио #7
Идентификатор : 8
Формат : AC-3
Формат/Информация : Audio Coding 3
Коммерческое название : Dolby Digital
Идентификатор кодека : A_AC3
Продолжительность : 2 ч. 1 м.
Вид битрейта : Постоянный
Битрейт : 192 Кбит/сек
Каналы : 2 канала
Channel layout : L R
Частота : 48,0 КГц
Частота кадров : 31,250 кадров/сек (1536 SPF)
Метод сжатия : С потерями
Размер потока : 167 Мбайт (2%)
Заголовок : VO (Неизвестный)
Язык : Russian
Service kind : Complete Main
Default : Нет
Forced : Нет

Аудио #8
Идентификатор : 9
Формат : AC-3
Формат/Информация : Audio Coding 3
Коммерческое название : Dolby Digital
Идентификатор кодека : A_AC3
Продолжительность : 2 ч. 1 м.
Вид битрейта : Постоянный
Битрейт : 640 Кбит/сек
Каналы : 6 каналов
Channel layout : L R C LFE Ls Rs
Частота : 48,0 КГц
Частота кадров : 31,250 кадров/сек (1536 SPF)
Метод сжатия : С потерями
Размер потока : 557 Мбайт (6%)
Язык : English
Service kind : Complete Main
Default : Нет
Forced : Нет

Текст #1
Идентификатор : 10
Формат : UTF-8
Идентификатор кодека : S_TEXT/UTF8
Идентификатор кодека/Информация : UTF-8 Plain Text
Продолжительность : 1 ч. 55 м.
Битрейт : 58 бит/сек
Count of elements : 1134
Размер потока : 49,6 Кбайт (0%)
Заголовок : Full
Язык : Russian
Default : Нет
Forced : Нет

Текст #2
Идентификатор : 11
Формат : UTF-8
Идентификатор кодека : S_TEXT/UTF8
Идентификатор кодека/Информация : UTF-8 Plain Text
Продолжительность : 1 ч. 56 м.
Битрейт : 55 бит/сек
Count of elements : 1763
Размер потока : 47,1 Кбайт (0%)
Заголовок : Full
Язык : English
Default : Нет
Forced : Нет

Меню
00:00:00.000 : en:Chapter 01
00:02:18.012 : en:Chapter 02
00:05:30.496 : en:Chapter 03
00:10:10.610 : en:Chapter 04
00:12:40.926 : en:Chapter 05
00:16:36.829 : en:Chapter 06
00:19:55.903 : en:Chapter 07
00:24:52.240 : en:Chapter 08
00:29:09.914 : en:Chapter 09
00:32:56.557 : en:Chapter 10
00:41:03.252 : en:Chapter 11
00:44:09.605 : en:Chapter 12
00:46:51.767 : en:Chapter 13
00:48:09.177 : en:Chapter 14
00:50:49.421 : en:Chapter 15
00:56:48.822 : en:Chapter 16
00:58:16.951 : en:Chapter 17
01:01:51.165 : en:Chapter 18
01:04:45.089 : en:Chapter 19
01:08:38.155 : en:Chapter 20
01:10:24.762 : en:Chapter 21
01:15:14.009 : en:Chapter 22
01:19:55.665 : en:Chapter 23
01:21:59.748 : en:Chapter 24
01:24:06.708 : en:Chapter 25
01:24:58.510 : en:Chapter 26
01:26:17.505 : en:Chapter 27
01:31:36.073 : en:Chapter 28
01:35:50.661 : en:Chapter 29
01:37:25.005 : en:Chapter 30
01:39:55.948 : en:Chapter 31
01:41:11.565 : en:Chapter 32
01:42:54.042 : en:Chapter 33
01:44:58.792 : en:Chapter 34
01:52:35.665 : en:Chapter 35
01:53:45.109 : en:Chapter 36
01:54:42.333 : en:Chapter 37
01:56:03.706 : en:Chapter 38
01:57:33.212 : en:Chapter 39
Загрузка...Cкриншот1 Бэтмен навсегда / Batman Forever (1995) BDRip 1080p [HEVC] 10 bit от OldGamer (RG RIPS CLUB)Загрузка...Cкриншот2 Бэтмен навсегда / Batman Forever (1995) BDRip 1080p [HEVC] 10 bit от OldGamer (RG RIPS CLUB)Загрузка...Cкриншот3 Бэтмен навсегда / Batman Forever (1995) BDRip 1080p [HEVC] 10 bit от OldGamer (RG RIPS CLUB)Загрузка...Cкриншот4 Бэтмен навсегда / Batman Forever (1995) BDRip 1080p [HEVC] 10 bit от OldGamer (RG RIPS CLUB)
Релиз-группа: RIPS CLUB
Сэмпл Торрент🧲 Магнет

Рейтинги КП и IMDB, кнопки "Позвать в чате" и "Спасибо", а также мультитрекерная статистика сидов и пиров доступны только зарегистрированным/авторизованным пользователям!

Файлы: 1
  • 03.Бэтмен.навсегда.Batman.Forever.1995.BDRip-HEVC.1080p.mkv   8.45 ГБ
Поблагодарили: 3
Brooklyn, Kiran, Nuclear70
OldGamer
017008.45 ГБ

Добавление нового комментария

Добавление комментариев доступно только зарегистрированным/авторизованным пользователям.