Регистрация / Смена пароля

💬 Мини-чат

Адрес сайта поменялся с hevc-club.video на rips.club. Новый адрес анонсера - http://rips.club:2710/announce
ADVOKAT69rodina_45, буду перекодировать!
rodina_45Раздайте, пожалуйста, Царевна-лягушка (1954) BDRip 1080p [HEVC] 10 bit от ADVOKAT69
OldGamerДа всегда пожалуйста
UndervestСообщение удалено (удалил: Undervest)
StarLordOldGamer, очень жаль... Возможно сам возьмусь)
OldGamerStarLord, в планах такого нету :)
StarLordOldGamer, еще бы "Бомжа с дробовиком" в придачу к "Мачете" =))
warner98Раздайте, пожалуйста, Кошмар на улице Вязов / A Nightmare on Elm Street (2010) BDRip 1080p [HEVC] 10 bit от Cthulhu
VISРаздайте, пожалуйста, Доспехи Бога / Lung hing foo dai (1986) BDRip 1080p [HEVC] 10 bit от joker63
  • Admin
Отправка сообщений доступна только зарегистрированным/авторизованным пользователям.
Онлайн (за 10 мин.): 1

Ржев (2019) BDRip 1080p [HEVC] 10 bit от ADVOKAt69

HEVC
10 bit
Обложка Ржев (2019) BDRip 1080p [HEVC] 10 bit от ADVOKAt69 Год: 2019
Страна: Россия
Студия: Триикс Медиа
Жанр: Военный, Драма, История
Продолжительность: 01:58:12

Режиссер: Игорь Копылов
В ролях: Сергей Жарков, Иван Батарев, Олег Гаянов, Арсений Семёнов, Александр Горбатов, Александр Бухаров, Григорий Некрасов, Игорь Грабузов, Александр Аравушкин, Дан Розин

Описание: 1942 год. Ржевская битва. После боёв под селом Овсянниково от роты советских солдат осталась только треть. Бойцы пытаются продержаться до прихода подкрепления. Но из штаба поступает приказ удержать деревню любой ценой. Значит, отступать нельзя… Каждый из героев понимает, что выбраться живыми из этого переплёта почти невозможно. В этот момент в Овсянниково, едва не погибнув под вражеским обстрелом, прибывает младший лейтенант — начальник особого отдела, который должен найти и разоблачить предателей среди своих. Лейтенант уверен, что только так можно приблизить победу. События приобретают непредсказуемый оборот.


Исходник: BluRay
Видео: 1920x804, 4045 Kbps
Аудио: DTS, 6 ch, 1509 Kbps - Русский, Оригинал
Субтитры: нет

Лог (x265 info)
x265 [info]: frame I: 1721, Avg QP:17.69 kb/s: 20572.95
x265 [info]: frame P: 38537, Avg QP:19.19 kb/s: 9458.74
x265 [info]: frame B: 129965, Avg QP:21.52 kb/s: 2220.40
x265 [info]: Weighted P-Frames: Y:9.9% UV:8.0%
x265 [info]: Weighted B-Frames: Y:8.1% UV:6.5%
x265 [info]: consecutive B-frames: 10.1% 7.4% 9.1% 35.9% 9.4% 21.2% 3.9% 2.4% 0.4% 0.3%

encoded 170223 frames in 106334.96s (1.60 fps), 4044.65 kb/s, Avg QP:20.95
Медиаинфо
Общее
Уникальный идентификатор : 236586996364093851207446921375596012075 (0xB1FCFF81D844154AB629A0994FA9E22B)
Полное имя : D:\Ржев (2019) HEVC 10bit.mkv
Формат : Matroska
Версия формата : Version 4
Размер файла : 4,59 Гбайт
Продолжительность : 1 ч. 58 м.
Общий поток : 5557 Кбит/сек
Дата кодирования : UTC 2020-09-05 17:06:24
Программа кодирования : mkvmerge v9.2.0 ('Photograph') 64bit
Библиотека кодирования : libebml v1.3.3 + libmatroska v1.4.4

Видео
Идентификатор : 1
Формат : HEVC
Формат/Информация : High Efficiency Video Coding
Профиль формата : Main 10@L4.1@High
Идентификатор кодека : V_MPEGH/ISO/HEVC
Продолжительность : 1 ч. 58 м.
Битрейт : 4045 Кбит/сек
Ширина : 1920 пикселей
Высота : 804 пикселя
Соотношение сторон : 2,40:1
Режим частоты кадров : Постоянный
Частота кадров : 24,000 кадра/сек
Цветовое пространство : YUV
Субдискретизация насыщенности : 4:2:0
Битовая глубина : 10 бит
Бит/(Пиксели*Кадры) : 0.109
Размер потока : 3,34 Гбайт (73%)
Библиотека кодирования : x265 3.4+1-7b120308dc64:[Windows][MSVC 1900][64 bit] 10bit
Настройки программы : cpuid=1049583 / frame-threads=3 / numa-pools=8 / wpp / no-pmode / no-pme / no-psnr / no-ssim / log-level=2 / input-csp=1 / input-res=1920x804 / interlace=0 / total-frames=170223 / level-idc=41 / high-tier=1 / uhd-bd=0 / ref=5 / no-allow-non-conformance / no-repeat-headers / annexb / no-aud / no-hrd / info / hash=0 / no-temporal-layers / open-gop / min-keyint=24 / keyint=240 / gop-lookahead=0 / bframes=9 / b-adapt=2 / b-pyramid / bframe-bias=0 / rc-lookahead=40 / lookahead-slices=4 / scenecut=40 / hist-scenecut=0 / radl=0 / no-splice / no-intra-refresh / ctu=32 / min-cu-size=8 / rect / no-amp / max-tu-size=32 / tu-inter-depth=4 / tu-intra-depth=4 / limit-tu=1 / rdoq-level=2 / dynamic-rd=4.00 / no-ssim-rd / signhide / no-tskip / nr-intra=0 / nr-inter=0 / constrained-intra / no-strong-intra-smoothing / max-merge=3 / limit-refs=3 / limit-modes / me=3 / subme=7 / merange=57 / temporal-mvp / no-frame-dup / no-hme / weightp / weightb / no-analyze-src-pics / deblock=-2:-2 / no-sao / no-sao-non-deblock / rd=4 / selective-sao=0 / no-early-skip / rskip / no-fast-intra / no-tskip-fast / no-cu-lossless / b-intra / no-splitrd-skip / rdpenalty=0 / psy-rd=1.50 / psy-rdoq=0.70 / no-rd-refine / no-lossless / cbqpoffs=0 / crqpoffs=0 / rc=crf / crf=20.0 / qcomp=0.60 / qpstep=4 / stats-write=0 / stats-read=0 / vbv-maxrate=50000 / vbv-bufsize=50000 / vbv-init=0.9 / crf-max=0.0 / crf-min=0.0 / ipratio=1.40 / pbratio=1.30 / aq-mode=2 / aq-strength=0.80 / no-cutree / zone-count=0 / no-strict-cbr / qg-size=32 / no-rc-grain / qpmax=69 / qpmin=0 / no-const-vbv / sar=1 / overscan=0 / videoformat=5 / range=0 / colorprim=1 / transfer=1 / colormatrix=1 / chromaloc=0 / display-window=0 / cll=0,0 / min-luma=0 / max-luma=1023 / log2-max-poc-lsb=8 / vui-timing-info / vui-hrd-info / slices=1 / no-opt-qp-pps / no-opt-ref-list-length-pps / no-multi-pass-opt-rps / scenecut-bias=0.05 / hist-threshold=0.01 / no-opt-cu-delta-qp / no-aq-motion / no-hdr10 / no-hdr10-opt / no-dhdr10-opt / no-idr-recovery-sei / analysis-reuse-level=0 / analysis-save-reuse-level=0 / analysis-load-reuse-level=0 / scale-factor=0 / refine-intra=0 / refine-inter=0 / refine-mv=1 / refine-ctu-distortion=0 / no-limit-sao / ctu-info=0 / no-lowpass-dct / refine-analysis-type=0 / copy-pic=1 / max-ausize-factor=1.0 / no-dynamic-refine / no-single-sei / no-hevc-aq / no-svt / no-field / qp-adaptation-range=1.00 / no-scenecut-aware-qpconformance-window-offsets / right=0 / bottom=0 / decoder-max-rate=0
Default : Да
Forced : Нет
Цветовой диапазон : Limited
Основные цвета : BT.709
Характеристики трансфера : BT.709
Коэффициенты матрицы : BT.709

Аудио
Идентификатор : 2
Формат : DTS
Формат/Информация : Digital Theater Systems
Идентификатор кодека : A_DTS
Продолжительность : 1 ч. 58 м.
Вид битрейта : Постоянный
Битрейт : 1509 Кбит/сек
Каналы : 6 каналов
ChannelLayout : C L R Ls Rs LFE
Частота : 48,0 КГц
Частота кадров : 93,750 кадра/сек (512 SPF)
Битовая глубина : 24 бит
Метод сжатия : С потерями
Размер потока : 1,25 Гбайт (27%)
Заголовок : Русский
Язык : Russian
Default : Да
Forced : Нет

Меню
00:00:00.000 : en:Chapter 1
00:00:05.416 : en:Chapter 2
00:11:06.208 : en:Chapter 3
00:22:02.250 : en:Chapter 4
00:33:41.791 : en:Chapter 5
00:46:58.291 : en:Chapter 6
01:00:38.500 : en:Chapter 7
01:11:20.500 : en:Chapter 8
01:21:43.166 : en:Chapter 9
01:33:59.041 : en:Chapter 10
01:45:19.250 : en:Chapter 11
Сравнение скриншотов:
https://screenshotcomparison.com/comparison/6096

Загрузка...Cкриншот1 Ржев (2019) BDRip 1080p [HEVC] 10 bit от ADVOKAt69Загрузка...Cкриншот2 Ржев (2019) BDRip 1080p [HEVC] 10 bit от ADVOKAt69Загрузка...Cкриншот3 Ржев (2019) BDRip 1080p [HEVC] 10 bit от ADVOKAt69Загрузка...Cкриншот4 Ржев (2019) BDRip 1080p [HEVC] 10 bit от ADVOKAt69
Сэмпл Торрент🧲 Магнет

Рейтинги КП и IMDB, кнопки "Позвать в чате" и "Спасибо", а также мультитрекерная статистика сидов и пиров доступны только зарегистрированным/авторизованным пользователям!

Файлы: 1
  • Ржев (2019) HEVC 10bit.mkv   4.59 ГБ
Поблагодарили: 3
makss333, MIGRANT, OldGamer
ADVOKAT69
25586024.59 ГБ

Добавление нового комментария

Добавление комментариев доступно только зарегистрированным/авторизованным пользователям.
Аватар skazikus
  skazikus  
спасибо за Ваши труды. сам фильм набор штаммов и пропаганды. Произведением это назвать сложно, скорее, школьная поделка.
Аватар ADVOKAT69
  ADVOKAT69  
В Sonic Foundry Soft Encode сделал звуковую дорожку в АС3 --- https://yadi.sk/d/6cOM6x9mTMD02w