💬 Мини-чат

GiggaloСообщение удалено (удалил: Giggalo)
StarLordOldGamer, как дела?)
StarLordOldGamer, ура, вернулся 😄
OldGamerRezident, можете скачать этот фильм от другого релизёра, там невелика разница, а раздающие точно есть
OldGamerGiggalo, https://tsya.ru/mnemonic.html
NoMaDСообщение удалено (удалил: NoMaD)
NoMaDСообщение удалено (удалил: NoMaD)
GiggaloСообщение удалено (удалил: Giggalo)
GiggaloСообщение удалено (удалил: Giggalo)
Spartanec1308Был днём
StarLordGiggalo, наверное отрубало беднягу, целый день его нету 😅
GiggaloСообщение удалено (удалил: Giggalo)
OldGamerДоброе. Работы много, некогда на перинах валяться.
GiggaloСообщение удалено (удалил: Giggalo)
GiggaloСообщение удалено (удалил: Giggalo)
  • Spartanec1308
  • Giggalo
  • alenu
  • Blaster
Отправка сообщений доступна только зарегистрированным/авторизованным пользователям.
Онлайн (за 10 мин.): 4

Человек с железными кулаками 2 / The Man with the Iron Fists 2 (2014) BDRip 1080p [HEVC] 10 bit от -Star-Lord-

HEVC
10 bit
Обложка Человек с железными кулаками 2 / The Man with the Iron Fists 2 (2014) BDRip 1080p [HEVC] 10 bit от -Star-Lord- Год: 2014
Страна: США
Студия: Arcade Pictures, Iron Fists, Living Films
Жанр: Боевик
Продолжительность: 01:30:25

Режиссер: Роэль Рейн
В ролях: RZA, Кэри-Хироюки Тагава, Шнитрнунт Бусаракамвонг, Грэйс Хуанг, Хой Линь, Секи Осеки, Ковит Ваттанакуль, Дастин Нгуен, Pim Bubear, Евгения Йуан

Описание: Шахтер Ли Кунг и его жена А Ни обнаружили раненного незнакомца Фаддеуса около деревни и дали ему убежище. После лечения он ввязался в конфликт со зловещим мастером Хо, его мерзким кланом Битл и ужасным Лордом Пи.


Видео: 1920x1080, 6833 Kbps
Аудио1: AC3, 6 ch, 384 Kbps - РусскийРусский, Дублированный (Лицензия)
Аудио2: AC3, 2 ch, 192 Kbps - УкраинскийУкраинский, Многоголосый (NLO.TV)
Аудио3: DTS, 6 ch, 1509 Kbps - АнглийскийАнглийский, Оригинал
Субтитры: Английские

Как за пару секунд удалить ненужные аудиодорожки и субтитры (Внимание! После удаления вы не сможете поддержать раздачу)

Медиаинфо
General
Unique ID : 293469990573029526470261817130801433134 (0xDCC843A6B2C1D22886A9C973D8E00A2E)
Complete name : 2. The Man with the Iron Fists 2 (2015) BDRip 1080p H.265 [RUS_UKR_ENG] [HEVC-CLUB].mkv
Format : Matroska
Format version : Version 4
File size : 5.63 GiB
Duration : 1 h 30 min
Overall bit rate : 8 921 kb/s
Movie name : Железный кулак 2 / Людина із залізними кулаками 2 / The Man with the Iron Fists 2 (2015)
Encoded date : UTC 2020-01-02 21:59:42
Writing application : mkvmerge v20.0.0 ('I Am The Sun') 64-bit
Writing library : libebml v1.3.5 + libmatroska v1.4.8
Cover : Yes
Attachments : Cover.jpg

Video
ID : 1
Format : HEVC
Format/Info : High Efficiency Video Coding
Format profile : Main 10@L5.1@High
Codec ID : V_MPEGH/ISO/HEVC
Duration : 1 h 30 min
Bit rate : 6 833 kb/s
Width : 1 920 pixels
Height : 1 080 pixels
Display aspect ratio : 16:9
Frame rate mode : Constant
Frame rate : 23.976 (24000/1001) FPS
Color space : YUV
Chroma subsampling : 4:2:0
Bit depth : 10 bits
Bits/(Pixel*Frame) : 0.137
Stream size : 4.32 GiB (77%)
Title : Железный кулак 2 / Людина із залізними кулаками 2 / The Man with the Iron Fists 2 (2015)
Writing library : x265 3.2+5-354901970679:[Windows][clang 8.0.1][64 bit] 10bit
Encoding settings : cpuid=1111039 / frame-threads=9 / numa-pools=8 / wpp / no-pmode / no-pme / no-psnr / no-ssim / log-level=3 / input-csp=1 / input-res=1920x1080 / interlace=0 / total-frames=0 / level-idc=51 / high-tier=1 / uhd-bd=0 / ref=5 / allow-non-conformance / no-repeat-headers / annexb / no-aud / no-hrd / info / hash=0 / no-temporal-layers / open-gop / min-keyint=24 / keyint=240 / gop-lookahead=0 / bframes=8 / b-adapt=2 / b-pyramid / bframe-bias=0 / rc-lookahead=40 / lookahead-slices=6 / scenecut=40 / radl=0 / no-splice / no-intra-refresh / ctu=64 / min-cu-size=8 / rect / amp / max-tu-size=32 / tu-inter-depth=4 / tu-intra-depth=4 / limit-tu=0 / rdoq-level=2 / dynamic-rd=0.00 / no-ssim-rd / signhide / no-tskip / nr-intra=0 / nr-inter=0 / no-constrained-intra / no-strong-intra-smoothing / max-merge=3 / limit-refs=1 / no-limit-modes / me=3 / subme=7 / merange=57 / temporal-mvp / no-frame-dup / no-hme / weightp / weightb / no-analyze-src-pics / deblock=-3:-3 / no-sao / no-sao-non-deblock / rd=6 / selective-sao=0 / early-skip / rskip / no-fast-intra / no-tskip-fast / no-cu-lossless / b-intra / no-splitrd-skip / rdpenalty=0 / psy-rd=2.00 / psy-rdoq=1.00 / no-rd-refine / no-lossless / cbqpoffs=0 / crqpoffs=0 / rc=crf / crf=20.0 / qcomp=0.65 / qpstep=4 / stats-write=0 / stats-read=0 / vbv-maxrate=50000 / vbv-bufsize=50000 / vbv-init=0.9 / crf-max=30.0 / crf-min=0.0 / ipratio=1.40 / pbratio=1.30 / aq-mode=1 / aq-strength=1.00 / cutree / zone-count=0 / no-strict-cbr / qg-size=32 / no-rc-grain / qpmax=69 / qpmin=0 / no-const-vbv / sar=1 / overscan=0 / videoformat=5 / range=0 / colorprim=2 / transfer=2 / colormatrix=2 / chromaloc=0 / display-window=0 / cll=0,0 / min-luma=0 / max-luma=1023 / log2-max-poc-lsb=8 / vui-timing-info / vui-hrd-info / slices=1 / no-opt-qp-pps / no-opt-ref-list-length-pps / no-multi-pass-opt-rps / scenecut-bias=0.05 / no-opt-cu-delta-qp / no-aq-motion / no-hdr / no-hdr-opt / no-dhdr10-opt / no-idr-recovery-sei / analysis-reuse-level=5 / scale-factor=0 / refine-intra=0 / refine-inter=0 / refine-mv=1 / refine-ctu-distortion=0 / no-limit-sao / ctu-info=0 / no-lowpass-dct / refine-analysis-type=0 / copy-pic=1 / max-ausize-factor=1.0 / no-dynamic-refine / no-single-sei / no-hevc-aq / no-svt / no-field / qp-adaptation-range=1.00
Default : Yes
Forced : No
Color range : Limited

Audio #1
ID : 2
Format : AC-3
Format/Info : Audio Coding 3
Commercial name : Dolby Digital
Codec ID : A_AC3
Duration : 1 h 30 min
Bit rate mode : Constant
Bit rate : 384 kb/s
Channel(s) : 6 channels
Channel layout : L R C LFE Ls Rs
Sampling rate : 48.0 kHz
Frame rate : 31.250 FPS (1536 SPF)
Bit depth : 16 bits
Compression mode : Lossy
Stream size : 248 MiB (4%)
Title : AC3 / 5.1 Ch / 384 kbps / DUB / Blu-Ray
Language : Russian
Service kind : Complete Main
Default : Yes
Forced : Yes

Audio #2
ID : 3
Format : AC-3
Format/Info : Audio Coding 3
Commercial name : Dolby Digital
Codec ID : A_AC3
Duration : 1 h 30 min
Bit rate mode : Constant
Bit rate : 192 kb/s
Channel(s) : 2 channels
Channel layout : L R
Sampling rate : 48.0 kHz
Frame rate : 31.250 FPS (1536 SPF)
Bit depth : 16 bits
Compression mode : Lossy
Stream size : 124 MiB (2%)
Title : AC3 / 2.0 Ch / 192 kbps / MVO / NLO
Language : Ukrainian
Service kind : Complete Main
Default : No
Forced : No

Audio #3
ID : 4
Format : DTS
Format/Info : Digital Theater Systems
Codec ID : A_DTS
Duration : 1 h 30 min
Bit rate mode : Constant
Bit rate : 1 509 kb/s
Channel(s) : 6 channels
Channel layout : C L R Ls Rs LFE
Sampling rate : 48.0 kHz
Frame rate : 93.750 FPS (512 SPF)
Bit depth : 24 bits
Compression mode : Lossy
Stream size : 976 MiB (17%)
Title : DTS / 5.1 Ch / 1509 kbps / Original
Language : English
Default : No
Forced : No

Text
ID : 5
Format : UTF-8
Codec ID : S_TEXT/UTF8
Codec ID/Info : UTF-8 Plain Text
Duration : 1 h 25 min
Bit rate : 38 b/s
Count of elements : 870
Stream size : 24.3 KiB (0%)
Title : Full
Language : English
Default : Yes
Forced : No
Загрузка...Cкриншот1 Человек с железными кулаками 2 / The Man with the Iron Fists 2 (2014) BDRip 1080p [HEVC] 10 bit от -Star-Lord-Загрузка...Cкриншот2 Человек с железными кулаками 2 / The Man with the Iron Fists 2 (2014) BDRip 1080p [HEVC] 10 bit от -Star-Lord-Загрузка...Cкриншот3 Человек с железными кулаками 2 / The Man with the Iron Fists 2 (2014) BDRip 1080p [HEVC] 10 bit от -Star-Lord-Загрузка...Cкриншот4 Человек с железными кулаками 2 / The Man with the Iron Fists 2 (2014) BDRip 1080p [HEVC] 10 bit от -Star-Lord-
Сэмпл Торрент🧲 Магнет

Рейтинги КП и IMDB, кнопки "Позвать в чате" и "Спасибо", а также мультитрекерная статистика доступны только зарегистрированным/авторизованным пользователям!

Файлы: 1
  • 2. The Man with the Iron Fists 2 (2015) BDRip 1080p H.265 [RUS_UKR_ENG] [HEVC-CLUB].mkv   5.63 ГБ
Поблагодарили: 2
MIGRANT, Nuclear70
StarLord
010005.63 ГБ

Добавление нового комментария

Добавление комментариев доступно только зарегистрированным/авторизованным пользователям.