💬 Мини-чат

Убедительная просьба не обсуждать тут политику.
ADVOKAT69OldGamer, удачи тебе!
OldGamerADVOKAT69, привет. С этим у нас не очень. Буду спрашивать.
ADVOKAT69OldGamer, привет!а может сервисный центр?
OldGamerПамять живая, потенциальные коротыши заизолировал. 0. Не стартует. Задумался...
ADVOKAT69Laska020489, не все сейчас могут делать!не в курсе что происходит?везет!
OldGamerПодозрение, что где-то плата коротит на корпус, жду диэлектрические шайбы м2.
OldGamerРусским по белому написано, что блок питания живой.
Laska020489блин а ты тут 1 что ли рипер? что более ни кто не делает?
Laska020489блок пробит
Laska020489всем привет
OldGamerОЗУ проверю на выходных, проц ткнуть некуда. Смущает, что на БП вообще вентиль не пытается провернуться, следовательно далее подать питание на мать, на которой загорелись бы светодиоды, чего она не может увидеть...
СвятогубOldGamer, проверяйте оперативку или проц
OldGamerно сетевой диод мигает
OldGamerнет... БП живой, мп заменил, кабели заменил, она просто не стартует
GedeonНу что с компом? Все таки материнка?
OldGamer14 сидов
Laska020489Сильнейший.удар.2 встаньте на раздачу плиз
Laska020489Сочувствую
Отправка сообщений доступна только зарегистрированным/авторизованным пользователям.
Онлайн (за 10 мин.): 0

Добро пожаловать в рай! / Into the Blue (2005) BDRip 1080p [HEVC] 10 bit от HANNIBAL

HEVC
10 bit
Обложка Добро пожаловать в рай! / Into the Blue (2005) BDRip 1080p [HEVC] 10 bit от HANNIBAL Год: 2005
Страна: США
Жанр: Боевик, Приключения, Криминал
Продолжительность: 01:50:12

Режиссер: Джон Стокуэлл
В ролях: Джессика Альба, Эшли Скотт, Пол Уокер, Скотт Каан Джош Бролин, Джеймс Фрейн, Тайсон Бекфорд, Дуэйн Эдвэй, Джейвон Фрейзер, Крис Талоа, Клиффорд МакИнтош, Адам Коллинз, Гилл Монти, Дэн Баллард, Саманта Ламб, Артур Томпсон мл., Стивен Белло...

Описание: Из пункта «А» в пункт «Б» летел небольшой частный самолетик и во время грозы потерпел аварию, где-то в акватории Багамских островов… Как раз в тех местах, где молодой парень Джаред, инструктор по дайвингу, мечтает в свободное от службы время о будущей лучшей жизни вместе со своей подружкой Самантой, которая работает в местном аквапарке. В гости к ним приезжают Брайс, давний приятель Джареда, и тоже с подружкой — Амандой. Весело проводя время на земле и на море, они в ходе очередного заплыва на глубину натыкаются на затонувший самолет, полный аккуратно запечатанных мешочков, как выяснится, с кокаином… С этой минуты начинаются для четверых друзей настоящие приключения, с погонями и предательством, с поединком, где выигравший получает жизнь…


Видео: 1920x812, 5500 Kbps
Аудио: AC3, 6 ch, 448 Kbps - РусскийРусский, Дублированный (Лицензия)
Субтитры: нет

Медиаинфо
General
Unique ID : 42999271612519695330084160168604580888 (0x20595BC53FE20E3ED4CB85FB2C31BC18)
Complete name : E:\Into the Blue (2005) BDRip 1080p [HEVC] 10bit.mkv
Format : Matroska
Format version : Version 4 / Version 2
File size : 4.58 GiB
Duration : 1 h 50 min
Overall bit rate : 5 950 kb/s
Movie name : Into the Blue (2005) Blu-ray Remux | maks990
Encoded date : UTC 2018-07-29 07:16:10
Writing application : mkvmerge v20.0.0 ('I Am The Sun') 64-bit
Writing library : libebml v1.3.5 + libmatroska v1.4.8 / Lavf57.71.100
Cover : Yes
Attachments : cover.jpg
ENCODING_INFO : MATROSKA,WEBM > MKV 1080p 10-bit / MPEG2 > X265 VBR-2P 5500kbps Medium / AC3 > AC3 CBR 448kbps / DTS-HD MA > AC3 CBR 448kbps

Video
ID : 1
Format : HEVC
Format/Info : High Efficiency Video Coding
Format profile : Main 10@L5.1@Main
Codec ID : V_MPEGH/ISO/HEVC
Duration : 1 h 50 min
Bit rate : 5 500 kb/s
Width : 1 920 pixels
Height : 812 pixels
Display aspect ratio : 2.35:1
Frame rate mode : Constant
Frame rate : 23.976 (24000/1001) FPS
Color space : YUV
Chroma subsampling : 4:2:0
Bit depth : 10 bits
Bits/(Pixel*Frame) : 0.147
Stream size : 4.23 GiB (92%)
Title : Bleu D'Enfer (2006)
Writing library : x265 2.8+19-bcdc610cf5f0:[Windows][GCC 7.3.0][64 bit] 10bit
Encoding settings : cpuid=1049583 / frame-threads=5 / numa-pools=4 / wpp / no-pmode / no-pme / no-psnr / no-ssim / log-level=3 / input-csp=1 / input-res=1920x812 / interlace=0 / total-frames=0 / level-idc=51 / high-tier=1 / uhd-bd=0 / ref=3 / allow-non-conformance / no-repeat-headers / annexb / no-aud / no-hrd / info / hash=0 / no-temporal-layers / open-gop / min-keyint=24 / keyint=240 / gop-lookahead=0 / bframes=6 / b-adapt=2 / b-pyramid / bframe-bias=0 / rc-lookahead=20 / lookahead-slices=5 / scenecut=40 / radl=0 / no-intra-refresh / ctu=64 / min-cu-size=8 / no-rect / no-amp / max-tu-size=32 / tu-inter-depth=1 / tu-intra-depth=1 / limit-tu=0 / rdoq-level=0 / dynamic-rd=0.00 / no-ssim-rd / signhide / no-tskip / nr-intra=0 / nr-inter=0 / no-constrained-intra / strong-intra-smoothing / max-merge=2 / limit-refs=3 / no-limit-modes / me=1 / subme=7 / merange=57 / temporal-mvp / weightp / no-weightb / no-analyze-src-pics / deblock=-2:-2 / sao / no-sao-non-deblock / rd=3 / no-early-skip / rskip / no-fast-intra / no-tskip-fast / no-cu-lossless / no-b-intra / no-splitrd-skip / rdpenalty=0 / psy-rd=2.00 / psy-rdoq=0.00 / no-rd-refine / no-lossless / cbqpoffs=0 / crqpoffs=0 / rc=abr / bitrate=5500 / qcomp=0.60 / qpstep=4 / stats-write=0 / stats-read=1 / cplxblur=20.0 / qblur=0.5 / ipratio=1.40 / pbratio=1.30 / aq-mode=1 / aq-strength=1.00 / cutree / zone-count=0 / no-strict-cbr / qg-size=32 / no-rc-grain / qpmax=69 / qpmin=0 / no-const-vbv / sar=1 / overscan=0 / videoformat=5 / range=0 / colorprim=1 / transfer=1 / colormatrix=1 / chromaloc=0 / display-window=0 / max-cll=0,0 / min-luma=0 / max-luma=1023 / log2-max-poc-lsb=8 / vui-timing-info / vui-hrd-info / slices=1 / no-opt-qp-pps / no-opt-ref-list-length-pps / no-multi-pass-opt-rps / scenecut-bias=0.05 / no-opt-cu-delta-qp / no-aq-motion / no-hdr / no-hdr-opt / no-dhdr10-opt / no-idr-recovery-sei / analysis-reuse-level=5 / scale-factor=0 / refine-intra=0 / refine-inter=0 / refine-mv=0 / no-limit-sao / ctu-info=0 / no-lowpass-dct / refine-mv-type=0 / copy-pic=1 / max-ausize-factor=1.0 / no-dynamic-refine / no-single-sei
Language : French
Default : Yes
Forced : No
Color range : Limited
Color primaries : BT.709
Transfer characteristics : BT.709
Matrix coefficients : BT.709

Audio
ID : 2
Format : AC-3
Format/Info : Audio Coding 3
Codec ID : A_AC3
Duration : 1 h 50 min
Bit rate mode : Constant
Bit rate : 448 kb/s
Channel(s) : 6 channels
Channel positions : Front: L C R, Side: L R, LFE
Sampling rate : 48.0 kHz
Frame rate : 31.250 FPS (1536 SPF)
Bit depth : 16 bits
Compression mode : Lossy
Stream size : 353 MiB (8%)
Title : DUB
Language : Russian
Service kind : Complete Main
Default : Yes
Forced : No

Menu
00:00:00.000 : :Chapter 1
00:09:51.174 : :Chapter 2
00:14:50.473 : :Chapter 3
00:19:56.946 : :Chapter 4
00:28:08.604 : :Chapter 5
00:34:37.826 : :Chapter 6
00:41:03.336 : :Chapter 7
00:50:36.283 : :Chapter 8
00:58:20.414 : :Chapter 9
01:00:29.084 : :Chapter 10
01:08:37.322 : :Chapter 11
01:16:10.608 : :Chapter 12
01:25:52.272 : :Chapter 13
01:30:32.802 : :Chapter 14
01:37:58.456 : :Chapter 15
01:43:28.119 : :Chapter 16
Загрузка...Cкриншот1 Добро пожаловать в рай! / Into the Blue (2005) BDRip 1080p [HEVC] 10 bit от HANNIBALЗагрузка...Cкриншот2 Добро пожаловать в рай! / Into the Blue (2005) BDRip 1080p [HEVC] 10 bit от HANNIBALЗагрузка...Cкриншот3 Добро пожаловать в рай! / Into the Blue (2005) BDRip 1080p [HEVC] 10 bit от HANNIBALЗагрузка...Cкриншот4 Добро пожаловать в рай! / Into the Blue (2005) BDRip 1080p [HEVC] 10 bit от HANNIBAL
Сэмпл Торрент🧲 Магнет

Рейтинги КП и IMDB, кнопки "Позвать в чате" и "Спасибо", а также мультитрекерная статистика доступны только зарегистрированным/авторизованным пользователям!

Файлы: 1
  • Into the Blue (2005) BDRip 1080p [HEVC] 10bit.mkv   4.58 ГБ
Поблагодарили: 6
7654321, Blake, brukvalub, donadar, makss333, Remontaz
HANNIBAL
0110014.58 ГБ

Добавление нового комментария

Добавление комментариев доступно только зарегистрированным/авторизованным пользователям.