💬 Мини-чат

Для тех, кому интересен процесс переделки сайта - https://rips.club/changelog.html (обновлен 20.04.2024)
  • justmkr
Отправка сообщений доступна только зарегистрированным/авторизованным пользователям.
Онлайн (за 10 мин.): 1

Девушка с татуировкой дракона / The Girl with the Dragon Tattoo (2011) BDRip 1080p [HEVC] 10 bit от Cthulhu

HEVC
10 bit
Обложка Девушка с татуировкой дракона / The Girl with the Dragon Tattoo (2011) BDRip 1080p [HEVC] 10 bit от Cthulhu Год: 2011
Страна: США, Германия, Швеция, Великобритания
Студия: Columbia Pictures, Film Rites
Жанр: Триллер, Драма, Детектив
Продолжительность: 02:38:08

Режиссер: Дэвид Финчер
В ролях: Дэниэл Крэйг, Руни Мара, Кристофер Пламмер, Стеллан Скарсгард, Стивен Беркофф, Робин Райт, Йорик ван Вагенинген, Джоэли Ричардсон, Джеральдин Джеймс, Горан Вишнич

Описание: Сорок лет назад Харриет Вангер бесследно пропала на острове, принадлежащем могущественному клану Вангер. Ее тело так и не было найдено, но ее дядя убежден, что это убийство и что убийца является членом его собственной, тесно сплоченной и неблагополучной семьи. Он нанимает опального журналиста Микаэля Блумквиста и татуированную хакершу Лисбет Саландер для проведения расследования.


Видео: 1920x798, 3798 Kbps
Аудио1: AC3, 6 ch, 448 Kbps - РусскийРусский, Дублированный (Лицензия)
Аудио2: AC3, 6 ch, 448 Kbps - АнглийскийАнглийский, Оригинал
Субтитры: Русские (форсированные, полные), английские

Как за пару секунд удалить ненужные аудиодорожки и субтитры (Внимание! После удаления вы не сможете поддержать раздачу)

Медиаинфо
General
Unique ID : 245594518001548073042906029205741871581 (0xB8C3C89C9BBA1E04A91070142267A1DD)
Complete name : F:\HEVC\The Girl with the Dragon Tattoo (2011) BDRip 1080p [HEVC] 10Bit.mkv
Format : Matroska
Format version : Version 4 / Version 2
File size : 5.19 GiB
Duration : 2 h 38 min
Overall bit rate : 4 696 kb/s
Movie name : rip_by_Cthulhu
Encoded date : UTC 2018-02-18 17:44:05
Writing application : mkvmerge v18.0.0 ('Apricity') 64-bit
Writing library : libebml v1.3.5 + libmatroska v1.4.8
Cover : Yes
Attachments : cover1.jpg

Video
ID : 1
Format : HEVC
Format/Info : High Efficiency Video Coding
Format profile : Main 10@L4.1@High
Codec ID : V_MPEGH/ISO/HEVC
Duration : 2 h 38 min
Bit rate : 3 798 kb/s
Width : 1 920 pixels
Height : 798 pixels
Display aspect ratio : 2.40:1
Frame rate mode : Constant
Frame rate : 23.976 (24000/1001) FPS
Color space : YUV
Chroma subsampling : 4:2:0
Bit depth : 10 bits
Bits/(Pixel*Frame) : 0.103
Stream size : 4.19 GiB (81%)
Writing library : x265 2.6+40-36ab263cc891:[Windows][GCC 7.3.0][64 bit] 10bit
Encoding settings : cpuid=1050111 / frame-threads=5 / numa-pools=4 / wpp / no-pmode / no-pme / no-psnr / no-ssim / log-level=3 / input-csp=1 / input-res=1920x798 / interlace=0 / total-frames=0 / level-idc=41 / high-tier=1 / uhd-bd=0 / ref=5 / allow-non-conformance / no-repeat-headers / annexb / no-aud / no-hrd / info / hash=0 / no-temporal-layers / open-gop / min-keyint=24 / keyint=240 / gop-lookahead=0 / bframes=8 / b-adapt=2 / b-pyramid / bframe-bias=0 / rc-lookahead=40 / lookahead-slices=5 / scenecut=40 / radl=0 / no-intra-refresh / ctu=64 / min-cu-size=8 / no-rect / no-amp / max-tu-size=32 / tu-inter-depth=3 / tu-intra-depth=3 / limit-tu=0 / rdoq-level=1 / dynamic-rd=0.00 / no-ssim-rd / signhide / no-tskip / nr-intra=0 / nr-inter=0 / no-constrained-intra / no-strong-intra-smoothing / max-merge=3 / limit-refs=3 / no-limit-modes / me=3 / subme=7 / merange=57 / temporal-mvp / weightp / weightb / no-analyze-src-pics / deblock=-3:-3 / no-sao / no-sao-non-deblock / rd=4 / no-early-skip / rskip / no-fast-intra / no-tskip-fast / no-cu-lossless / no-b-intra / no-splitrd-skip / rdpenalty=0 / psy-rd=2.00 / psy-rdoq=0.00 / no-rd-refine / no-lossless / cbqpoffs=0 / crqpoffs=0 / rc=crf / crf=18.0 / qcomp=0.60 / qpstep=4 / stats-write=0 / stats-read=0 / vbv-maxrate=50000 / vbv-bufsize=35714 / vbv-init=0.9 / crf-max=0.0 / crf-min=0.0 / ipratio=1.40 / pbratio=1.30 / aq-mode=3 / aq-strength=1.00 / cutree / zone-count=0 / no-strict-cbr / qg-size=32 / no-rc-grain / qpmax=69 / qpmin=0 / no-const-vbv / sar=1 / overscan=0 / videoformat=5 / range=0 / colorprim=2 / transfer=2 / colormatrix=2 / chromaloc=0 / display-window=0 / max-cll=0,0 / min-luma=0 / max-luma=1023 / log2-max-poc-lsb=8 / vui-timing-info / vui-hrd-info / slices=1 / no-opt-qp-pps / no-opt-ref-list-length-pps / no-multi-pass-opt-rps / scenecut-bias=0.05 / no-opt-cu-delta-qp / no-aq-motion / no-hdr / no-hdr-opt / no-dhdr10-opt / analysis-reuse-level=5 / scale-factor=0 / refine-intra=0 / refine-inter=0 / refine-mv=0 / no-limit-sao / ctu-info=0 / no-lowpass-dct / refine-mv-type=0 / copy-pic=1
Language : English
Default : Yes
Forced : Yes
Color range : Limited

Audio #1
ID : 2
Format : AC-3
Format/Info : Audio Coding 3
Codec ID : A_AC3
Duration : 2 h 38 min
Bit rate mode : Constant
Bit rate : 448 kb/s
Channel(s) : 6 channels
Channel positions : Front: L C R, Side: L R, LFE
Sampling rate : 48.0 kHz
Frame rate : 31.250 FPS (1536 SPF)
Bit depth : 16 bits
Compression mode : Lossy
Stream size : 507 MiB (10%)
Title : BD CEE
Language : Russian
Service kind : Complete Main
Default : Yes
Forced : No

Audio #2
ID : 3
Format : AC-3
Format/Info : Audio Coding 3
Codec ID : A_AC3
Duration : 2 h 38 min
Bit rate mode : Constant
Bit rate : 448 kb/s
Channel(s) : 6 channels
Channel positions : Front: L C R, Side: L R, LFE
Sampling rate : 48.0 kHz
Frame rate : 31.250 FPS (1536 SPF)
Bit depth : 16 bits
Compression mode : Lossy
Stream size : 507 MiB (10%)
Title : Original
Language : English
Service kind : Complete Main
Default : No
Forced : No

Text #1
ID : 4
Format : UTF-8
Codec ID : S_TEXT/UTF8
Codec ID/Info : UTF-8 Plain Text
Duration : 1 h 8 min
Bit rate : 0 b/s
Count of elements : 6
Stream size : 202 Bytes (0%)
Title : Forced
Language : Russian
Default : Yes
Forced : Yes

Text #2
ID : 5
Format : UTF-8
Codec ID : S_TEXT/UTF8
Codec ID/Info : UTF-8 Plain Text
Duration : 2 h 31 min
Bit rate : 86 b/s
Count of elements : 1568
Stream size : 96.5 KiB (0%)
Title : Full
Language : Russian
Default : No
Forced : No

Text #3
ID : 6
Format : UTF-8
Codec ID : S_TEXT/UTF8
Codec ID/Info : UTF-8 Plain Text
Duration : 2 h 31 min
Bit rate : 55 b/s
Count of elements : 1647
Stream size : 61.7 KiB (0%)
Title : Full
Language : English
Default : No
Forced : No

Menu
00:00:00.000 : :00:00:00.000
00:09:53.885 : :00:09:53.885
00:22:05.699 : :00:22:05.699
00:28:24.786 : :00:28:24.786
00:38:09.746 : :00:38:09.746
00:48:00.920 : :00:48:00.920
00:55:07.346 : :00:55:07.346
01:01:06.204 : :01:01:06.204
01:09:22.033 : :01:09:22.033
01:16:12.860 : :01:16:12.860
01:23:27.711 : :01:23:27.711
01:32:49.731 : :01:32:49.731
01:41:35.006 : :01:41:35.006
01:58:54.210 : :01:58:54.210
02:14:42.533 : :02:14:42.533
02:23:15.837 : :02:23:15.837
Загрузка...Cкриншот1 Девушка с татуировкой дракона / The Girl with the Dragon Tattoo (2011) BDRip 1080p [HEVC] 10 bit от CthulhuЗагрузка...Cкриншот2 Девушка с татуировкой дракона / The Girl with the Dragon Tattoo (2011) BDRip 1080p [HEVC] 10 bit от CthulhuЗагрузка...Cкриншот3 Девушка с татуировкой дракона / The Girl with the Dragon Tattoo (2011) BDRip 1080p [HEVC] 10 bit от CthulhuЗагрузка...Cкриншот4 Девушка с татуировкой дракона / The Girl with the Dragon Tattoo (2011) BDRip 1080p [HEVC] 10 bit от Cthulhu
Сэмпл Торрент🧲 Магнет

Рейтинги КП и IMDB, кнопки "Позвать в чате" и "Спасибо", а также мультитрекерная статистика доступны только зарегистрированным/авторизованным пользователям!

Файлы: 1
  • The Girl with the Dragon Tattoo (2011) BDRip 1080p [HEVC] 10Bit.mkv   5.19 ГБ
Поблагодарили: 8
aacg, abrofil, AndresUA, boxgas, bs158250, grudich, IRIT, ko1ob
Cthulhu
0504005.19 ГБ

Добавление нового комментария

Добавление комментариев доступно только зарегистрированным/авторизованным пользователям.