💬 Мини-чат

Giggaloнет ли у кого в планах "Давайте потанцуем" 2004
GiggaloСообщение удалено (удалил: Giggalo)
StarLordOldGamer, как дела?)
StarLordOldGamer, ура, вернулся 😄
OldGamerRezident, можете скачать этот фильм от другого релизёра, там невелика разница, а раздающие точно есть
OldGamerGiggalo, https://tsya.ru/mnemonic.html
NoMaDСообщение удалено (удалил: NoMaD)
NoMaDСообщение удалено (удалил: NoMaD)
GiggaloСообщение удалено (удалил: Giggalo)
GiggaloСообщение удалено (удалил: Giggalo)
Spartanec1308Был днём
StarLordGiggalo, наверное отрубало беднягу, целый день его нету 😅
GiggaloСообщение удалено (удалил: Giggalo)
OldGamerДоброе. Работы много, некогда на перинах валяться.
GiggaloСообщение удалено (удалил: Giggalo)
GiggaloСообщение удалено (удалил: Giggalo)
  • qvnvqygospcocittov
  • Rezident
  • Херсонец
Отправка сообщений доступна только зарегистрированным/авторизованным пользователям.
Онлайн (за 10 мин.): 3

От заката до рассвета 2: Кровавые деньги из Техаса / From Dusk Till Dawn 2: Texas Blood Money (1998) [GER Transfer] BDRip 1080p [HEVC] 10 bit от -Star-Lord-

HEVC
10 bit
Обложка От заката до рассвета 2: Кровавые деньги из Техаса / From Dusk Till Dawn 2: Texas Blood Money (1998) [GER Transfer] BDRip 1080p [HEVC] 10 bit от -Star-Lord- Год: 1998
Страна: США
Студия: A Band Apart, Dimension Films, Los Hooligans Productions
Жанр: Ужасы, Фэнтези, Триллер, Комедия
Продолжительность: 01:28:25

Режиссер: Скотт Шпигель
В ролях: Роберт Патрик, Бо Хопкинс, Дуан Уайтакер, Мьюз Уотсон, Бретт Харрельсон, Рэймонд Крус, Дэнни Трехо, Джеймс Паркс, Стэйси Буржуа, Мария Чека

Описание: Пятеро крутых парней решают ограбить банк в Мексике. Они еще не сдвинулись с места, а полиция уже сидела на хвосте, разыскивая только что сбежавшего из-под стражи их сообщника Лютера. С ним Бак назначил встречу в пути. Все едва не сорвалось, когда ночью в дороге, неподалеку от бара «Крученые сиськи», у Лютера ломается машина...


Видео: 1904x1036, ~16,7 Мbps
Аудио1: AC3, 6 ch, 448 Kbps - РусскийРусский, Двухголосый (R5)
Аудио2: AC3, 2 ch, 192 Kbps - РусскийРусский, Многоголосый (РТР)
Аудио3: AC3, 6 ch, 384 Kbps - РусскийРусский, Одноголосый (Живов)
Аудио4: AC3, 6 ch, 448 Kbps - РусскийРусский, Одноголосый (Гаврилов)
Аудио5: AC3, 2 ch, 192 Kbps - РусскийРусский, Одноголосый (Дольский)
Аудио6: AC3, 2 ch, 192 Kbps - УкраинскийУкраинский, Дублированынй (NLO)
Аудио7: AC3, 6 ch, 448 Kbps - АнглийскийАнглийский, Оригинал
Субтитры: Русские, английские

Как за пару секунд удалить ненужные аудиодорожки и субтитры (Внимание! После удаления вы не сможете поддержать раздачу)

Медиаинфо
Общее

Уникальный идентификатор : 315615567354422004341292074732072570291 (0xED7158E2A40E28673048404B45C18DB3)

Полное имя : R:\From Dusk Till Dawn 2. Texas Blood Money. 1999. 1080p. HEVC. 10bit.mkv

Формат : Matroska

Версия формата : Version 4 / Version 2

Размер файла : 11,7 Гбайт

Продолжительность : 1 ч. 28 м.

Общий поток : 19,0 Мбит/сек

Дата кодирования : UTC 2020-07-04 06:33:57

Программа кодирования : mkvmerge v28.2.0 ('The Awakening') 64-bit

Библиотека кодирования : libebml v1.3.6 + libmatroska v1.4.9

Обложка : Yes

Attachments : cover.jpg



Видео

Идентификатор : 1

Формат : HEVC

Формат/Информация : High Efficiency Video Coding

Профиль формата : Main 10@L5.1@High

Идентификатор кодека : V_MPEGH/ISO/HEVC

Продолжительность : 1 ч. 28 м.

Битрейт : 16,7 Мбит/сек

Ширина : 1904 пикселя

Высота : 1036 пикселей

Соотношение сторон : 1,85:1

Режим частоты кадров : Постоянный

Частота кадров : 23,976 (24000/1001) кадра/сек

Цветовое пространство : YUV

Субдискретизация насыщенности : 4:2:0

Битовая глубина : 10 бит

Бит/(Пиксели*Кадры) : 0.353

Размер потока : 10,3 Гбайт (88%)

Библиотека кодирования : x265 3.2+5-354901970679:[Windows][clang 8.0.1][64 bit] 10bit

Настройки программы : cpuid=1111039 / frame-threads=13 / numa-pools=12 / wpp / no-pmode / no-pme / no-psnr / no-ssim / log-level=3 / input-csp=1 / input-res=1904x1036 / interlace=0 / total-frames=0 / level-idc=51 / high-tier=1 / uhd-bd=0 / ref=5 / allow-non-conformance / no-repeat-headers / annexb / no-aud / no-hrd / info / hash=0 / no-temporal-layers / open-gop / min-keyint=24 / keyint=240 / gop-lookahead=0 / bframes=11 / b-adapt=2 / b-pyramid / bframe-bias=0 / rc-lookahead=40 / lookahead-slices=6 / scenecut=40 / radl=0 / no-splice / no-intra-refresh / ctu=64 / min-cu-size=8 / rect / amp / max-tu-size=32 / tu-inter-depth=4 / tu-intra-depth=4 / limit-tu=0 / rdoq-level=2 / dynamic-rd=0.00 / no-ssim-rd / signhide / no-tskip / nr-intra=0 / nr-inter=0 / no-constrained-intra / no-strong-intra-smoothing / max-merge=3 / limit-refs=1 / no-limit-modes / me=3 / subme=7 / merange=57 / temporal-mvp / no-frame-dup / no-hme / weightp / weightb / no-analyze-src-pics / deblock=-3:-3 / no-sao / no-sao-non-deblock / rd=6 / selective-sao=0 / early-skip / rskip / no-fast-intra / no-tskip-fast / no-cu-lossless / b-intra / no-splitrd-skip / rdpenalty=0 / psy-rd=2.00 / psy-rdoq=1.00 / no-rd-refine / no-lossless / cbqpoffs=0 / crqpoffs=0 / rc=crf / crf=20.0 / qcomp=0.65 / qpstep=4 / stats-write=0 / stats-read=0 / vbv-maxrate=50000 / vbv-bufsize=50000 / vbv-init=0.9 / crf-max=30.0 / crf-min=0.0 / ipratio=1.40 / pbratio=1.30 / aq-mode=1 / aq-strength=1.00 / no-cutree / zone-count=0 / no-strict-cbr / qg-size=32 / no-rc-grain / qpmax=69 / qpmin=0 / no-const-vbv / sar=1 / overscan=0 / videoformat=5 / range=0 / colorprim=1 / transfer=1 / colormatrix=1 / chromaloc=0 / display-window=0 / cll=0,0 / min-luma=0 / max-luma=1023 / log2-max-poc-lsb=8 / vui-timing-info / vui-hrd-info / slices=1 / no-opt-qp-pps / no-opt-ref-list-length-pps / no-multi-pass-opt-rps / scenecut-bias=0.05 / no-opt-cu-delta-qp / no-aq-motion / no-hdr / no-hdr-opt / no-dhdr10-opt / no-idr-recovery-sei / analysis-reuse-level=5 / scale-factor=0 / refine-intra=0 / refine-inter=0 / refine-mv=1 / refine-ctu-distortion=0 / no-limit-sao / ctu-info=0 / no-lowpass-dct / refine-analysis-type=0 / copy-pic=1 / max-ausize-factor=1.0 / no-dynamic-refine / no-single-sei / no-hevc-aq / no-svt / no-field / qp-adaptation-range=1.00

Default : Да

Forced : Нет

Цветовой диапазон : Limited

Основные цвета : BT.709

Характеристики трансфера : BT.709

Коэффициенты матрицы : BT.709



Аудио #1

Идентификатор : 2

Формат : AC-3

Формат/Информация : Audio Coding 3

Идентификатор кодека : A_AC3

Продолжительность : 1 ч. 28 м.

Вид битрейта : Постоянный

Битрейт : 448 Кбит/сек

Каналы : 6 каналов

Расположение каналов : Front: L C R, Side: L R, LFE

Частота : 48,0 КГц

Частота кадров : 31,250 кадров/сек (1536 SPF)

Битовая глубина : 16 бит

Метод сжатия : С потерями

Размер потока : 283 Мбайт (2%)

Заголовок : DVO (R5)

Язык : Russian

ServiceKind/String : Complete Main

Default : Да

Forced : Да



Аудио #2

Идентификатор : 3

Формат : AC-3

Формат/Информация : Audio Coding 3

Идентификатор кодека : A_AC3

Продолжительность : 1 ч. 28 м.

Вид битрейта : Постоянный

Битрейт : 192 Кбит/сек

Каналы : 2 канала

Расположение каналов : Front: L R

Частота : 48,0 КГц

Частота кадров : 31,250 кадров/сек (1536 SPF)

Битовая глубина : 16 бит

Метод сжатия : С потерями

Размер потока : 121 Мбайт (1%)

Заголовок : MVO (РТР)

Язык : Russian

ServiceKind/String : Complete Main

Default : Нет

Forced : Нет



Аудио #3

Идентификатор : 4

Формат : AC-3

Формат/Информация : Audio Coding 3

Идентификатор кодека : A_AC3

Продолжительность : 1 ч. 28 м.

Вид битрейта : Постоянный

Битрейт : 384 Кбит/сек

Каналы : 6 каналов

Расположение каналов : Front: L C R, Side: L R, LFE

Частота : 48,0 КГц

Частота кадров : 31,250 кадров/сек (1536 SPF)

Битовая глубина : 16 бит

Метод сжатия : С потерями

Размер потока : 243 Мбайт (2%)

Заголовок : AVO (Живов)

Язык : Russian

ServiceKind/String : Complete Main

Default : Нет

Forced : Нет



Аудио #4

Идентификатор : 5

Формат : AC-3

Формат/Информация : Audio Coding 3

Идентификатор кодека : A_AC3

Продолжительность : 1 ч. 28 м.

Вид битрейта : Постоянный

Битрейт : 448 Кбит/сек

Каналы : 2 канала

Расположение каналов : Front: L R

Частота : 48,0 КГц

Частота кадров : 31,250 кадров/сек (1536 SPF)

Битовая глубина : 16 бит

Метод сжатия : С потерями

Размер потока : 283 Мбайт (2%)

Заголовок : AVO (Гаврилов)

Язык : Russian

ServiceKind/String : Complete Main

Default : Нет

Forced : Нет



Аудио #5

Идентификатор : 6

Формат : AC-3

Формат/Информация : Audio Coding 3

Идентификатор кодека : A_AC3

Продолжительность : 1 ч. 28 м.

Вид битрейта : Постоянный

Битрейт : 192 Кбит/сек

Каналы : 2 канала

Расположение каналов : Front: L R

Частота : 48,0 КГц

Частота кадров : 31,250 кадров/сек (1536 SPF)

Битовая глубина : 16 бит

Метод сжатия : С потерями

Размер потока : 121 Мбайт (1%)

Заголовок : AVO (Дольский)

Язык : Russian

ServiceKind/String : Complete Main

Default : Нет

Forced : Нет



Аудио #6

Идентификатор : 7

Формат : AC-3

Формат/Информация : Audio Coding 3

Идентификатор кодека : A_AC3

Продолжительность : 1 ч. 28 м.

Вид битрейта : Постоянный

Битрейт : 192 Кбит/сек

Каналы : 2 канала

Расположение каналов : Front: L R

Частота : 48,0 КГц

Частота кадров : 31,250 кадров/сек (1536 SPF)

Битовая глубина : 16 бит

Метод сжатия : С потерями

Размер потока : 121 Мбайт (1%)

Заголовок : Дублированный (NLO)

Язык : Ukrainian

ServiceKind/String : Complete Main

Default : Нет

Forced : Нет



Аудио #7

Идентификатор : 8

Формат : AC-3

Формат/Информация : Audio Coding 3

Идентификатор кодека : A_AC3

Продолжительность : 1 ч. 28 м.

Вид битрейта : Постоянный

Битрейт : 448 Кбит/сек

Каналы : 6 каналов

Расположение каналов : Front: L C R, Side: L R, LFE

Частота : 48,0 КГц

Частота кадров : 31,250 кадров/сек (1536 SPF)

Битовая глубина : 16 бит

Метод сжатия : С потерями

Размер потока : 283 Мбайт (2%)

Заголовок : Оригинал

Язык : English

ServiceKind/String : Complete Main

Default : Нет

Forced : Нет



Текст #1

Идентификатор : 9

Формат : UTF-8

Идентификатор кодека : S_TEXT/UTF8

Идентификатор кодека/Информация : UTF-8 Plain Text

Продолжительность : 1 ч. 21 м.

Битрейт : 48 бит/сек

ElementCount : 443

Размер потока : 29,2 Кбайт (0%)

Заголовок : Full

Язык : Russian

Default : Нет

Forced : Нет



Текст #2

Идентификатор : 10

Формат : UTF-8

Идентификатор кодека : S_TEXT/UTF8

Идентификатор кодека/Информация : UTF-8 Plain Text

Продолжительность : 1 ч. 21 м.

Битрейт : 42 бит/сек

ElementCount : 599

Размер потока : 25,3 Кбайт (0%)

Заголовок : Full

Язык : English

Default : Нет

Forced : Нет



Меню

00:00:00.000 : en:Elevator Action

00:06:00.985 : en:Old Friends

00:13:17.797 : en:Building a Team

00:16:19.979 : en:Mexico

00:20:54.253 : en:Titty Twister

00:29:00.739 : en:Internal Squabbling

00:32:18.937 : en:Transformed

00:38:35.938 : en:New Plan

00:43:00.578 : en:Banco Bravo

00:51:09.274 : en:Negotiations

00:59:32.569 : en:Buck Stands Alone

01:05:05.526 : en:Eclipse

01:08:57.341 : en:Unstoppable

01:11:34.915 : en:Standoff

01:19:33.268 : en:One Last Getaway
Загрузка...Cкриншот1 От заката до рассвета 2: Кровавые деньги из Техаса / From Dusk Till Dawn 2: Texas Blood Money (1998) [GER Transfer] BDRip 1080p [HEVC] 10 bit от -Star-Lord-Загрузка...Cкриншот2 От заката до рассвета 2: Кровавые деньги из Техаса / From Dusk Till Dawn 2: Texas Blood Money (1998) [GER Transfer] BDRip 1080p [HEVC] 10 bit от -Star-Lord-Загрузка...Cкриншот3 От заката до рассвета 2: Кровавые деньги из Техаса / From Dusk Till Dawn 2: Texas Blood Money (1998) [GER Transfer] BDRip 1080p [HEVC] 10 bit от -Star-Lord-Загрузка...Cкриншот4 От заката до рассвета 2: Кровавые деньги из Техаса / From Dusk Till Dawn 2: Texas Blood Money (1998) [GER Transfer] BDRip 1080p [HEVC] 10 bit от -Star-Lord-
Сэмпл Торрент🧲 Магнет

Рейтинги КП и IMDB, кнопки "Позвать в чате" и "Спасибо", а также мультитрекерная статистика доступны только зарегистрированным/авторизованным пользователям!

Файлы: 1
  • From Dusk Till Dawn 2. Texas Blood Money. 1999. 1080p. HEVC. 10bit.mkv   11.75 ГБ
Поблагодарили: 3
donadar, Kiran, makss333
StarLord
0131011.75 ГБ

Добавление нового комментария

Добавление комментариев доступно только зарегистрированным/авторизованным пользователям.