Регистрация / Смена пароля

💬 Мини-чат

Адрес сайта поменялся с hevc-club.video на rips.club. Новый адрес анонсера - http://rips.club:2710/announce
ADVOKAT69rodina_45, буду перекодировать!
rodina_45Раздайте, пожалуйста, Царевна-лягушка (1954) BDRip 1080p [HEVC] 10 bit от ADVOKAT69
OldGamerДа всегда пожалуйста
UndervestСообщение удалено (удалил: Undervest)
StarLordOldGamer, очень жаль... Возможно сам возьмусь)
OldGamerStarLord, в планах такого нету :)
StarLordOldGamer, еще бы "Бомжа с дробовиком" в придачу к "Мачете" =))
warner98Раздайте, пожалуйста, Кошмар на улице Вязов / A Nightmare on Elm Street (2010) BDRip 1080p [HEVC] 10 bit от Cthulhu
VISРаздайте, пожалуйста, Доспехи Бога / Lung hing foo dai (1986) BDRip 1080p [HEVC] 10 bit от joker63
  • Admin
  • AlexTwitt
  • ancestor87
  • and50
  • makss333
  • porsche_carrera
  • sabretooth
Отправка сообщений доступна только зарегистрированным/авторизованным пользователям.
Онлайн (за 10 мин.): 7

Однажды... Тарантино / 21 Years: Quentin Tarantino / QT8: The First Eight (2019) [iTunes] BDRip 1080p [HEVC] 10 bit от -Star-Lord-

HEVC
10 bit
Обложка Однажды... Тарантино / 21 Years: Quentin Tarantino / QT8: The First Eight (2019) [iTunes] BDRip 1080p [HEVC] 10 bit от -Star-Lord- Год: 2019
Страна: США
Студия: Wood Entertainment
Жанр: Документальный, Биография
Продолжительность: 01:40:40

Режиссер: Тара Вуд
В ролях: Квентин Тарантино, Дженнифер Джейсон Ли, Курт Расселл, Сэмюэл Л. Джексон, Дайан Крюгер, Кристоф Вальц, Люси Лью, Брюс Дерн, Джейми Фокс, Тим Рот, Майкл Мэдсен, Роберт Форстер

Описание: Исследование творческого пути одного из самых выразительных режиссёров современности - Квентина Тарантино. Обзор двух первых и определяющих десятилетий его карьеры, основанный на интервью с его сотрудниками, коллегами и знаменитыми актёрами, звёздами тарантиновских фильмов.


Видео: 1920x1080, 8132 kbps
Аудио1: AC3, 6 ch, 384 Kbps - РусскийРусский, Многоголосый (iTunes)
Аудио2: DTS, 6 ch, 1509 Kbps - АнглийскийАнглийский, Оригинал
Субтитры: Русские (форсированные), английские (форсированные, полные), немецкие (форсированные, полные)

Как за пару секунд удалить ненужные аудиодорожки и субтитры (Внимание! После удаления вы не сможете поддержать раздачу)

Медиаинфо
General
Unique ID : 285808866507801368659518452120972263005 (0xD704C91274E1A6DCAB93714DAD057E5D)
Complete name : 21 Years - Quentin Tarantino (2019) BDRip 1080p H.265 [RUS_ENG] [HEVC-CLUB].mkv
Format : Matroska
Format version : Version 4
File size : 7.05 GiB
Duration : 1 h 40 min
Overall bit rate : 10.0 Mb/s
Movie name : Однажды... Тарантино / 21 Years: Quentin Tarantino (2019)
Encoded date : UTC 2020-07-21 11:26:01
Writing application : mkvmerge v20.0.0 ('I Am The Sun') 64-bit
Writing library : libebml v1.3.5 + libmatroska v1.4.8
Cover : Yes
Attachments : Cover.jpg

Video
ID : 1
Format : HEVC
Format/Info : High Efficiency Video Coding
Format profile : Main 10@L5.1@High
Codec ID : V_MPEGH/ISO/HEVC
Duration : 1 h 40 min
Bit rate : 8 132 kb/s
Width : 1 920 pixels
Height : 1 080 pixels
Display aspect ratio : 16:9
Frame rate mode : Constant
Frame rate : 23.976 (24000/1001) FPS
Color space : YUV
Chroma subsampling : 4:2:0
Bit depth : 10 bits
Bits/(Pixel*Frame) : 0.164
Stream size : 5.72 GiB (81%)
Title : Однажды... Тарантино / 21 Years: Quentin Tarantino (2019)
Writing library : x265 3.2+5-354901970679:[Windows][clang 8.0.1][64 bit] 10bit
Encoding settings : cpuid=1111039 / frame-threads=13 / numa-pools=12 / wpp / no-pmode / no-pme / no-psnr / no-ssim / log-level=3 / input-csp=1 / input-res=1920x1080 / interlace=0 / total-frames=0 / level-idc=51 / high-tier=1 / uhd-bd=0 / ref=5 / allow-non-conformance / no-repeat-headers / annexb / no-aud / no-hrd / info / hash=0 / no-temporal-layers / open-gop / min-keyint=24 / keyint=240 / gop-lookahead=0 / bframes=11 / b-adapt=2 / b-pyramid / bframe-bias=0 / rc-lookahead=60 / lookahead-slices=6 / scenecut=40 / radl=0 / no-splice / no-intra-refresh / ctu=64 / min-cu-size=8 / rect / amp / max-tu-size=32 / tu-inter-depth=4 / tu-intra-depth=4 / limit-tu=0 / rdoq-level=2 / dynamic-rd=0.00 / no-ssim-rd / signhide / no-tskip / nr-intra=0 / nr-inter=0 / no-constrained-intra / no-strong-intra-smoothing / max-merge=3 / limit-refs=1 / no-limit-modes / me=3 / subme=7 / merange=57 / temporal-mvp / no-frame-dup / no-hme / weightp / weightb / no-analyze-src-pics / deblock=-3:-3 / no-sao / no-sao-non-deblock / rd=6 / selective-sao=0 / early-skip / rskip / no-fast-intra / no-tskip-fast / no-cu-lossless / b-intra / no-splitrd-skip / rdpenalty=0 / psy-rd=2.00 / psy-rdoq=1.00 / no-rd-refine / no-lossless / cbqpoffs=0 / crqpoffs=0 / rc=crf / crf=20.0 / qcomp=0.65 / qpstep=4 / stats-write=0 / stats-read=0 / vbv-maxrate=50000 / vbv-bufsize=50000 / vbv-init=0.9 / crf-max=30.0 / crf-min=0.0 / ipratio=1.40 / pbratio=1.30 / aq-mode=1 / aq-strength=1.00 / no-cutree / zone-count=0 / no-strict-cbr / qg-size=32 / no-rc-grain / qpmax=69 / qpmin=0 / no-const-vbv / sar=1 / overscan=0 / videoformat=5 / range=0 / colorprim=1 / transfer=1 / colormatrix=1 / chromaloc=0 / display-window=0 / cll=0,0 / min-luma=0 / max-luma=1023 / log2-max-poc-lsb=8 / vui-timing-info / vui-hrd-info / slices=1 / no-opt-qp-pps / no-opt-ref-list-length-pps / no-multi-pass-opt-rps / scenecut-bias=0.05 / no-opt-cu-delta-qp / no-aq-motion / no-hdr / no-hdr-opt / no-dhdr10-opt / no-idr-recovery-sei / analysis-reuse-level=5 / scale-factor=0 / refine-intra=0 / refine-inter=0 / refine-mv=1 / refine-ctu-distortion=0 / no-limit-sao / ctu-info=0 / no-lowpass-dct / refine-analysis-type=0 / copy-pic=1 / max-ausize-factor=1.0 / no-dynamic-refine / no-single-sei / no-hevc-aq / no-svt / no-field / qp-adaptation-range=1.00
Default : Yes
Forced : No
Color range : Limited
Color primaries : BT.709
Transfer characteristics : BT.709
Matrix coefficients : BT.709

Audio #1
ID : 2
Format : AC-3
Format/Info : Audio Coding 3
Commercial name : Dolby Digital
Codec ID : A_AC3
Duration : 1 h 40 min
Bit rate mode : Constant
Bit rate : 384 kb/s
Channel(s) : 6 channels
Channel layout : L R C LFE Ls Rs
Sampling rate : 48.0 kHz
Frame rate : 31.250 FPS (1536 SPF)
Compression mode : Lossy
Stream size : 276 MiB (4%)
Title : AC3 / 5.1 Ch / 384 kbps / MVO / iTunes
Language : Russian
Service kind : Complete Main
Default : Yes
Forced : Yes

Audio #2
ID : 3
Format : DTS
Format/Info : Digital Theater Systems
Codec ID : A_DTS
Duration : 1 h 40 min
Bit rate mode : Constant
Bit rate : 1 509 kb/s
Channel(s) : 6 channels
Channel layout : C L R Ls Rs LFE
Sampling rate : 48.0 kHz
Frame rate : 93.750 FPS (512 SPF)
Bit depth : 24 bits
Compression mode : Lossy
Stream size : 1.06 GiB (15%)
Title : DTS / 5.1 Ch / 1509 kbps / Original
Language : English
Default : No
Forced : No

Text #1
ID : 4
Format : UTF-8
Codec ID : S_TEXT/UTF8
Codec ID/Info : UTF-8 Plain Text
Duration : 1 h 36 min
Bit rate : 15 b/s
Count of elements : 187
Stream size : 11.2 KiB (0%)
Title : Forced
Language : Russian
Default : Yes
Forced : Yes

Text #2
ID : 5
Format : UTF-8
Codec ID : S_TEXT/UTF8
Codec ID/Info : UTF-8 Plain Text
Duration : 5 min 29 s
Bit rate : 10 b/s
Count of elements : 13
Stream size : 422 Bytes (0%)
Title : Forced
Language : English
Default : No
Forced : No

Text #3
ID : 6
Format : UTF-8
Codec ID : S_TEXT/UTF8
Codec ID/Info : UTF-8 Plain Text
Duration : 1 h 37 min
Bit rate : 109 b/s
Count of elements : 2330
Stream size : 77.8 KiB (0%)
Title : Full
Language : English
Default : No
Forced : No

Text #4
ID : 7
Format : UTF-8
Codec ID : S_TEXT/UTF8
Codec ID/Info : UTF-8 Plain Text
Duration : 36 min 50 s
Bit rate : 4 b/s
Count of elements : 25
Stream size : 1.10 KiB (0%)
Title : Forced
Language : German
Default : No
Forced : No

Text #5
ID : 8
Format : UTF-8
Codec ID : S_TEXT/UTF8
Codec ID/Info : UTF-8 Plain Text
Duration : 1 h 40 min
Bit rate : 96 b/s
Count of elements : 1818
Stream size : 70.7 KiB (0%)
Title : Full
Language : German
Default : No
Forced : No

Menu
00:00:00.000 : :Chapter 1
00:01:34.803 : :Chapter 2
00:05:01.551 : :Chapter 3
00:07:24.653 : :Chapter 4
00:17:20.831 : :Chapter 5
00:28:08.437 : :Chapter 6
00:34:49.379 : :Chapter 7
00:37:39.507 : :Chapter 8
00:48:29.073 : :Chapter 9
00:55:25.906 : :Chapter 10
01:08:26.102 : :Chapter 11
01:20:42.755 : :Chapter 12
01:27:32.664 : :Chapter 13
01:30:33.178 : :Chapter 14
01:34:21.197 : :Chapter 15
01:37:37.060 : :Chapter 16
01:40:40.076 : :Chapter 17
Загрузка...Cкриншот1 Однажды... Тарантино / 21 Years: Quentin Tarantino / QT8: The First Eight (2019) [iTunes] BDRip 1080p [HEVC] 10 bit от -Star-Lord-Загрузка...Cкриншот2 Однажды... Тарантино / 21 Years: Quentin Tarantino / QT8: The First Eight (2019) [iTunes] BDRip 1080p [HEVC] 10 bit от -Star-Lord-Загрузка...Cкриншот3 Однажды... Тарантино / 21 Years: Quentin Tarantino / QT8: The First Eight (2019) [iTunes] BDRip 1080p [HEVC] 10 bit от -Star-Lord-Загрузка...Cкриншот4 Однажды... Тарантино / 21 Years: Quentin Tarantino / QT8: The First Eight (2019) [iTunes] BDRip 1080p [HEVC] 10 bit от -Star-Lord-
Сэмпл Торрент🧲 Магнет

Рейтинги КП и IMDB, кнопки "Позвать в чате" и "Спасибо", а также мультитрекерная статистика сидов и пиров доступны только зарегистрированным/авторизованным пользователям!

Файлы: 1
  • 21 Years - Quentin Tarantino (2019) BDRip 1080p H.265 [RUS_ENG] [HEVC-CLUB].mkv   7.05 ГБ
Поблагодарили: 1
makss333
StarLord
06107.05 ГБ

Добавление нового комментария

Добавление комментариев доступно только зарегистрированным/авторизованным пользователям.