💬 Мини-чат

Для тех, кому интересен процесс переделки сайта - https://rips.club/changelog.html (обновлен 20.04.2024)
  • z1M4p9i0
Отправка сообщений доступна только зарегистрированным/авторизованным пользователям.
Онлайн (за 10 мин.): 1

Наемные Убийцы / Assassins (1995) BDRip 1080p [HEVC] 10 bit от Cthulhu

HEVC
10 bit
Обложка Наемные Убийцы / Assassins (1995) BDRip 1080p [HEVC] 10 bit от Cthulhu Год: 1995
Страна: США, Франция
Студия: Warner Bros. Pictures, Silver Pictures
Жанр: Боевик, Драма
Продолжительность: 02:12:53

Режиссер: Ричард Доннер
В ролях: Сильвестр Сталлоне, Антонио Бандерас, Джулианна Мур, Анатолий Давыдов, Мьюз Уотсон, Стив Кэхэн, Келли Роуэн, Рид Даймонд, Кай Вулфф

Описание: Роберт Рэт — лучший киллер, номер один в своём деле. Но кодекс чести и чувство долга, что некогда составляли часть его смертельной карьеры, исчезли. Мир, возникший после холодной войны, переполнен отморозками. Рэт хочет «завязать». Ему поручили убрать хакершу Электру , ворующую из компьютерных сетей секретную информацию и продающую ее тем, кто больше заплатит. Задание перехватывает молодой и амбициозный киллер Мигель Бэйн, мечтающий занять место стареющего Роберта, чтобы самому стать номером первым. Рэт не убивает жертву, а объединяет их усилия по получению денег. Мигель Бэйн получает задание убить Рэта. Но как оказывается, у старшего киллера есть ещё один враг…


Видео: 1920x1080, 4077 Kbps
Аудио1: AC3, 6 ch, 384 Kbps - РусскийРусский, Дублированный (R5)
Аудио2: AC3, 2 ch, 192 Kbps - РусскийРусский, Дублированный (Варус-видео)
Аудио3: AC3, 6 ch, 384 Kbps - РусскийРусский, Одноголосый (Гаврилов)
Аудио4: AC3, 6 ch, 384 Kbps - Оригинал
Субтитры: Русские, английские

Как за пару секунд удалить ненужные аудиодорожки и субтитры (Внимание! После удаления вы не сможете поддержать раздачу)

Медиаинфо
General
Unique ID : 242073381801596261781862201824666160801 (0xB61DA3319113567F8A9E75376D1F8EA1)
Complete name : F:\HEVC\Assassins (1995) BDRip 1080p [HEVC] 10Bit.mkv
Format : Matroska
Format version : Version 4 / Version 2
File size : 5.03 GiB
Duration : 2 h 12 min
Overall bit rate : 5 419 kb/s
Movie name : rip_by_Cthulhu
Encoded date : UTC 2018-02-17 15:12:42
Writing application : mkvmerge v18.0.0 ('Apricity') 64-bit
Writing library : libebml v1.3.5 + libmatroska v1.4.8
Cover : Yes
Attachments : cover1.jpg

Video
ID : 1
Format : HEVC
Format/Info : High Efficiency Video Coding
Format profile : Main 10@L4.1@High
Codec ID : V_MPEGH/ISO/HEVC
Duration : 2 h 12 min
Bit rate : 4 077 kb/s
Width : 1 920 pixels
Height : 1 080 pixels
Display aspect ratio : 16:9
Frame rate mode : Constant
Frame rate : 23.976 (24000/1001) FPS
Color space : YUV
Chroma subsampling : 4:2:0
Bit depth : 10 bits
Bits/(Pixel*Frame) : 0.082
Stream size : 3.78 GiB (75%)
Writing library : x265 2.6+6-2e684b80d90f:[Windows][GCC 7.2.0][64 bit] 10bit
Encoding settings : cpuid=1050111 / frame-threads=2 / numa-pools=4 / wpp / no-pmode / no-pme / no-psnr / no-ssim / log-level=2 / input-csp=1 / input-res=1920x1080 / interlace=0 / total-frames=0 / level-idc=41 / high-tier=1 / uhd-bd=0 / ref=4 / no-allow-non-conformance / no-repeat-headers / annexb / no-aud / no-hrd / info / hash=0 / no-temporal-layers / open-gop / min-keyint=23 / keyint=250 / bframes=10 / b-adapt=2 / b-pyramid / bframe-bias=0 / rc-lookahead=40 / lookahead-slices=4 / scenecut=40 / no-intra-refresh / ctu=64 / min-cu-size=8 / no-rect / no-amp / max-tu-size=32 / tu-inter-depth=2 / tu-intra-depth=2 / limit-tu=0 / rdoq-level=2 / dynamic-rd=0.00 / no-ssim-rd / signhide / no-tskip / nr-intra=0 / nr-inter=0 / no-constrained-intra / no-strong-intra-smoothing / max-merge=2 / limit-refs=0 / limit-modes / me=3 / subme=7 / merange=57 / temporal-mvp / weightp / weightb / no-analyze-src-pics / deblock=-3:-3 / no-sao / no-sao-non-deblock / rd=3 / no-early-skip / rskip / no-fast-intra / no-tskip-fast / no-cu-lossless / no-b-intra / no-splitrd-skip / rdpenalty=0 / psy-rd=1.00 / psy-rdoq=1.00 / no-rd-refine / analysis-reuse-mode=0 / no-lossless / cbqpoffs=0 / crqpoffs=0 / rc=crf / crf=20.0 / qcomp=0.60 / qpstep=4 / stats-write=0 / stats-read=0 / vbv-maxrate=50000 / vbv-bufsize=50000 / vbv-init=0.9 / crf-max=0.0 / crf-min=0.0 / ipratio=1.40 / pbratio=1.30 / aq-mode=1 / aq-strength=0.80 / cutree / zone-count=0 / no-strict-cbr / qg-size=32 / no-rc-grain / qpmax=69 / qpmin=0 / no-const-vbv / sar=0 / overscan=0 / videoformat=5 / range=0 / colorprim=2 / transfer=2 / colormatrix=1 / chromaloc=0 / display-window=0 / max-cll=0,0 / min-luma=0 / max-luma=1023 / log2-max-poc-lsb=8 / vui-timing-info / vui-hrd-info / slices=1 / opt-qp-pps / opt-ref-list-length-pps / no-multi-pass-opt-rps / scenecut-bias=0.05 / no-opt-cu-delta-qp / aq-motion / no-hdr / no-hdr-opt / no-dhdr10-opt / analysis-reuse-level=5 / scale-factor=0 / refine-intra=0 / refine-inter=0 / refine-mv=0 / no-limit-sao / ctu-info=0 / no-lowpass-dct / refine-mv-type=0 / copy-pic=1
Language : English
Default : Yes
Forced : Yes
Color range : Limited
Matrix coefficients : BT.709

Audio #1
ID : 2
Format : AC-3
Format/Info : Audio Coding 3
Format settings, Endianness : Big
Codec ID : A_AC3
Duration : 2 h 12 min
Bit rate mode : Constant
Bit rate : 384 kb/s
Channel(s) : 6 channels
Channel positions : Front: L C R, Side: L R, LFE
Sampling rate : 48.0 kHz
Frame rate : 31.250 FPS (1536 SPF)
Bit depth : 16 bits
Compression mode : Lossy
Stream size : 365 MiB (7%)
Title : rus Dub R5
Language : Russian
Service kind : Complete Main
Default : Yes
Forced : No

Audio #2
ID : 3
Format : AC-3
Format/Info : Audio Coding 3
Format settings, Endianness : Big
Codec ID : A_AC3
Duration : 2 h 12 min
Bit rate mode : Constant
Bit rate : 192 kb/s
Channel(s) : 2 channels
Channel positions : Front: L R
Sampling rate : 48.0 kHz
Frame rate : 31.250 FPS (1536 SPF)
Bit depth : 16 bits
Compression mode : Lossy
Stream size : 182 MiB (4%)
Title : rus Dub (Варус-видео)
Language : Russian
Service kind : Complete Main
Default : No
Forced : No

Audio #3
ID : 4
Format : AC-3
Format/Info : Audio Coding 3
Format settings, Endianness : Big
Codec ID : A_AC3
Duration : 2 h 12 min
Bit rate mode : Constant
Bit rate : 384 kb/s
Channel(s) : 6 channels
Channel positions : Front: L C R, Side: L R, LFE
Sampling rate : 48.0 kHz
Frame rate : 31.250 FPS (1536 SPF)
Bit depth : 16 bits
Compression mode : Lossy
Stream size : 365 MiB (7%)
Title : rus AVO (Гаврилов)
Language : Russian
Service kind : Complete Main
Default : No
Forced : No

Audio #4
ID : 5
Format : AC-3
Format/Info : Audio Coding 3
Format settings, Endianness : Big
Codec ID : A_AC3
Duration : 2 h 12 min
Bit rate mode : Constant
Bit rate : 384 kb/s
Channel(s) : 6 channels
Channel positions : Front: L C R, Side: L R, LFE
Sampling rate : 48.0 kHz
Frame rate : 31.250 FPS (1536 SPF)
Bit depth : 16 bits
Compression mode : Lossy
Stream size : 365 MiB (7%)
Language : English
Service kind : Complete Main
Default : No
Forced : No

Text #1
ID : 6
Format : UTF-8
Codec ID : S_TEXT/UTF8
Codec ID/Info : UTF-8 Plain Text
Duration : 2 h 6 min
Bit rate : 46 b/s
Count of elements : 1116
Stream size : 43.3 KiB (0%)
Title : rus
Language : Russian
Default : Yes
Forced : No

Text #2
ID : 7
Format : UTF-8
Codec ID : S_TEXT/UTF8
Codec ID/Info : UTF-8 Plain Text
Duration : 2 h 4 min
Bit rate : 35 b/s
Count of elements : 1107
Stream size : 32.2 KiB (0%)
Title : eng
Language : English
Default : No
Forced : No

Menu
00:00:00.000 : en:Chapter 1
00:05:35.293 : en:Chapter 2
00:10:00.933 : en:Chapter 3
00:14:44.466 : en:Chapter 4
00:17:39.099 : en:Chapter 5
00:19:01.640 : en:Chapter 6
00:24:35.015 : en:Chapter 7
00:30:03.719 : en:Chapter 8
00:31:34.183 : en:Chapter 9
00:34:57.804 : en:Chapter 10
00:36:47.414 : en:Chapter 11
00:37:56.773 : en:Chapter 12
00:44:13.442 : en:Chapter 13
00:48:12.472 : en:Chapter 14
00:55:02.215 : en:Chapter 15
00:59:54.925 : en:Chapter 16
01:03:05.699 : en:Chapter 17
01:06:50.505 : en:Chapter 18
01:08:38.448 : en:Chapter 19
01:12:37.270 : en:Chapter 20
01:17:07.331 : en:Chapter 21
01:20:52.555 : en:Chapter 22
01:22:00.497 : en:Chapter 23
01:27:24.280 : en:Chapter 24
01:31:34.988 : en:Chapter 25
01:35:18.003 : en:Chapter 26
01:41:39.801 : en:Chapter 27
01:42:59.840 : en:Chapter 28
01:46:12.115 : en:Chapter 29
01:47:33.529 : en:Chapter 30
01:52:24.195 : en:Chapter 31
01:55:42.601 : en:Chapter 32
01:57:09.773 : en:Chapter 33
01:59:17.984 : en:Chapter 34
02:01:53.640 : en:Chapter 35
02:03:05.712 : en:Chapter 36
02:06:34.878 : en:Chapter 37
Загрузка...Cкриншот1 Наемные Убийцы / Assassins (1995) BDRip 1080p [HEVC] 10 bit от CthulhuЗагрузка...Cкриншот2 Наемные Убийцы / Assassins (1995) BDRip 1080p [HEVC] 10 bit от CthulhuЗагрузка...Cкриншот3 Наемные Убийцы / Assassins (1995) BDRip 1080p [HEVC] 10 bit от CthulhuЗагрузка...Cкриншот4 Наемные Убийцы / Assassins (1995) BDRip 1080p [HEVC] 10 bit от Cthulhu
Сэмпл Торрент🧲 Магнет

Рейтинги КП и IMDB, кнопки "Позвать в чате" и "Спасибо", а также мультитрекерная статистика доступны только зарегистрированным/авторизованным пользователям!

Файлы: 1
  • Assassins (1995) BDRip 1080p [HEVC] 10Bit.mkv   5.03 ГБ
Поблагодарили: 4
grudich, longhorn, mr_nikitin, zibo
Cthulhu
0230205.03 ГБ

Добавление нового комментария

Добавление комментариев доступно только зарегистрированным/авторизованным пользователям.