💬 Мини-чат

BrooklynOldGamer, Ок, спасибо, качаю.
OldGamerBrooklyn, они все на раздаче пока что
BrooklynOldGamer, Пораздавайте, пожалуйста, все сезоны сериала "Гримм" ближайшие 3 дня, очень хочу их забрать. Качество отличное. Заранее Благодарен.
StarLordСообщение удалено (удалил: StarLord)
OldGamerвыводить
mafo2Admin, можно вывести, наглядно будет
StarLordAdmin, +
AdminНадпись HDR выводить на обложку?
OldGamerGiggalo, но лучше всего вообще не затрагивайте этот ключ, по умолчанию будет установлено оптимальное значение
OldGamerGiggalo, но если уж очень хочется то пишите --frame-threads 3
OldGamerGiggalo, а зачем его менять?) нужное значение устанавливается автоматически
GiggaloДобрый вечер всем! OldGamer Покажи пожалуйста почему когда пишу в командной строке frame-threads=3 он не меняется. Какой там стоит 13 он его и держит, а ругие установки спокойно меняет?
AdminStarLord, спасибо. Пока сойдет.
StarLordAdmin, ага, вижу
StarLordAdmin, а как должно брать?
AdminStarLord, ты шаришь?
AdminStarLord, у меня сейчас такая, но с точками беда. Доработать бы (https?://([-\w\.]+)+(:\d+)?(/([-\w/_:%]*(\.\w+)*(\?\S+)?)?)?)
AdminStarLord, скрины в bb некорректно берет
StarLordwww, ftp(s), http(s), #, :, &
StarLordAdmin, все мои кейсы покрыла
  • Andrey_alex
  • donadar
  • hunter
  • InSpector
  • makss333
  • moonson
Отправка сообщений доступна только зарегистрированным/авторизованным пользователям.
Онлайн (за 10 мин.): 6

Неповиновение / Disobedience (2017) BDRip 1080p [HEVC] 10 bit от -Star-Lord-

HEVC
10 bit
Обложка Неповиновение / Disobedience (2017) BDRip 1080p [HEVC] 10 bit от -Star-Lord- Год: 2017
Страна: Ирландия, Великобритания, США
Студия: Braven Films, Element Pictures, Film 4, Stage 6 Films
Жанр: Драма, Мелодрама
Продолжительность: 01:54:39

Режиссер: Себастьян Лелио
В ролях: Рэйчел МакАдамс, Рэйчел Вайз, Энтон Лессер, Алессандро Нивола, Аллан Кордунер, Николас Вудесон, Дэвид Флишман, Стив Ферст, Тревор Аллан Дейвис, Софиа Браун, Энтони Даудинг

Описание: Прожив последние годы в Нью-Йорке и впитав его бурные нравы, она была свободна в действии и мятежна духом, однако смерть отца, уважаемого всеми раввина, вынудила Ронит вернуться в родной Хендон и окунуться в привычную жизнь ортодоксального еврейского дома. Встреча с подругой детства, а ныне женой своего кузена, неожиданно заставляет трепетать ее сердце, рождая нежное чувство. Шокирующая новость быстро разлетается по консервативно настроенной еврейской общине…


Видео: 1920x804, 5420 Kbps
Аудио1: AC3, 6 ch, 448 Kbps - РусскийРусский, Многоголосый (Лицензия)
Аудио2: AC3, 2 ch, 192 Kbps - РусскийРусский, Многоголосый (HDRezka Studio)
Аудио3: DTS, 6 ch, 1509 Kbps - АнглийскийАнглийский, Оригинал
Субтитры: русские, украинские, английские (полные, SDH), испанские

Как за пару секунд удалить ненужные аудиодорожки и субтитры (Внимание! После удаления вы не сможете поддержать раздачу)

Лог (x265 info)
x265 info: frame I: 1020, Avg QP:15.63 kb/s: 17708.10
x265 info: frame P: 24755, Avg QP:16.41 kb/s: 10035.35
x265 info: frame B: 139172, Avg QP:18.55 kb/s: 4507.74
x265 info: Weighted P-Frames: Y:6.4% UV:4.8%
x265 info: Weighted B-Frames: Y:3.7% UV:2.4%
x265 info: consecutive B-frames: 5.0% 1.9% 3.0% 20.2% 8.9% 26.3% 6.6% 8.3% 4.7% 3.4% 2.9% 4.3% 1.5% 0.8% 0.8% 0.6% 0.9%
x265 info: encoded 164947 frames in 200872.99s (0.82 fps), 5418.94 kb/s, Avg QP:18.21
Медиаинфо
General
Unique ID : 259554581276796078233631754473899460413 (0xC34464DF0B5CC9B8F0DE0727F4CE873D)
Complete name : Disobedience (2017) BDRip 1080p H.265 [RUS_ENG] [HEVC-CLUB].mkv
Format : Matroska
Format version : Version 4
File size : 6.07 GiB
Duration : 1 h 54 min
Overall bit rate : 7 574 kb/s
Movie name : Неповиновение / Непокора / Disobedience (2017)
Encoded date : UTC 2020-09-20 09:03:48
Writing application : mkvmerge v20.0.0 ('I Am The Sun') 64-bit
Writing library : libebml v1.3.5 + libmatroska v1.4.8
Cover : Yes
Attachments : Cover

Video
ID : 1
Format : HEVC
Format/Info : High Efficiency Video Coding
Format profile : Main 10@L5.1@High
Codec ID : V_MPEGH/ISO/HEVC
Duration : 1 h 54 min
Bit rate : 5 420 kb/s
Width : 1 920 pixels
Height : 804 pixels
Display aspect ratio : 2.40:1
Frame rate mode : Constant
Frame rate : 23.976 (24000/1001) FPS
Color space : YUV
Chroma subsampling : 4:2:0
Bit depth : 10 bits
Bits/(Pixel*Frame) : 0.146
Stream size : 4.34 GiB (72%)
Title : Неповиновение / Непокора / Disobedience (2017)
Writing library : x265 3.2+5-354901970679:[Windows][clang 8.0.1][64 bit] 10bit
Encoding settings : cpuid=1111039 / frame-threads=13 / numa-pools=12 / wpp / no-pmode / no-pme / no-psnr / no-ssim / log-level=3 / input-csp=1 / input-res=1920x804 / interlace=0 / total-frames=0 / level-idc=51 / high-tier=1 / uhd-bd=0 / ref=5 / allow-non-conformance / no-repeat-headers / annexb / no-aud / no-hrd / info / hash=0 / no-temporal-layers / open-gop / min-keyint=24 / keyint=240 / gop-lookahead=0 / bframes=16 / b-adapt=2 / b-pyramid / bframe-bias=0 / rc-lookahead=60 / lookahead-slices=5 / scenecut=40 / radl=0 / no-splice / no-intra-refresh / ctu=64 / min-cu-size=8 / rect / amp / max-tu-size=32 / tu-inter-depth=4 / tu-intra-depth=4 / limit-tu=0 / rdoq-level=2 / dynamic-rd=0.00 / no-ssim-rd / signhide / no-tskip / nr-intra=0 / nr-inter=0 / no-constrained-intra / no-strong-intra-smoothing / max-merge=3 / limit-refs=1 / no-limit-modes / me=3 / subme=7 / merange=57 / temporal-mvp / no-frame-dup / no-hme / weightp / weightb / no-analyze-src-pics / deblock=-3:-3 / no-sao / no-sao-non-deblock / rd=6 / selective-sao=0 / early-skip / rskip / no-fast-intra / no-tskip-fast / no-cu-lossless / b-intra / no-splitrd-skip / rdpenalty=0 / psy-rd=2.00 / psy-rdoq=1.00 / no-rd-refine / no-lossless / cbqpoffs=0 / crqpoffs=0 / rc=crf / crf=20.0 / qcomp=0.65 / qpstep=4 / stats-write=0 / stats-read=0 / vbv-maxrate=50000 / vbv-bufsize=50000 / vbv-init=0.9 / crf-max=30.0 / crf-min=0.0 / ipratio=1.40 / pbratio=1.30 / aq-mode=1 / aq-strength=1.00 / no-cutree / zone-count=0 / no-strict-cbr / qg-size=32 / no-rc-grain / qpmax=69 / qpmin=0 / no-const-vbv / sar=1 / overscan=0 / videoformat=5 / range=0 / colorprim=2 / transfer=2 / colormatrix=2 / chromaloc=0 / display-window=0 / cll=0,0 / min-luma=0 / max-luma=1023 / log2-max-poc-lsb=8 / vui-timing-info / vui-hrd-info / slices=1 / no-opt-qp-pps / no-opt-ref-list-length-pps / no-multi-pass-opt-rps / scenecut-bias=0.05 / no-opt-cu-delta-qp / no-aq-motion / no-hdr / no-hdr-opt / no-dhdr10-opt / no-idr-recovery-sei / analysis-reuse-level=5 / scale-factor=0 / refine-intra=0 / refine-inter=0 / refine-mv=1 / refine-ctu-distortion=0 / no-limit-sao / ctu-info=0 / no-lowpass-dct / refine-analysis-type=0 / copy-pic=1 / max-ausize-factor=1.0 / no-dynamic-refine / no-single-sei / no-hevc-aq / no-svt / no-field / qp-adaptation-range=1.00
Language : English
Default : Yes
Forced : No
Color range : Limited

Audio #1
ID : 2
Format : AC-3
Format/Info : Audio Coding 3
Commercial name : Dolby Digital
Codec ID : A_AC3
Duration : 1 h 54 min
Bit rate mode : Constant
Bit rate : 448 kb/s
Channel(s) : 6 channels
Channel layout : L R C LFE Ls Rs
Sampling rate : 48.0 kHz
Frame rate : 31.250 FPS (1536 SPF)
Compression mode : Lossy
Stream size : 367 MiB (6%)
Title : AC3 / 5.1 Ch / 448 kbps / MVO / Лицензия
Language : Russian
Service kind : Complete Main
Default : Yes
Forced : Yes

Audio #2
ID : 3
Format : AC-3
Format/Info : Audio Coding 3
Commercial name : Dolby Digital
Codec ID : A_AC3
Duration : 1 h 54 min
Bit rate mode : Constant
Bit rate : 192 kb/s
Channel(s) : 2 channels
Channel layout : L R
Sampling rate : 48.0 kHz
Frame rate : 31.250 FPS (1536 SPF)
Compression mode : Lossy
Stream size : 157 MiB (3%)
Title : AC3 / 2.0 Ch / 192 kbps / MVO / HDRezka Studio
Language : Russian
Service kind : Complete Main
Default : No
Forced : No

Audio #3
ID : 4
Format : DTS
Format/Info : Digital Theater Systems
Codec ID : A_DTS
Duration : 1 h 54 min
Bit rate mode : Constant
Bit rate : 1 509 kb/s
Channel(s) : 6 channels
Channel layout : C L R Ls Rs LFE
Sampling rate : 48.0 kHz
Frame rate : 93.750 FPS (512 SPF)
Bit depth : 24 bits
Compression mode : Lossy
Stream size : 1.21 GiB (20%)
Title : DTS / 5.1 Ch / 1509 kbps / Original
Language : English
Default : No
Forced : No

Text #1
ID : 5
Format : UTF-8
Codec ID : S_TEXT/UTF8
Codec ID/Info : UTF-8 Plain Text
Duration : 1 h 47 min
Bit rate : 48 b/s
Count of elements : 865
Stream size : 38.2 KiB (0%)
Title : Full
Language : Russian
Default : No
Forced : No

Text #2
ID : 6
Format : UTF-8
Codec ID : S_TEXT/UTF8
Codec ID/Info : UTF-8 Plain Text
Duration : 1 h 53 min
Bit rate : 39 b/s
Count of elements : 817
Stream size : 32.9 KiB (0%)
Title : Full from Netflix
Language : Ukrainian
Default : No
Forced : No

Text #3
ID : 7
Format : UTF-8
Codec ID : S_TEXT/UTF8
Codec ID/Info : UTF-8 Plain Text
Duration : 1 h 47 min
Bit rate : 28 b/s
Count of elements : 884
Stream size : 22.5 KiB (0%)
Title : Full
Language : English
Default : No
Forced : No

Text #4
ID : 8
Format : UTF-8
Codec ID : S_TEXT/UTF8
Codec ID/Info : UTF-8 Plain Text
Duration : 1 h 51 min
Bit rate : 32 b/s
Count of elements : 1053
Stream size : 26.4 KiB (0%)
Title : SDH
Language : English
Default : No
Forced : No

Text #5
ID : 9
Format : UTF-8
Codec ID : S_TEXT/UTF8
Codec ID/Info : UTF-8 Plain Text
Duration : 1 h 53 min
Bit rate : 27 b/s
Count of elements : 853
Stream size : 22.4 KiB (0%)
Title : Full
Language : Spanish
Default : No
Forced : No

Menu
00:00:00.000 : :Chapter 01
00:03:43.014 : :Chapter 02
00:09:09.591 : :Chapter 03
00:16:38.998 : :Chapter 04
00:21:25.618 : :Chapter 05
00:25:31.655 : :Chapter 06
00:28:41.303 : :Chapter 07
00:36:43.785 : :Chapter 08
00:41:19.894 : :Chapter 09
00:50:03.375 : :Chapter 10
00:57:51.093 : :Chapter 11
01:02:46.179 : :Chapter 12
01:10:34.229 : :Chapter 13
01:17:28.727 : :Chapter 14
01:20:28.949 : :Chapter 15
01:25:35.339 : :Chapter 16
01:31:59.472 : :Chapter 17
01:37:21.711 : :Chapter 18
01:44:02.820 : :Chapter 19
01:49:47.247 : :Chapter 20
Загрузка...Cкриншот1 Неповиновение / Disobedience (2017) BDRip 1080p [HEVC] 10 bit от -Star-Lord-Загрузка...Cкриншот2 Неповиновение / Disobedience (2017) BDRip 1080p [HEVC] 10 bit от -Star-Lord-Загрузка...Cкриншот3 Неповиновение / Disobedience (2017) BDRip 1080p [HEVC] 10 bit от -Star-Lord-Загрузка...Cкриншот4 Неповиновение / Disobedience (2017) BDRip 1080p [HEVC] 10 bit от -Star-Lord-
Сэмпл Торрент🧲 Магнет

Рейтинги КП и IMDB, кнопки "Позвать в чате" и "Спасибо", а также мультитрекерная статистика сидов и пиров доступны только зарегистрированным/авторизованным пользователям!

Файлы: 1
  • Disobedience (2017) BDRip 1080p H.265 [RUS_ENG] [HEVC-CLUB].mkv   6.07 ГБ
Поблагодарили: 1
makss333
StarLord
018016.07 ГБ

Добавление нового комментария

Добавление комментариев доступно только зарегистрированным/авторизованным пользователям.