Чат

⚫︎
Список изменений сайта - https://rips.club/changelog.html (обновлен 24.05.2024)
  • arwis
  • Roman1312
  • z1M4p9i0
Онлайн (за 10 мин.): 3
Отправка сообщений доступна только зарегистрированным/авторизованным пользователям.

🎥︎Алоха / Aloha (2015) BDRip 1080p [HEVC] 10 bit от -Star-Lord-


Обложка Алоха / Aloha (2015) BDRip 1080p [HEVC] 10 bit от -Star-Lord-
HEVC
10 bit
✂︎Сэмпл⤓︎Торрент🧲︎Магнет$Пожертвования
Год: 2015
Страна: США
Студия: Columbia Pictures, LStar Capital, RatPac Entertainment, Regency Enterprises
Жанр: Драма, Мелодрама, Комедия
Длительность: 01:44:38

Режиссер: Кэмерон Кроу
В ролях: Брэдли Купер, Эмма Стоун, Рэйчел МакАдамс, Билл Мюррей, Джон Красински, Дэнни МакБрайд, Алек Болдуин, Билл Кэмп, Джейден Либерер, Даниэль Роуз Расселл, Майкл Чернус, Эди Гатеги, Элизабет Марвел, Ивана Миличевич, Фахим Фазли, Семер-Аб Этмет Йоханнес, Лес Брэмлет, Дон Д. Дэвис, Джарретт Пиеске, Стивен М. Мёрджа

Описание: 37-летний дискредитированный американский консультант по оружию Брайн Джилкрест не нравится практически всем окружающим его людям. Его единственный друг — техник по имени Джереми — супер умный и хорошо осведомленный компьютерщик. В ответ на агрессию со стороны Китая Джилкреста отправляют на бездействующую военную базу на Гавайях, чтобы оттуда он контролировал запуск современного спутника-шпиона. Это задание сведет его с девушкой по имени Трейси…


Видео: 1920x1036, ~14.1 Mb/s
Аудио1: AC3, 6 ch, 448 Kbps - РусскийРусский, Дублированный (Netflix)
Аудио2: AC3, 6 ch, 384 Kbps - УкраинскийУкраинский, Дублированный (iTunes)
Аудио3: DTS, 6 ch, 1509 Kbps - АнглийскийАнглийский, Оригинал
Субтитры: русские (форсированные), украинские (форсированные, 2х полные), английские (полные, SDH)

Как за несколько секунд удалить ненужные аудиодорожки и субтитры (Внимание! После удаления вы не сможете поддержать раздачу)


Лог (x265 info)x265 info: frame I: 1402, Avg QP:17.85 kb/s: 32609.66
x265 info: frame P: 24362, Avg QP:18.70 kb/s: 23282.20
x265 info: frame B: 124763, Avg QP:21.06 kb/s: 12069.46
x265 info: Weighted P-Frames: Y:4.3% UV:3.6%
x265 info: Weighted B-Frames: Y:3.0% UV:2.2%
x265 info: consecutive B-frames: 6.9% 4.6% 4.3% 22.4% 7.7% 14.5% 4.2% 27.4% 1.6% 1.0% 0.3% 4.3% 0.2% 0.1% 0.1% 0.4% 0.0%
x265 info: encoded 150527 frames in 332157.85s (0.45 fps), 14075.49 kb/s, Avg QP:20.65
МедиаинфоGeneral
Unique ID : 328845624207312028198162193485665428004 (0xF7655D0CA4731BFB89DF350F4AD06224)
Complete name : Aloha (2015) BDRip 1080p H.265 [RUS_UKR_ENG] [HEVC-CLUB].mkv
Format : Matroska
Format version : Version 4
File size : 12.0 GiB
Duration : 1 h 44 min
Overall bit rate : 16.4 Mb/s
Movie name : Алоха / Aloha (2015)
Encoded date : UTC 2020-09-20 11:01:36
Writing application : mkvmerge v20.0.0 ('I Am The Sun') 64-bit
Writing library : libebml v1.3.5 + libmatroska v1.4.8
Cover : Yes
Attachments : Cover

Video
ID : 1
Format : HEVC
Format/Info : High Efficiency Video Coding
Format profile : Main 10@L5.1@High
Codec ID : V_MPEGH/ISO/HEVC
Duration : 1 h 44 min
Bit rate : 14.1 Mb/s
Width : 1 920 pixels
Height : 1 036 pixels
Display aspect ratio : 1.85:1
Frame rate mode : Constant
Frame rate : 23.976 (24000/1001) FPS
Color space : YUV
Chroma subsampling : 4:2:0
Bit depth : 10 bits
Bits/(Pixel*Frame) : 0.295
Stream size : 10.3 GiB (86%)
Title : Алоха / Aloha (2015)
Writing library : x265 3.2+5-354901970679:[Windows][clang 8.0.1][64 bit] 10bit
Encoding settings : cpuid=1111039 / frame-threads=13 / numa-pools=12 / wpp / no-pmode / no-pme / no-psnr / no-ssim / log-level=3 / input-csp=1 / input-res=1920x1036 / interlace=0 / total-frames=0 / level-idc=51 / high-tier=1 / uhd-bd=0 / ref=5 / allow-non-conformance / no-repeat-headers / annexb / no-aud / no-hrd / info / hash=0 / no-temporal-layers / open-gop / min-keyint=24 / keyint=240 / gop-lookahead=0 / bframes=16 / b-adapt=2 / b-pyramid / bframe-bias=0 / rc-lookahead=60 / lookahead-slices=6 / scenecut=40 / radl=0 / no-splice / no-intra-refresh / ctu=64 / min-cu-size=8 / rect / amp / max-tu-size=32 / tu-inter-depth=4 / tu-intra-depth=4 / limit-tu=0 / rdoq-level=2 / dynamic-rd=0.00 / no-ssim-rd / signhide / no-tskip / nr-intra=0 / nr-inter=0 / no-constrained-intra / no-strong-intra-smoothing / max-merge=3 / limit-refs=1 / no-limit-modes / me=3 / subme=7 / merange=57 / temporal-mvp / no-frame-dup / no-hme / weightp / weightb / no-analyze-src-pics / deblock=-3:-3 / no-sao / no-sao-non-deblock / rd=6 / selective-sao=0 / early-skip / rskip / no-fast-intra / no-tskip-fast / no-cu-lossless / b-intra / no-splitrd-skip / rdpenalty=0 / psy-rd=2.00 / psy-rdoq=1.00 / no-rd-refine / no-lossless / cbqpoffs=0 / crqpoffs=0 / rc=crf / crf=20.0 / qcomp=0.65 / qpstep=4 / stats-write=0 / stats-read=0 / vbv-maxrate=50000 / vbv-bufsize=50000 / vbv-init=0.9 / crf-max=30.0 / crf-min=0.0 / ipratio=1.40 / pbratio=1.30 / aq-mode=1 / aq-strength=1.00 / no-cutree / zone-count=0 / no-strict-cbr / qg-size=32 / no-rc-grain / qpmax=69 / qpmin=0 / no-const-vbv / sar=1 / overscan=0 / videoformat=5 / range=0 / colorprim=2 / transfer=2 / colormatrix=2 / chromaloc=0 / display-window=0 / cll=0,0 / min-luma=0 / max-luma=1023 / log2-max-poc-lsb=8 / vui-timing-info / vui-hrd-info / slices=1 / no-opt-qp-pps / no-opt-ref-list-length-pps / no-multi-pass-opt-rps / scenecut-bias=0.05 / no-opt-cu-delta-qp / no-aq-motion / no-hdr / no-hdr-opt / no-dhdr10-opt / no-idr-recovery-sei / analysis-reuse-level=5 / scale-factor=0 / refine-intra=0 / refine-inter=0 / refine-mv=1 / refine-ctu-distortion=0 / no-limit-sao / ctu-info=0 / no-lowpass-dct / refine-analysis-type=0 / copy-pic=1 / max-ausize-factor=1.0 / no-dynamic-refine / no-single-sei / no-hevc-aq / no-svt / no-field / qp-adaptation-range=1.00
Language : English
Default : Yes
Forced : No
Color range : Limited

Audio #1
ID : 2
Format : AC-3
Format/Info : Audio Coding 3
Commercial name : Dolby Digital
Codec ID : A_AC3
Duration : 1 h 44 min
Bit rate mode : Constant
Bit rate : 448 kb/s
Channel(s) : 6 channels
Channel layout : L R C LFE Ls Rs
Sampling rate : 48.0 kHz
Frame rate : 31.250 FPS (1536 SPF)
Compression mode : Lossy
Stream size : 335 MiB (3%)
Title : AC3 / 5.1 Ch / 448 kbps / DUB / Netflix
Language : Russian
Service kind : Complete Main
Default : Yes
Forced : Yes

Audio #2
ID : 3
Format : AC-3
Format/Info : Audio Coding 3
Commercial name : Dolby Digital
Codec ID : A_AC3
Duration : 1 h 44 min
Bit rate mode : Constant
Bit rate : 384 kb/s
Channel(s) : 6 channels
Channel layout : L R C LFE Ls Rs
Sampling rate : 48.0 kHz
Frame rate : 31.250 FPS (1536 SPF)
Compression mode : Lossy
Stream size : 286 MiB (2%)
Title : AC3 / 5.1 Ch / 384 kbps / DUB / iTunes
Language : Ukrainian
Service kind : Complete Main
Default : No
Forced : No

Audio #3
ID : 4
Format : DTS
Format/Info : Digital Theater Systems
Codec ID : A_DTS
Duration : 1 h 44 min
Bit rate mode : Constant
Bit rate : 1 509 kb/s
Channel(s) : 6 channels
Channel layout : C L R Ls Rs LFE
Sampling rate : 48.0 kHz
Frame rate : 93.750 FPS (512 SPF)
Bit depth : 16 bits
Compression mode : Lossy
Stream size : 1.10 GiB (9%)
Title : DTS / 5.1 Ch / 1509 kbps / Original
Language : English
Default : No
Forced : No

Text #1
ID : 5
Format : UTF-8
Codec ID : S_TEXT/UTF8
Codec ID/Info : UTF-8 Plain Text
Duration : 18 min 1 s
Bit rate : 2 b/s
Count of elements : 9
Stream size : 403 Bytes (0%)
Title : Forced
Language : Russian
Default : Yes
Forced : Yes

Text #2
ID : 6
Format : UTF-8
Codec ID : S_TEXT/UTF8
Codec ID/Info : UTF-8 Plain Text
Duration : 13 min 13 s
Bit rate : 4 b/s
Count of elements : 10
Stream size : 434 Bytes (0%)
Title : Forced
Language : Ukrainian
Default : No
Forced : No

Text #3
ID : 7
Format : UTF-8
Codec ID : S_TEXT/UTF8
Codec ID/Info : UTF-8 Plain Text
Duration : 1 h 42 min
Bit rate : 103 b/s
Count of elements : 1547
Stream size : 77.8 KiB (0%)
Title : Full
Language : Ukrainian
Default : No
Forced : No

Text #4
ID : 8
Format : UTF-8
Codec ID : S_TEXT/UTF8
Codec ID/Info : UTF-8 Plain Text
Duration : 1 h 38 min
Bit rate : 111 b/s
Count of elements : 1534
Stream size : 80.1 KiB (0%)
Title : Full from Netflix
Language : Ukrainian
Default : No
Forced : No

Text #5
ID : 9
Format : UTF-8
Codec ID : S_TEXT/UTF8
Codec ID/Info : UTF-8 Plain Text
Duration : 1 h 37 min
Bit rate : 63 b/s
Count of elements : 1250
Stream size : 45.2 KiB (0%)
Title : Full
Language : English
Default : No
Forced : No

Text #6
ID : 10
Format : UTF-8
Codec ID : S_TEXT/UTF8
Codec ID/Info : UTF-8 Plain Text
Duration : 1 h 44 min
Bit rate : 72 b/s
Count of elements : 1608
Stream size : 55.1 KiB (0%)
Title : SDH
Language : English
Default : No
Forced : No

Menu
00:00:00.000 : :Chapter 01
00:04:42.949 : :Chapter 02
00:10:59.951 : :Chapter 03
00:20:02.493 : :Chapter 04
00:27:07.751 : :Chapter 05
00:33:25.754 : :Chapter 06
00:40:01.941 : :Chapter 07
00:46:40.631 : :Chapter 08
00:51:32.006 : :Chapter 09
00:56:22.337 : :Chapter 10
01:05:08.696 : :Chapter 11
01:11:08.598 : :Chapter 12
01:18:44.136 : :Chapter 13
01:25:36.423 : :Chapter 14
01:31:43.289 : :Chapter 15
01:36:29.659 : :Chapter 16
Загрузка...Cкриншот1 Алоха / Aloha (2015) BDRip 1080p [HEVC] 10 bit от -Star-Lord-Загрузка...Cкриншот2 Алоха / Aloha (2015) BDRip 1080p [HEVC] 10 bit от -Star-Lord-Загрузка...Cкриншот3 Алоха / Aloha (2015) BDRip 1080p [HEVC] 10 bit от -Star-Lord-Загрузка...Cкриншот4 Алоха / Aloha (2015) BDRip 1080p [HEVC] 10 bit от -Star-Lord-
Поблагодарили: 2Antilord90, makss333
Файлы: 1
  • Aloha (2015) BDRip 1080p H.265 [RUS_UKR_ENG] [HEVC-CLUB].mkv

Рейтинги КП и IMDB, кнопки "Раздайте, пожалуйста" и "Спасибо", а также мультитрекерная статистика доступны только зарегистрированным/авторизованным пользователям!

StarLord
02277012 ГБ

💬︎ Комментарии

Добавление комментариев доступно только зарегистрированным/авторизованным пользователям.