Чат

⚫︎
Список изменений сайта - https://rips.club/changelog.html (обновлен 24.05.2024)
  • arwis
Онлайн (за 10 мин.): 1
Отправка сообщений доступна только зарегистрированным/авторизованным пользователям.

🎥︎Страсть / Passion (2012) BDRip 1080p [HEVC] 10 bit от -Star-Lord-


Обложка Страсть / Passion (2012) BDRip 1080p [HEVC] 10 bit от -Star-Lord-
HEVC
10 bit
✂︎Сэмпл⤓︎Торрент🧲︎Магнет$Пожертвования
Год: 2012
Страна: Германия, Франция
Студия: Canal+ [fr]
Жанр: Триллер, Драма, Криминал, Детектив
Длительность: 01:41:04

Режиссер: Брайан Де Пальма
В ролях: Рэйчел МакАдамс, Нуми Рапас, Каролине Херфурт, Пол Андерсон, Райнер Бок, Беньямин Задлер, Майкл Рочопф, Макс Урлахер, Доминик Рааке, Тристан В. Пюттер

Описание: История двух девушек, топ-менеджеров крупной компании. Они крутили роман с одним и тем же сотрудником, причем обе одновременно уважают и ненавидят друг друга. В один прекрасный день одна сильно оскорбляет другую перед всеми коллегами… девушка решает отомстить.


Видео: 1920x1036, ~15.0 Mb/s
Аудио1: AC3, 6 ch, 448 Kbps - РусскийРусский, Двухголосый (Green Tea)
Аудио2: AC3, 6 ch, 384 Kbps - РусскийРусский, Одноголосый (den904)
Аудио3: DTS, 6 ch, 1509 Kbps - АнглийскийАнглийский, Оригинал
Субтитры: французские (полные, SDH)

Как за несколько секунд удалить ненужные аудиодорожки и субтитры (Внимание! После удаления вы не сможете поддержать раздачу)


Лог (x265 info)x265 info: frame I: 852, Avg QP:18.99 kb/s: 38260.27
x265 info: frame P: 21493, Avg QP:19.58 kb/s: 26309.50
x265 info: frame B: 123021, Avg QP:21.95 kb/s: 12904.08
x265 info: Weighted P-Frames: Y:5.0% UV:4.2%
x265 info: Weighted B-Frames: Y:3.8% UV:3.0%
x265 info: consecutive B-frames: 3.3% 7.8% 2.0% 11.0% 7.0% 17.4% 6.1% 34.9% 1.8% 1.1% 0.6% 6.0% 0.2% 0.1% 0.1% 0.5% 0.1%
x265 info: encoded 145366 frames in 316929.39s (0.46 fps), 15034.74 kb/s, Avg QP:21.58
МедиаинфоGeneral
Unique ID : 67140164112357170334414638192409002550 (0x3282B9AA36BA68E6A4E991C778914236)
Complete name : Passion (2012) BDRip 1080p H.265 [2xRUS_ENG] [HEVC-CLUB].mkv
Format : Matroska
Format version : Version 4
File size : 12.3 GiB
Duration : 1 h 41 min
Overall bit rate : 17.4 Mb/s
Movie name : Страсть / Passion (2012)
Encoded date : UTC 2020-09-04 09:09:33
Writing application : mkvmerge v20.0.0 ('I Am The Sun') 64-bit
Writing library : libebml v1.3.5 + libmatroska v1.4.8
Cover : Yes
Attachments : Cover

Video
ID : 1
Format : HEVC
Format/Info : High Efficiency Video Coding
Format profile : Main 10@L5.1@High
Codec ID : V_MPEGH/ISO/HEVC
Duration : 1 h 41 min
Bit rate : 15.0 Mb/s
Width : 1 920 pixels
Height : 1 036 pixels
Display aspect ratio : 1.85:1
Frame rate mode : Constant
Frame rate : 23.976 (24000/1001) FPS
Color space : YUV
Chroma subsampling : 4:2:0
Bit depth : 10 bits
Bits/(Pixel*Frame) : 0.315
Stream size : 10.6 GiB (86%)
Title : Страсть / Passion (2012)
Writing library : x265 3.2+5-354901970679:[Windows][clang 8.0.1][64 bit] 10bit
Encoding settings : cpuid=1111039 / frame-threads=13 / numa-pools=12 / wpp / no-pmode / no-pme / no-psnr / no-ssim / log-level=3 / input-csp=1 / input-res=1920x1036 / interlace=0 / total-frames=0 / level-idc=51 / high-tier=1 / uhd-bd=0 / ref=5 / allow-non-conformance / no-repeat-headers / annexb / no-aud / no-hrd / info / hash=0 / no-temporal-layers / open-gop / min-keyint=24 / keyint=240 / gop-lookahead=0 / bframes=16 / b-adapt=2 / b-pyramid / bframe-bias=0 / rc-lookahead=60 / lookahead-slices=6 / scenecut=40 / radl=0 / no-splice / no-intra-refresh / ctu=64 / min-cu-size=8 / rect / amp / max-tu-size=32 / tu-inter-depth=4 / tu-intra-depth=4 / limit-tu=0 / rdoq-level=2 / dynamic-rd=0.00 / no-ssim-rd / signhide / no-tskip / nr-intra=0 / nr-inter=0 / no-constrained-intra / no-strong-intra-smoothing / max-merge=3 / limit-refs=1 / no-limit-modes / me=3 / subme=7 / merange=57 / temporal-mvp / no-frame-dup / no-hme / weightp / weightb / no-analyze-src-pics / deblock=-3:-3 / no-sao / no-sao-non-deblock / rd=6 / selective-sao=0 / early-skip / rskip / no-fast-intra / no-tskip-fast / no-cu-lossless / b-intra / no-splitrd-skip / rdpenalty=0 / psy-rd=2.00 / psy-rdoq=1.00 / no-rd-refine / no-lossless / cbqpoffs=0 / crqpoffs=0 / rc=crf / crf=20.5 / qcomp=0.60 / qpstep=4 / stats-write=0 / stats-read=0 / vbv-maxrate=50000 / vbv-bufsize=50000 / vbv-init=0.9 / crf-max=30.0 / crf-min=0.0 / ipratio=1.40 / pbratio=1.30 / aq-mode=1 / aq-strength=1.00 / no-cutree / zone-count=0 / no-strict-cbr / qg-size=32 / no-rc-grain / qpmax=69 / qpmin=0 / no-const-vbv / sar=1 / overscan=0 / videoformat=5 / range=0 / colorprim=2 / transfer=2 / colormatrix=2 / chromaloc=0 / display-window=0 / cll=0,0 / min-luma=0 / max-luma=1023 / log2-max-poc-lsb=8 / vui-timing-info / vui-hrd-info / slices=1 / no-opt-qp-pps / no-opt-ref-list-length-pps / no-multi-pass-opt-rps / scenecut-bias=0.05 / no-opt-cu-delta-qp / no-aq-motion / no-hdr / no-hdr-opt / no-dhdr10-opt / no-idr-recovery-sei / analysis-reuse-level=5 / scale-factor=0 / refine-intra=0 / refine-inter=0 / refine-mv=1 / refine-ctu-distortion=0 / no-limit-sao / ctu-info=0 / no-lowpass-dct / refine-analysis-type=0 / copy-pic=1 / max-ausize-factor=1.0 / no-dynamic-refine / no-single-sei / no-hevc-aq / no-svt / no-field / qp-adaptation-range=1.00
Language : English
Default : Yes
Forced : No
Color range : Limited

Audio #1
ID : 2
Format : AC-3
Format/Info : Audio Coding 3
Commercial name : Dolby Digital
Codec ID : A_AC3
Duration : 1 h 41 min
Bit rate mode : Constant
Bit rate : 448 kb/s
Channel(s) : 6 channels
Channel layout : L R C LFE Ls Rs
Sampling rate : 48.0 kHz
Frame rate : 31.250 FPS (1536 SPF)
Compression mode : Lossy
Stream size : 324 MiB (3%)
Title : AC3 / 5.1 Ch / 448 kbps / DVO / Green Tea
Language : Russian
Service kind : Complete Main
Default : Yes
Forced : Yes

Audio #2
ID : 3
Format : AC-3
Format/Info : Audio Coding 3
Commercial name : Dolby Digital
Codec ID : A_AC3
Duration : 1 h 41 min
Bit rate mode : Constant
Bit rate : 448 kb/s
Channel(s) : 6 channels
Channel layout : L R C LFE Ls Rs
Sampling rate : 48.0 kHz
Frame rate : 31.250 FPS (1536 SPF)
Compression mode : Lossy
Stream size : 324 MiB (3%)
Title : AC3 / 5.1 Ch / 448 kbps / VO / den904
Language : Russian
Service kind : Complete Main
Default : No
Forced : No

Audio #3
ID : 4
Format : DTS
Format/Info : Digital Theater Systems
Codec ID : A_DTS
Duration : 1 h 41 min
Bit rate mode : Constant
Bit rate : 1 509 kb/s
Channel(s) : 6 channels
Channel layout : C L R Ls Rs LFE
Sampling rate : 48.0 kHz
Frame rate : 93.750 FPS (512 SPF)
Bit depth : 16 bits
Compression mode : Lossy
Stream size : 1.07 GiB (9%)
Title : DTS / 5.1 Ch / 1509 kbps / Original
Language : English
Default : No
Forced : No

Text #1
ID : 5
Format : UTF-8
Codec ID : S_TEXT/UTF8
Codec ID/Info : UTF-8 Plain Text
Duration : 1 h 39 min
Bit rate : 36 b/s
Count of elements : 962
Stream size : 26.8 KiB (0%)
Title : Full
Language : French
Default : No
Forced : No

Text #2
ID : 6
Format : UTF-8
Codec ID : S_TEXT/UTF8
Codec ID/Info : UTF-8 Plain Text
Duration : 1 h 40 min
Bit rate : 52 b/s
Count of elements : 1320
Stream size : 38.4 KiB (0%)
Title : SDH
Language : French
Default : No
Forced : No

Menu
00:00:00.000 : en:Chapter 1
00:04:41.865 : en:Chapter 2
00:14:41.297 : en:Chapter 3
00:28:18.155 : en:Chapter 4
00:37:44.596 : en:Chapter 5
00:50:05.586 : en:Chapter 6
00:58:31.675 : en:Chapter 7
01:09:59.487 : en:Chapter 8
01:21:31.178 : en:Chapter 9
01:32:04.310 : en:Chapter 10
01:37:07.613 : en:Chapter 11
Загрузка...Cкриншот1 Страсть / Passion (2012) BDRip 1080p [HEVC] 10 bit от -Star-Lord-Загрузка...Cкриншот2 Страсть / Passion (2012) BDRip 1080p [HEVC] 10 bit от -Star-Lord-Загрузка...Cкриншот3 Страсть / Passion (2012) BDRip 1080p [HEVC] 10 bit от -Star-Lord-Загрузка...Cкриншот4 Страсть / Passion (2012) BDRip 1080p [HEVC] 10 bit от -Star-Lord-
Поблагодарили: 1makss333
Файлы: 1
  • Passion (2012) BDRip 1080p H.265 [2xRUS_ENG] [HEVC-CLUB].mkv

Рейтинги КП и IMDB, кнопки "Раздайте, пожалуйста" и "Спасибо", а также мультитрекерная статистика доступны только зарегистрированным/авторизованным пользователям!

StarLord
0017012.31 ГБ

💬︎ Комментарии

Добавление комментариев доступно только зарегистрированным/авторизованным пользователям.