Регистрация / Смена пароля

💬 Мини-чат

Адрес сайта поменялся с hevc-club.video на rips.club. Новый адрес анонсера - http://rips.club:2710/announce
ADVOKAT69rodina_45, буду перекодировать!
rodina_45Раздайте, пожалуйста, Царевна-лягушка (1954) BDRip 1080p [HEVC] 10 bit от ADVOKAT69
OldGamerДа всегда пожалуйста
UndervestСообщение удалено (удалил: Undervest)
StarLordOldGamer, очень жаль... Возможно сам возьмусь)
OldGamerStarLord, в планах такого нету :)
StarLordOldGamer, еще бы "Бомжа с дробовиком" в придачу к "Мачете" =))
warner98Раздайте, пожалуйста, Кошмар на улице Вязов / A Nightmare on Elm Street (2010) BDRip 1080p [HEVC] 10 bit от Cthulhu
VISРаздайте, пожалуйста, Доспехи Бога / Lung hing foo dai (1986) BDRip 1080p [HEVC] 10 bit от joker63
  • Admin
  • joker63
  • porsche_carrera
Отправка сообщений доступна только зарегистрированным/авторизованным пользователям.
Онлайн (за 10 мин.): 3

Проклятие плачущей / The Curse of La Llorona (2019) BDRip 1080p [HEVC] 10 bit от -Star-Lord-

HEVC
10 bit
Обложка Проклятие плачущей / The Curse of La Llorona (2019) BDRip 1080p [HEVC] 10 bit от -Star-Lord- Год: 2019
Страна: США
Студия: Atomic Monster, New Line Cinema
Жанр: Ужасы
Продолжительность: 01:33:14

Режиссер: Майкл Чавес / Michael Chaves
В ролях: Линда Карделлини (Anna Tate-Garcia), Роман Кристу (Chris), Джейни-Линн Кинчен (Samantha), Рэймонд Крус (Rafael Olvera), Марисоль Рамирез (La Llorona), Патрисия Веласкес (Patricia Alvarez), Шон Патрик Томас (Detective Cooper), Тони Амендола (Father Perez), Ирен Кэн (Donna), Оливер Александр (Carlos), Эйден Левандовски (Tomas), Пол Родригес мл. (Officer Claro)

Описание: Ла Йорона. Плачущая женщина. Вселяющий ужас призрак, затерянный между Раем и Адом и загнанный в ужасную ловушку судьбы, запечатанную его собственной рукой. Простое упоминание ее имени сеет страх по всему миру уже многие поколения. Еще при жизни женщина утопила своих детей в порыве яростной ревности, бросившись в бушующую реку вслед за ними, рыдая от боли и отчаяния. Теперь ее слезы вечны и несут смерть. Тот, кто слышит ее предсмертный крик в ночи, обречен. Ла Йорона крадется в тени и охотится на детей, отчаянно пытаясь восполнить утрату собственных. Проходят столетия, она становится все более ненасытной... а её методы все более ужасными.


Видео: 1920x800, 5363 Kbps
Аудио1: AC3, 6 ch, 448 Kbps - РусскийРусский, Дублированный (Лицензия)
Аудио2: AC3, 2 ch, 192 Kbps - УкраинскийУкраинский, Дублированный (Студія Postmodern)
Аудио3: AC3, 6 ch, 448 Kbps - АнглийскийАнглийский, Оригинал
Субтитры: Русские (форсированные, полные), украинские (форсированные), английские (полные, SDH, SDH-Colored)

Как за пару секунд удалить ненужные аудиодорожки и субтитры (Внимание! После удаления вы не сможете поддержать раздачу)

Медиаинфо
General
Unique ID : 334374117914040526579214625182760767753 (0xFB8E1CD5713E58DDE3E9E77B2E3B1109)
Complete name : The Curse of La Llorona (2019) BDRip 1080p H.265 [RUS_UKR_ENG] [HEVC-CLUB].mkv
Format : Matroska
Format version : Version 4
File size : 4.20 GiB
Duration : 1 h 33 min
Overall bit rate : 6 454 kb/s
Movie name : Проклятие плачущей / Прокляття Ла Йорони / The Curse of La Llorona (2019)
Encoded date : UTC 2020-08-31 11:15:55
Writing application : mkvmerge v20.0.0 ('I Am The Sun') 64-bit
Writing library : libebml v1.3.5 + libmatroska v1.4.8
Cover : Yes
Attachments : cover

Video
ID : 1
Format : HEVC
Format/Info : High Efficiency Video Coding
Format profile : Main 10@L5.1@High
Codec ID : V_MPEGH/ISO/HEVC
Duration : 1 h 33 min
Bit rate : 5 363 kb/s
Width : 1 920 pixels
Height : 800 pixels
Display aspect ratio : 2.40:1
Frame rate mode : Constant
Frame rate : 23.976 (24000/1001) FPS
Color space : YUV
Chroma subsampling : 4:2:0
Bit depth : 10 bits
Bits/(Pixel*Frame) : 0.146
Stream size : 3.49 GiB (83%)
Title : Проклятие плачущей / Прокляття Ла Йорони / The Curse of La Llorona (2019)
Writing library : x265 3.2+5-354901970679:[Windows][clang 8.0.1][64 bit] 10bit
Encoding settings : cpuid=1111039 / frame-threads=13 / numa-pools=12 / wpp / no-pmode / no-pme / no-psnr / no-ssim / log-level=3 / input-csp=1 / input-res=1920x800 / interlace=0 / total-frames=0 / level-idc=51 / high-tier=1 / uhd-bd=0 / ref=5 / allow-non-conformance / no-repeat-headers / annexb / no-aud / no-hrd / info / hash=0 / no-temporal-layers / open-gop / min-keyint=24 / keyint=240 / gop-lookahead=0 / bframes=16 / b-adapt=2 / b-pyramid / bframe-bias=0 / rc-lookahead=60 / lookahead-slices=5 / scenecut=40 / radl=0 / no-splice / no-intra-refresh / ctu=64 / min-cu-size=8 / rect / amp / max-tu-size=32 / tu-inter-depth=4 / tu-intra-depth=4 / limit-tu=0 / rdoq-level=2 / dynamic-rd=0.00 / no-ssim-rd / signhide / no-tskip / nr-intra=0 / nr-inter=0 / no-constrained-intra / no-strong-intra-smoothing / max-merge=3 / limit-refs=1 / no-limit-modes / me=3 / subme=7 / merange=57 / temporal-mvp / no-frame-dup / no-hme / weightp / weightb / no-analyze-src-pics / deblock=-3:-3 / no-sao / no-sao-non-deblock / rd=6 / selective-sao=0 / early-skip / rskip / no-fast-intra / no-tskip-fast / no-cu-lossless / b-intra / no-splitrd-skip / rdpenalty=0 / psy-rd=2.00 / psy-rdoq=1.00 / no-rd-refine / no-lossless / cbqpoffs=0 / crqpoffs=0 / rc=crf / crf=20.0 / qcomp=0.70 / qpstep=4 / stats-write=0 / stats-read=0 / vbv-maxrate=50000 / vbv-bufsize=50000 / vbv-init=0.9 / crf-max=30.0 / crf-min=0.0 / ipratio=1.40 / pbratio=1.30 / aq-mode=1 / aq-strength=1.00 / no-cutree / zone-count=0 / no-strict-cbr / qg-size=32 / no-rc-grain / qpmax=69 / qpmin=0 / no-const-vbv / sar=1 / overscan=0 / videoformat=5 / range=0 / colorprim=2 / transfer=2 / colormatrix=2 / chromaloc=0 / display-window=0 / cll=0,0 / min-luma=0 / max-luma=1023 / log2-max-poc-lsb=8 / vui-timing-info / vui-hrd-info / slices=1 / no-opt-qp-pps / no-opt-ref-list-length-pps / no-multi-pass-opt-rps / scenecut-bias=0.05 / no-opt-cu-delta-qp / no-aq-motion / no-hdr / no-hdr-opt / no-dhdr10-opt / no-idr-recovery-sei / analysis-reuse-level=5 / scale-factor=0 / refine-intra=0 / refine-inter=0 / refine-mv=1 / refine-ctu-distortion=0 / no-limit-sao / ctu-info=0 / no-lowpass-dct / refine-analysis-type=0 / copy-pic=1 / max-ausize-factor=1.0 / no-dynamic-refine / no-single-sei / no-hevc-aq / no-svt / no-field / qp-adaptation-range=1.00
Language : English
Default : Yes
Forced : No
Color range : Limited

Audio #1
ID : 2
Format : AC-3
Format/Info : Audio Coding 3
Commercial name : Dolby Digital
Codec ID : A_AC3
Duration : 1 h 33 min
Bit rate mode : Constant
Bit rate : 448 kb/s
Channel(s) : 6 channels
Channel layout : L R C LFE Ls Rs
Sampling rate : 48.0 kHz
Frame rate : 31.250 FPS (1536 SPF)
Compression mode : Lossy
Stream size : 299 MiB (7%)
Title : AC3 / 5.1 Ch / 448 kbps / DUB / Blu-Ray
Language : Russian
Service kind : Complete Main
Default : Yes
Forced : Yes

Audio #2
ID : 3
Format : AC-3
Format/Info : Audio Coding 3
Commercial name : Dolby Digital
Codec ID : A_AC3
Duration : 1 h 33 min
Bit rate mode : Constant
Bit rate : 192 kb/s
Channel(s) : 2 channels
Channel layout : L R
Sampling rate : 48.0 kHz
Frame rate : 31.250 FPS (1536 SPF)
Compression mode : Lossy
Stream size : 128 MiB (3%)
Title : AC3 / 2.0 Ch / 192 kbps / DUB / Студія Postmodern
Language : Ukrainian
Service kind : Complete Main
Default : No
Forced : No

Audio #3
ID : 4
Format : AC-3
Format/Info : Audio Coding 3
Commercial name : Dolby Digital
Codec ID : A_AC3
Duration : 1 h 33 min
Bit rate mode : Constant
Bit rate : 448 kb/s
Channel(s) : 6 channels
Channel layout : L R C LFE Ls Rs
Sampling rate : 48.0 kHz
Frame rate : 31.250 FPS (1536 SPF)
Compression mode : Lossy
Stream size : 299 MiB (7%)
Title : AC3 / 5.1 Ch / 448 kbps / Original
Language : English
Service kind : Complete Main
Default : No
Forced : No

Text #1
ID : 5
Format : UTF-8
Codec ID : S_TEXT/UTF8
Codec ID/Info : UTF-8 Plain Text
Duration : 1 h 32 min
Bit rate : 1 b/s
Count of elements : 14
Stream size : 832 Bytes (0%)
Title : Forced
Language : Russian
Default : Yes
Forced : Yes

Text #2
ID : 6
Format : UTF-8
Codec ID : S_TEXT/UTF8
Codec ID/Info : UTF-8 Plain Text
Duration : 1 h 32 min
Bit rate : 43 b/s
Count of elements : 685
Stream size : 29.3 KiB (0%)
Title : iTunes
Language : Russian
Default : No
Forced : No

Text #3
ID : 7
Format : UTF-8
Codec ID : S_TEXT/UTF8
Codec ID/Info : UTF-8 Plain Text
Duration : 1 h 32 min
Bit rate : 1 b/s
Count of elements : 14
Stream size : 794 Bytes (0%)
Title : Forced
Language : Ukrainian
Default : No
Forced : No

Text #4
ID : 8
Format : UTF-8
Codec ID : S_TEXT/UTF8
Codec ID/Info : UTF-8 Plain Text
Duration : 1 h 24 min
Bit rate : 26 b/s
Count of elements : 691
Stream size : 16.6 KiB (0%)
Title : Full
Language : English
Default : No
Forced : No

Text #5
ID : 9
Format : UTF-8
Codec ID : S_TEXT/UTF8
Codec ID/Info : UTF-8 Plain Text
Duration : 1 h 32 min
Bit rate : 33 b/s
Count of elements : 1053
Stream size : 22.5 KiB (0%)
Title : SDH
Language : English
Default : No
Forced : No

Text #6
ID : 10
Format : UTF-8
Codec ID : S_TEXT/UTF8
Codec ID/Info : UTF-8 Plain Text
Duration : 1 h 32 min
Bit rate : 50 b/s
Count of elements : 969
Stream size : 34.4 KiB (0%)
Title : SDH-Colored
Language : English
Default : No
Forced : No

Menu
00:00:00.000 : :Chapter 01
00:09:24.355 : :Chapter 02
00:18:21.266 : :Chapter 03
00:28:09.103 : :Chapter 04
00:38:14.208 : :Chapter 05
00:48:09.594 : :Chapter 06
00:58:07.317 : :Chapter 07
01:09:04.555 : :Chapter 08
01:18:15.148 : :Chapter 09
01:26:30.725 : :Chapter 10
Загрузка...Cкриншот1 Проклятие плачущей / The Curse of La Llorona (2019) BDRip 1080p [HEVC] 10 bit от -Star-Lord-Загрузка...Cкриншот2 Проклятие плачущей / The Curse of La Llorona (2019) BDRip 1080p [HEVC] 10 bit от -Star-Lord-Загрузка...Cкриншот3 Проклятие плачущей / The Curse of La Llorona (2019) BDRip 1080p [HEVC] 10 bit от -Star-Lord-Загрузка...Cкриншот4 Проклятие плачущей / The Curse of La Llorona (2019) BDRip 1080p [HEVC] 10 bit от -Star-Lord-
Сэмпл Торрент🧲 Магнет

Рейтинги КП и IMDB, кнопки "Позвать в чате" и "Спасибо", а также мультитрекерная статистика сидов и пиров доступны только зарегистрированным/авторизованным пользователям!

Файлы: 1
  • The Curse of La Llorona (2019) BDRip 1080p H.265 [RUS_UKR_ENG] [HEVC-CLUB].mkv   4.2 ГБ
Поблагодарили: 3
GIS88, Kiran, makss333
StarLord
024204.2 ГБ

Добавление нового комментария

Добавление комментариев доступно только зарегистрированным/авторизованным пользователям.