Регистрация / Смена пароля

💬 Мини-чат

Адрес сайта поменялся с hevc-club.video на rips.club. Новый адрес анонсера - http://rips.club:2710/announce
ADVOKAT69rodina_45, буду перекодировать!
rodina_45Раздайте, пожалуйста, Царевна-лягушка (1954) BDRip 1080p [HEVC] 10 bit от ADVOKAT69
OldGamerДа всегда пожалуйста
UndervestСообщение удалено (удалил: Undervest)
StarLordOldGamer, очень жаль... Возможно сам возьмусь)
OldGamerStarLord, в планах такого нету :)
StarLordOldGamer, еще бы "Бомжа с дробовиком" в придачу к "Мачете" =))
warner98Раздайте, пожалуйста, Кошмар на улице Вязов / A Nightmare on Elm Street (2010) BDRip 1080p [HEVC] 10 bit от Cthulhu
VISРаздайте, пожалуйста, Доспехи Бога / Lung hing foo dai (1986) BDRip 1080p [HEVC] 10 bit от joker63
  • Admin
  • animen67
  • NoMaD
Отправка сообщений доступна только зарегистрированным/авторизованным пользователям.
Онлайн (за 10 мин.): 3

Ван Гог. С любовью, Винсент / Loving Vincent (2017) [iTunes, GBR Transfer] BDRip 1080p [HEVC] 10 bit от -Star-Lord-

HEVC
10 bit
Обложка Ван Гог. С любовью, Винсент / Loving Vincent (2017) [iTunes, GBR Transfer] BDRip 1080p [HEVC] 10 bit от -Star-Lord- Год: 2017
Страна: Великобритания, Польша
Студия: BreakThru Productions, Trademark Films, Silver Reel и др.
Жанр: Мультфильм, Биография, Драма
Продолжительность: 01:34:41

Режиссер: Дорота Кобела / Dorota Kobiela, Хью Уэлшман / Hugh Welchman
В ролях: Дуглас Бут, Сирша Ронан, Джером Флинн, Эйдан Тернер, Хелен МакКрори, Холли Эрл, Крис О’Дауд, Элинор Томлинсон, Робин Ходжес, Роберт Гулачик и др.

Описание: Молодой человек приезжает в город, где скончался Ван Гог, чтобы доставить последнее письмо художника. В итоге он начинает интересоваться последними днями жизни Винсента и причинами его загадочного самоубийства.


Видео: 1480x1080, 7970 Kbps
Аудио1: AC3, 6 ch, 384 Kbps - РусскийРусский, Дублированный (iTunes, Novamedia)
Аудио2: DTS, 6 ch, 1509 Kbps - АнглийскийАнглийский, Оригинал
Аудио3: AC3, 2 ch, 192 Kbps - АнглийскийАнглийский, Audio description track
Субтитры: 3хРусские, украинские, английские (SDH)

Как за пару секунд удалить ненужные аудиодорожки и субтитры (Внимание! После удаления вы не сможете поддержать раздачу)

Лог (x265 info)
x265 [info]: frame I: 945, Avg QP:18.66 kb/s: 42835.92
x265 [info]: frame P: 34984, Avg QP:20.15 kb/s: 18527.70
x265 [info]: frame B: 100292, Avg QP:23.14 kb/s: 3956.68
x265 [info]: Weighted P-Frames: Y:19.9% UV:4.7%
x265 [info]: Weighted B-Frames: Y:20.3% UV:3.1%
x265 [info]: consecutive B-frames: 6.0% 4.8% 12.2% 63.9% 9.9% 2.1% 0.5% 0.2% 0.1% 0.1% 0.0% 0.0% 0.0% 0.0% 0.0% 0.0% 0.0%
Медиаинфо
General
Unique ID : 15554033009736673915174240839399377786 (0xBB39908F557FE9DFD9B8E859ED00B7A)
Complete name : Loving Vincent (2017) [GBR Transfer] BDRip 1080p H.265 [RUS_ENG] [HEVC-CLUB].mkv
Format : Matroska
Format version : Version 4
File size : 6.65 GiB
Duration : 1 h 34 min
Overall bit rate : 10.1 Mb/s
Movie name : Ван Гог. С любовью, Винсент / З любов'ю, Вінсент / Loving Vincent (2017)
Encoded date : UTC 2020-10-03 03:07:26
Writing application : mkvmerge v20.0.0 ('I Am The Sun') 64-bit
Writing library : libebml v1.3.5 + libmatroska v1.4.8
Cover : Yes
Attachments : Cover.jpg

Video
ID : 1
Format : HEVC
Format/Info : High Efficiency Video Coding
Format profile : Main 10@L4.1@High
Codec ID : V_MPEGH/ISO/HEVC
Duration : 1 h 34 min
Bit rate : 7 969 kb/s
Width : 1 480 pixels
Height : 1 080 pixels
Display aspect ratio : 1.370
Frame rate mode : Constant
Frame rate : 23.976 (24000/1001) FPS
Color space : YUV
Chroma subsampling : 4:2:0
Bit depth : 10 bits
Bits/(Pixel*Frame) : 0.208
Stream size : 5.27 GiB (79%)
Title : Ван Гог. С любовью, Винсент / З любов'ю, Вінсент / Loving Vincent (2017)
Writing library : x265 3.4+4-g3ae3d7116:[Windows][GCC 10.2.0][64 bit] 10bit
Encoding settings : cpuid=1111039 / frame-threads=3 / numa-pools=12 / wpp / no-pmode / no-pme / no-psnr / no-ssim / log-level=2 / input-csp=1 / input-res=1480x1080 / interlace=0 / total-frames=136221 / level-idc=41 / high-tier=1 / uhd-bd=0 / ref=5 / no-allow-non-conformance / no-repeat-headers / annexb / no-aud / no-hrd / info / hash=0 / no-temporal-layers / open-gop / min-keyint=23 / keyint=240 / gop-lookahead=0 / bframes=16 / b-adapt=2 / b-pyramid / bframe-bias=0 / rc-lookahead=60 / lookahead-slices=0 / scenecut=40 / hist-scenecut=0 / radl=0 / no-splice / no-intra-refresh / ctu=32 / min-cu-size=8 / rect / amp / max-tu-size=32 / tu-inter-depth=4 / tu-intra-depth=4 / limit-tu=0 / rdoq-level=2 / dynamic-rd=0.00 / no-ssim-rd / signhide / tskip / nr-intra=0 / nr-inter=0 / no-constrained-intra / no-strong-intra-smoothing / max-merge=5 / limit-refs=0 / no-limit-modes / me=3 / subme=7 / merange=57 / temporal-mvp / no-frame-dup / no-hme / weightp / weightb / no-analyze-src-pics / deblock=-3:-3 / no-sao / no-sao-non-deblock / rd=6 / selective-sao=0 / no-early-skip / no-rskip / no-fast-intra / no-tskip-fast / no-cu-lossless / no-b-intra / no-splitrd-skip / rdpenalty=0 / psy-rd=2.00 / psy-rdoq=1.00 / no-rd-refine / no-lossless / cbqpoffs=0 / crqpoffs=0 / rc=crf / crf=20.0 / qcomp=0.65 / qpstep=4 / stats-write=0 / stats-read=0 / vbv-maxrate=50000 / vbv-bufsize=50000 / vbv-init=0.9 / crf-max=0.0 / crf-min=0.0 / ipratio=1.40 / pbratio=1.30 / aq-mode=2 / aq-strength=1.00 / no-cutree / zone-count=0 / no-strict-cbr / qg-size=32 / no-rc-grain / qpmax=69 / qpmin=0 / no-const-vbv / sar=1 / overscan=0 / videoformat=5 / range=0 / colorprim=1 / transfer=1 / colormatrix=1 / chromaloc=0 / display-window=0 / cll=0,0 / min-luma=0 / max-luma=1023 / log2-max-poc-lsb=8 / vui-timing-info / vui-hrd-info / slices=1 / no-opt-qp-pps / no-opt-ref-list-length-pps / no-multi-pass-opt-rps / scenecut-bias=0.05 / hist-threshold=0.01 / no-opt-cu-delta-qp / no-aq-motion / no-hdr10 / no-hdr10-opt / no-dhdr10-opt / no-idr-recovery-sei / analysis-reuse-level=0 / analysis-save-reuse-level=0 / analysis-load-reuse-level=0 / scale-factor=0 / refine-intra=0 / refine-inter=0 / refine-mv=1 / refine-ctu-distortion=0 / no-limit-sao / ctu-info=0 / no-lowpass-dct / refine-analysis-type=0 / copy-pic=1 / max-ausize-factor=1.0 / no-dynamic-refine / no-single-sei / no-hevc-aq / no-svt / no-field / qp-adaptation-range=1.00 / no-scenecut-aware-qpconformance-window-offsets / right=0 / bottom=0 / decoder-max-rate=0
Default : Yes
Forced : No
Color range : Limited
Color primaries : BT.709
Transfer characteristics : BT.709
Matrix coefficients : BT.709

Audio #1
ID : 2
Format : AC-3
Format/Info : Audio Coding 3
Commercial name : Dolby Digital
Codec ID : A_AC3
Duration : 1 h 34 min
Bit rate mode : Constant
Bit rate : 384 kb/s
Channel(s) : 6 channels
Channel layout : L R C LFE Ls Rs
Sampling rate : 48.0 kHz
Frame rate : 31.250 FPS (1536 SPF)
Compression mode : Lossy
Stream size : 260 MiB (4%)
Title : AC3 / 5.1 Ch / 384 kbps / DUB / iTunes / Novamedia
Language : Russian
Service kind : Complete Main
Default : Yes
Forced : Yes

Audio #2
ID : 3
Format : DTS
Format/Info : Digital Theater Systems
Codec ID : A_DTS
Duration : 1 h 34 min
Bit rate mode : Constant
Bit rate : 1 509 kb/s
Channel(s) : 6 channels
Channel layout : C L R Ls Rs LFE
Sampling rate : 48.0 kHz
Frame rate : 93.750 FPS (512 SPF)
Bit depth : 24 bits
Compression mode : Lossy
Stream size : 1 022 MiB (15%)
Title : DTS / 5.1 Ch / 1509 kbps / Original
Language : English
Default : No
Forced : No

Audio #3
ID : 4
Format : AC-3
Format/Info : Audio Coding 3
Commercial name : Dolby Digital
Codec ID : A_AC3
Duration : 1 h 34 min
Bit rate mode : Constant
Bit rate : 192 kb/s
Channel(s) : 2 channels
Channel layout : L R
Sampling rate : 48.0 kHz
Frame rate : 31.250 FPS (1536 SPF)
Compression mode : Lossy
Stream size : 130 MiB (2%)
Title : AC3 / 2.0 Ch / 192 kbps / Original / Audio description track
Language : English
Service kind : Complete Main
Default : No
Forced : No

Text #1
ID : 5
Format : UTF-8
Codec ID : S_TEXT/UTF8
Codec ID/Info : UTF-8 Plain Text
Duration : 1 h 30 min
Bit rate : 109 b/s
Count of elements : 1139
Stream size : 72.8 KiB (0%)
Title : Novamedia
Language : Russian
Default : No
Forced : No

Text #2
ID : 6
Format : UTF-8
Codec ID : S_TEXT/UTF8
Codec ID/Info : UTF-8 Plain Text
Duration : 1 h 30 min
Bit rate : 121 b/s
Count of elements : 1119
Stream size : 80.6 KiB (0%)
Title : imvolk-13
Language : Russian
Default : No
Forced : No

Text #3
ID : 7
Format : UTF-8
Codec ID : S_TEXT/UTF8
Codec ID/Info : UTF-8 Plain Text
Duration : 1 h 27 min
Bit rate : 122 b/s
Count of elements : 1321
Stream size : 78.4 KiB (0%)
Title : FOCS
Language : Russian
Default : No
Forced : No

Text #4
ID : 8
Format : UTF-8
Codec ID : S_TEXT/UTF8
Codec ID/Info : UTF-8 Plain Text
Duration : 1 h 30 min
Bit rate : 109 b/s
Count of elements : 1138
Stream size : 72.6 KiB (0%)
Title : Full by -Star-Lord-
Language : Ukrainian
Default : No
Forced : No

Text #5
ID : 9
Format : UTF-8
Codec ID : S_TEXT/UTF8
Codec ID/Info : UTF-8 Plain Text
Duration : 1 h 27 min
Bit rate : 78 b/s
Count of elements : 1293
Stream size : 49.9 KiB (0%)
Title : BTI Studios (SDH)
Language : English
Default : No
Forced : No

Menu
00:00:00.000 : en:Chapter 01
00:09:07.338 : en:Chapter 02
00:15:00.732 : en:Chapter 03
00:22:50.576 : en:Chapter 04
00:31:18.125 : en:Chapter 05
00:39:33.411 : en:Chapter 06
00:44:25.911 : en:Chapter 07
00:52:16.005 : en:Chapter 08
01:03:14.955 : en:Chapter 09
01:09:51.642 : en:Chapter 10
01:17:26.805 : en:Chapter 11
01:28:25.254 : en:Chapter 12
Загрузка...Cкриншот1 Ван Гог. С любовью, Винсент / Loving Vincent (2017) [iTunes, GBR Transfer] BDRip 1080p [HEVC] 10 bit от -Star-Lord-Загрузка...Cкриншот2 Ван Гог. С любовью, Винсент / Loving Vincent (2017) [iTunes, GBR Transfer] BDRip 1080p [HEVC] 10 bit от -Star-Lord-Загрузка...Cкриншот3 Ван Гог. С любовью, Винсент / Loving Vincent (2017) [iTunes, GBR Transfer] BDRip 1080p [HEVC] 10 bit от -Star-Lord-Загрузка...Cкриншот4 Ван Гог. С любовью, Винсент / Loving Vincent (2017) [iTunes, GBR Transfer] BDRip 1080p [HEVC] 10 bit от -Star-Lord-
Сэмпл Торрент🧲 Магнет

Рейтинги КП и IMDB, кнопки "Позвать в чате" и "Спасибо", а также мультитрекерная статистика сидов и пиров доступны только зарегистрированным/авторизованным пользователям!

Файлы: 1
  • Loving Vincent (2017) [GBR Transfer] BDRip 1080p H.265 [RUS_ENG] [HEVC-CLUB].mkv   6.65 ГБ
Поблагодарили: 3
aquarius, makss333, Temperest
StarLord
062626.65 ГБ

Добавление нового комментария

Добавление комментариев доступно только зарегистрированным/авторизованным пользователям.