💬 Мини-чат

Для тех, кому интересен процесс переделки сайта - https://rips.club/changelog.html (обновлен 20.04.2024)
  • Roman1312
Отправка сообщений доступна только зарегистрированным/авторизованным пользователям.
Онлайн (за 10 мин.): 1

Ограбление в ураган / The Hurricane Heist (2018) [iTunes] BDRip 1080p [HEVC] 10 bit от HANNIBAL

HEVC
10 bit
Обложка Ограбление в ураган / The Hurricane Heist (2018) [iTunes] BDRip 1080p [HEVC] 10 bit от HANNIBAL Год: 2018
Страна: США
Студия: Dream Team Films Pvt. Ltd.
Жанр: Боевик, Триллер
Продолжительность: 01:43:05

Режиссер: Роб Коэн
В ролях: Тоби Кеббелл, Мэгги Грэйс, Райан Квантен, Ралф Айнесон, Мелисса Болона, Бен Кросс, Джэми Эндрю Катлер, Кристиан Райан Контрерас, Эд Бирч

Описание: На побережье Америки стремительно надвигается ураган. Тем временем банда воров планирует идеальное ограбление: украсть 600 миллионов долларов из казначейства США, воспользовавшись стихийным бедствием как прикрытием. Но один фактор грабители не учли — честную и подготовленную работницу казначейства. Женщина вовремя объединяется с исследователем ураганов на специализированном бронированном автомобиле, и теперь они — единственные, кто может помешать ворам осуществить план ограбления. Почти единственные, ведь для урагана вне категорий не существует деления на своих и чужих.


Видео: 1920x804, 5039 Kbps
Аудио: AC3, 6 ch, 384 Kbps - РусскийРусский, Дублированный (iTunes)
Субтитры: нет

Медиаинфо
General
Unique ID : 178858193960218917902871479871504614545 (0x868ED5CCB2CE1E8A9A09CE1901678491)
Complete name : F:\HEVC-CLUB\The Hurricane Heist (2018) BDRip 1080p [HEVC] 10bit.mkv
Format : Matroska
Format version : Version 4 / Version 2
File size : 3.91 GiB
Duration : 1 h 43 min
Overall bit rate : 5 425 kb/s
Movie name : The Hurricane Heist 2018 from ExKinoRay
Encoded date : UTC 2018-05-30 17:33:54
Writing application : mkvmerge v8.9.0 ('Father Daughter') 64bit
Writing library : libebml v1.3.3 + libmatroska v1.4.4 / Lavf57.71.100
Cover : Yes
Attachments : cover.jpg
ENCODING_INFO : MATROSKA,WEBM > MKV Пользовательский / H264 > X265 CBR 5100kbps Medium / AC3 > AC3 CBR 384kbps

Video
ID : 1
Format : HEVC
Format/Info : High Efficiency Video Coding
Format profile : Main 10@L5.1@Main
Codec ID : V_MPEGH/ISO/HEVC
Duration : 1 h 43 min
Bit rate : 5 039 kb/s
Width : 1 920 pixels
Height : 804 pixels
Display aspect ratio : 2.40:1
Frame rate mode : Constant
Frame rate : 23.976 (24000/1001) FPS
Color space : YUV
Chroma subsampling : 4:2:0
Bit depth : 10 bits
Bits/(Pixel*Frame) : 0.136
Stream size : 3.63 GiB (93%)
Writing library : x265 2.7+336-07defe235cde:[Windows][clang 7.0.0][64 bit] 10bit
Encoding settings : cpuid=1049583 / frame-threads=5 / numa-pools=4 / wpp / no-pmode / no-pme / no-psnr / no-ssim / log-level=3 / input-csp=1 / input-res=1920x804 / interlace=0 / total-frames=0 / level-idc=51 / high-tier=1 / uhd-bd=0 / ref=3 / allow-non-conformance / no-repeat-headers / annexb / no-aud / no-hrd / info / hash=0 / no-temporal-layers / open-gop / min-keyint=24 / keyint=240 / gop-lookahead=0 / bframes=4 / b-adapt=2 / b-pyramid / bframe-bias=0 / rc-lookahead=20 / lookahead-slices=5 / scenecut=40 / radl=0 / no-intra-refresh / ctu=64 / min-cu-size=8 / no-rect / no-amp / max-tu-size=32 / tu-inter-depth=1 / tu-intra-depth=1 / limit-tu=0 / rdoq-level=0 / dynamic-rd=0.00 / no-ssim-rd / signhide / no-tskip / nr-intra=0 / nr-inter=0 / no-constrained-intra / strong-intra-smoothing / max-merge=2 / limit-refs=3 / no-limit-modes / me=1 / subme=2 / merange=57 / temporal-mvp / weightp / no-weightb / no-analyze-src-pics / deblock=-2:-2 / sao / no-sao-non-deblock / rd=3 / no-early-skip / rskip / no-fast-intra / no-tskip-fast / no-cu-lossless / no-b-intra / no-splitrd-skip / rdpenalty=0 / psy-rd=2.00 / psy-rdoq=0.00 / no-rd-refine / no-lossless / cbqpoffs=0 / crqpoffs=0 / rc=cbr / bitrate=5100 / qcomp=0.60 / qpstep=4 / stats-write=0 / stats-read=0 / vbv-maxrate=5100 / vbv-bufsize=3642 / vbv-init=0.9 / ipratio=1.40 / pbratio=1.30 / aq-mode=1 / aq-strength=1.00 / cutree / zone-count=0 / no-strict-cbr / qg-size=32 / no-rc-grain / qpmax=69 / qpmin=0 / no-const-vbv / sar=1 / overscan=0 / videoformat=5 / range=0 / colorprim=1 / transfer=14 / colormatrix=1 / chromaloc=0 / display-window=0 / max-cll=0,0 / min-luma=0 / max-luma=1023 / log2-max-poc-lsb=8 / vui-timing-info / vui-hrd-info / slices=1 / no-opt-qp-pps / no-opt-ref-list-length-pps / no-multi-pass-opt-rps / scenecut-bias=0.05 / no-opt-cu-delta-qp / no-aq-motion / no-hdr / no-hdr-opt / no-dhdr10-opt / no-idr-recovery-sei / analysis-reuse-level=5 / scale-factor=0 / refine-intra=0 / refine-inter=0 / refine-mv=0 / no-limit-sao / ctu-info=0 / no-lowpass-dct / refine-mv-type=0 / copy-pic=1 / max-ausize-factor=1.0 / no-dynamic-refine / no-single-sei
Language : English
Default : Yes
Forced : No
Color range : Limited
Color primaries : BT.709
Transfer characteristics : BT.2020 (10-bit)
Matrix coefficients : BT.709

Audio
ID : 2
Format : AC-3
Format/Info : Audio Coding 3
Codec ID : A_AC3
Duration : 1 h 43 min
Bit rate mode : Constant
Bit rate : 384 kb/s
Channel(s) : 6 channels
Channel positions : Front: L C R, Side: L R, LFE
Sampling rate : 48.0 kHz
Frame rate : 31.250 FPS (1536 SPF)
Bit depth : 16 bits
Compression mode : Lossy
Stream size : 283 MiB (7%)
Title : iTunes
Language : Russian
Service kind : Complete Main
Default : Yes
Forced : Yes

Menu
00:00:00.000 : :00:00:00.000
00:05:41.258 : :00:05:41.258
00:13:15.253 : :00:13:15.253
00:20:49.456 : :00:20:49.456
00:25:48.046 : :00:25:48.046
00:30:08.974 : :00:30:08.974
00:35:00.889 : :00:35:00.890
00:40:40.813 : :00:40:40.813
00:45:48.162 : :00:45:48.162
00:52:34.359 : :00:52:34.359
01:00:22.244 : :01:00:22.244
01:06:49.881 : :01:06:49.881
01:11:02.341 : :01:11:02.341
01:17:43.951 : :01:17:43.951
01:25:06.351 : :01:25:06.351
01:32:38.595 : :01:32:38.595
Загрузка...Cкриншот1 Ограбление в ураган / The Hurricane Heist (2018) [iTunes] BDRip 1080p [HEVC] 10 bit от HANNIBALЗагрузка...Cкриншот2 Ограбление в ураган / The Hurricane Heist (2018) [iTunes] BDRip 1080p [HEVC] 10 bit от HANNIBALЗагрузка...Cкриншот3 Ограбление в ураган / The Hurricane Heist (2018) [iTunes] BDRip 1080p [HEVC] 10 bit от HANNIBALЗагрузка...Cкриншот4 Ограбление в ураган / The Hurricane Heist (2018) [iTunes] BDRip 1080p [HEVC] 10 bit от HANNIBAL
Сэмпл Торрент🧲 Магнет

Рейтинги КП и IMDB, кнопки "Позвать в чате" и "Спасибо", а также мультитрекерная статистика доступны только зарегистрированным/авторизованным пользователям!

Файлы: 1
  • The Hurricane Heist (2018) BDRip 1080p [HEVC] 10bit.mkv   3.91 ГБ
Поблагодарили: 3
controller70, poletov, sakurarec
HANNIBAL
0489003.91 ГБ

Добавление нового комментария

Добавление комментариев доступно только зарегистрированным/авторизованным пользователям.