💬 Мини-чат

Для тех, кому интересен процесс переделки сайта - https://rips.club/changelog.html (обновлен 20.04.2024)
Отправка сообщений доступна только зарегистрированным/авторизованным пользователям.
Онлайн (за 10 мин.): 0

Банды Индостана / Thugs of Hindostan (2018) BDRip 1080p [HEVC] 10 bit от OldGamer (RG RIPS CLUB)

HEVC
10 bit
Обложка Банды Индостана / Thugs of Hindostan (2018) BDRip 1080p [HEVC] 10 bit от OldGamer (RG RIPS CLUB) Год: 2018
Страна: Индия
Студия: Latina Pictures, Yash Raj Films Pvt. Ltd.
Жанр: Боевик, История, Драма
Продолжительность: 02:44:35

Режиссер: Виджай Кришна Ачария
В ролях: Аамир Кхан, Амитабх Баччан, Фатима Сана Шаикх, Катрина Каиф, Ллойд Оуэн, Сакиб Аюб, Ронит Рой, Сатьядев Канчарана, Шаджи Чаудхари, Теренс Дж. Ротоло

Описание: 1795 год. С помощью пришедшей торговать Ост-Индской компании Британия сделала Индию своей колонией. Но находятся герои, не согласные с насаждаемыми порядками, и самый известный из них — предводитель морских разбойников Азаад, ставящий свободу превыше всего. Чтобы справиться с этой угрозой имперской стабильности, британский командир нанимает мелкого местного бандита, беспринципного прохвоста, готового ради денег на что угодно. Тот должен внедриться в банду и сдать Азаада властям.


Исходник: Blu-Ray Remux 1080p
Видео: 1920x804, 5648 Kbps
Аудио1: AC3, 2 ch, 192 Kbps - РусскийРусский, DUB (СТС) + вставки MVO (Honey&Haseena)
Аудио2: AC3, 6 ch, 640 Kbps - РусскийРусский, MVO (Honey&Haseena)
Аудио3: AC3, 2 ch, 192 Kbps - РусскийРусский, MVO (@MUZOBOZ@)
Аудио4: AC3, 6 ch, 640 Kbps - ХиндиХинди
Субтитры: русские (full, forced), английские

Как за пару секунд удалить ненужные аудиодорожки и субтитры (Внимание! После удаления вы не сможете поддержать раздачу)

Лог (x265 info)
x265 [info]: frame I: 994, Avg QP:17.95 kb/s: 18949.47
x265 [info]: frame P: 51526, Avg QP:19.41 kb/s: 10899.88
x265 [info]: frame B: 184483, Avg QP:21.36 kb/s: 4108.04
x265 [info]: Weighted P-Frames: Y:8.7% UV:6.7%
x265 [info]: Weighted B-Frames: Y:10.5% UV:7.1%
x265 [info]: consecutive B-frames: 4.0% 4.5% 7.4% 47.6% 11.2% 14.7% 5.4% 3.6% 1.0% 0.4% 0.2%
x265 [info]: encoded 237003 frames in 132415.87s (1.79 fps), 5646.88 kb/s, Avg QP:20.92
Медиаинфо
Общее
Уникальный идентификатор : 29714593063160499250123683714776164868 (0x165AD28C83650C79EC8B3BA54D43EA04)
Полное имя : \\.\Банды.Индостана.Thugs.Of.Hindostan.2018.BDRip-HEVC.1080p.mkv
Формат : Matroska
Версия формата : Version 4
Размер файла : 8,41 Гбайт
Продолжительность : 2 ч. 44 м.
Общий поток : 7 314 Кбит/сек
Частота кадров : 24,000 кадра/сек
Название фильма : Банды Индостана / Банды Индостана
Кодирование произвёл : OldGamer
Тип содержимого : Movie
Дата выпуска : 2018-11-07
Дата записи : 2018-11-07
Программа кодирования : mkvmerge v82.0 ('I'm The President') 64-bit
Библиотека кодирования : libebml v1.4.5 + libmatroska v1.7.1 / xvid4psp5
Обложка : Yes
Attachments : cover.jpg
ACTOR : Amitabh Bachchan, Aamir Khan, Katrina Kaif, Fatima Sana Shaikh, Mohammed Zeeshan Ayyub, Lloyd Owen, Surendra Pal, Shane John Kruger, Kaivalya Chheda, Shaji Choudhary, Manjit Singh, Venkat Vadisetti, Ronit Roy, Satyadev Kancharana, Sharat Saxena, Ila ...
ARTIST : Amitabh Bachchan, Aamir Khan, Katrina Kaif, Fatima Sana Shaikh, Mohammed Zeeshan Ayyub, Lloyd Owen, Surendra Pal, Shane John Kruger, Kaivalya Chheda, Shaji Choudhary, Manjit Singh, Venkat Vadisetti, Ronit Roy, Satyadev Kancharana, Sharat Saxena, Ila ...
DIRECTOR : Vijay Krishna Acharya
GENRE : приключения, боевик
PRODUCER : Aditya Chopra
PRODUCTION_STUDIO : Prime Focus
SCREENPLAY_BY : Vijay Krishna Acharya
SYNOPSIS : 1795 год. С помощью пришедшей торговать Ост-Индской компании Британия сделала Индию своей колонией. Но находятся герои, не согласные с насаждаемыми порядками, и самый известный из них — предводитель морских разбойников Азаад, ставящий свободу превыше всего. Чтобы справиться с этой угрозой имперской стабильности, британский командир нанимает мелкого местного бандита, беспринципного прохвоста, готового ради денег на что угодно. Тот должен внедриться в банду и убить Азаада.
WRITTEN_BY : Vijay Krishna Acharya

Видео
Идентификатор : 1
Формат : HEVC
Формат/Информация : High Efficiency Video Coding
Профиль формата : Main 10@L4.1@High
Идентификатор кодека : V_MPEGH/ISO/HEVC
Продолжительность : 2 ч. 44 м.
Битрейт : 5 648 Кбит/сек
Ширина : 1 920 пикселей
Высота : 804 пикселя
Соотношение сторон : 2,39:1
Режим частоты кадров : Постоянный
Частота кадров : 24,000 кадра/сек
Цветовое пространство : YUV
Субдискретизация насыщенности : 4:2:0
Битовая глубина : 10 бит
Бит/(Пиксели*Кадры) : 0.152
Размер потока : 6,49 Гбайт (77%)
Заголовок : Thugs Of Hindostan / Rip by OldGamer
Библиотека кодирования : x265 3.4+4-g3ae3d7116:[Windows][GCC 10.2.0][64 bit] 10bit
Настройки программы : cpuid=1111039 / frame-threads=3 / numa-pools=8 / wpp / no-pmode / no-pme / no-psnr / no-ssim / log-level=2 / input-csp=1 / input-res=1920x804 / interlace=0 / total-frames=237003 / level-idc=41 / high-tier=1 / uhd-bd=0 / ref=5 / no-allow-non-conformance / no-repeat-headers / annexb / no-aud / no-hrd / info / hash=0 / no-temporal-layers / open-gop / min-keyint=23 / keyint=240 / gop-lookahead=0 / bframes=10 / b-adapt=2 / b-pyramid / bframe-bias=0 / rc-lookahead=60 / lookahead-slices=0 / scenecut=40 / hist-scenecut=0 / radl=0 / no-splice / no-intra-refresh / ctu=64 / min-cu-size=8 / rect / amp / max-tu-size=32 / tu-inter-depth=4 / tu-intra-depth=4 / limit-tu=1 / rdoq-level=2 / dynamic-rd=0.00 / no-ssim-rd / signhide / no-tskip / nr-intra=0 / nr-inter=0 / no-constrained-intra / no-strong-intra-smoothing / max-merge=5 / limit-refs=3 / no-limit-modes / me=3 / subme=7 / merange=57 / temporal-mvp / no-frame-dup / no-hme / weightp / weightb / no-analyze-src-pics / deblock=-3:-3 / no-sao / no-sao-non-deblock / rd=6 / selective-sao=0 / no-early-skip / rskip / no-fast-intra / no-tskip-fast / no-cu-lossless / b-intra / no-splitrd-skip / rdpenalty=0 / psy-rd=2.00 / psy-rdoq=1.00 / no-rd-refine / no-lossless / cbqpoffs=0 / crqpoffs=0 / rc=crf / crf=20.5 / qcomp=0.70 / qpstep=4 / stats-write=0 / stats-read=0 / vbv-maxrate=50000 / vbv-bufsize=50000 / vbv-init=0.9 / crf-max=0.0 / crf-min=0.0 / ipratio=1.40 / pbratio=1.30 / aq-mode=1 / aq-strength=1.00 / no-cutree / zone-count=1 / zones: / start-frame=231060 / end-frame=236992 / qp=36 / no-strict-cbr / qg-size=32 / no-rc-grain / qpmax=69 / qpmin=0 / no-const-vbv / sar=1 / overscan=0 / videoformat=5 / range=0 / colorprim=2 / transfer=2 / colormatrix=2 / chromaloc=0 / display-window=0 / cll=0,0 / min-luma=0 / max-luma=1023 / log2-max-poc-lsb=8 / vui-timing-info / vui-hrd-info / slices=1 / no-opt-qp-pps / no-opt-ref-list-length-pps / no-multi-pass-opt-rps / scenecut-bias=0.00 / hist-threshold=0.01 / no-opt-cu-delta-qp / no-aq-motion / no-hdr10 / no-hdr10-opt / no-dhdr10-opt / no-idr-recovery-sei / analysis-reuse-level=0 / analysis-save-reuse-level=0 / analysis-load-reuse-level=0 / scale-factor=0 / refine-intra=0 / refine-inter=0 / refine-mv=1 / refine-ctu-distortion=0 / no-limit-sao / ctu-info=0 / no-lowpass-dct / refine-analysis-type=0 / copy-pic=1 / max-ausize-factor=1.0 / no-dynamic-refine / no-single-sei / no-hevc-aq / no-svt / no-field / qp-adaptation-range=1.00 / no-scenecut-aware-qpconformance-window-offsets / right=0 / bottom=0 / decoder-max-rate=0
Язык : English
Default : Да
Forced : Нет

Аудио #1
Идентификатор : 2
Формат : AC-3
Формат/Информация : Audio Coding 3
Коммерческое название : Dolby Digital
Идентификатор кодека : A_AC3
Продолжительность : 2 ч. 44 м.
Вид битрейта : Постоянный
Битрейт : 192 Кбит/сек
Каналы : 2 канала
Channel layout : L R
Частота : 48,0 КГц
Частота кадров : 31,250 кадров/сек (1536 SPF)
Метод сжатия : С потерями
Размер потока : 226 Мбайт (3%)
Заголовок : DUB (СТС) + вставки MVO (Honey&Haseena)
Язык : Russian
Service kind : Complete Main
Default : Да
Forced : Нет

Аудио #2
Идентификатор : 3
Формат : AC-3
Формат/Информация : Audio Coding 3
Коммерческое название : Dolby Digital
Идентификатор кодека : A_AC3
Продолжительность : 2 ч. 44 м.
Вид битрейта : Постоянный
Битрейт : 640 Кбит/сек
Каналы : 6 каналов
Channel layout : L R C LFE Ls Rs
Частота : 48,0 КГц
Частота кадров : 31,250 кадров/сек (1536 SPF)
Метод сжатия : С потерями
Размер потока : 753 Мбайт (9%)
Заголовок : MVO (Honey&Haseena)
Язык : Russian
Service kind : Complete Main
Default : Нет
Forced : Нет

Аудио #3
Идентификатор : 4
Формат : AC-3
Формат/Информация : Audio Coding 3
Коммерческое название : Dolby Digital
Идентификатор кодека : A_AC3
Продолжительность : 2 ч. 44 м.
Вид битрейта : Постоянный
Битрейт : 192 Кбит/сек
Каналы : 2 канала
Channel layout : L R
Частота : 48,0 КГц
Частота кадров : 31,250 кадров/сек (1536 SPF)
Метод сжатия : С потерями
Размер потока : 226 Мбайт (3%)
Заголовок : MVO (@MUZOBOZ@)
Язык : Russian
Service kind : Complete Main
Default : Нет
Forced : Нет

Аудио #4
Идентификатор : 5
Формат : AC-3
Формат/Информация : Audio Coding 3
Коммерческое название : Dolby Digital
Настройки формата : Dolby Surround EX
Идентификатор кодека : A_AC3
Продолжительность : 2 ч. 44 м.
Вид битрейта : Постоянный
Битрейт : 640 Кбит/сек
Каналы : 6 каналов
Channel layout : L R C LFE Ls Rs
Частота : 48,0 КГц
Частота кадров : 31,250 кадров/сек (1536 SPF)
Метод сжатия : С потерями
Размер потока : 753 Мбайт (9%)
Язык : Hindi
Service kind : Complete Main
Default : Нет
Forced : Нет

Текст #1
Идентификатор : 6
Формат : UTF-8
Идентификатор кодека : S_TEXT/UTF8
Идентификатор кодека/Информация : UTF-8 Plain Text
Продолжительность : 2 ч. 0 м.
Битрейт : 17 бит/сек
Частота кадров : 0,016 кадр/сек
Count of elements : 119
Размер потока : 15,1 Кбайт (0%)
Заголовок : На песни
Язык : Russian
Default : Да
Forced : Нет

Текст #2
Идентификатор : 7
Формат : UTF-8
Идентификатор кодека : S_TEXT/UTF8
Идентификатор кодека/Информация : UTF-8 Plain Text
Продолжительность : 2 ч. 37 м.
Битрейт : 69 бит/сек
Частота кадров : 0,135 кадр/сек
Count of elements : 1275
Размер потока : 79,6 Кбайт (0%)
Заголовок : Полные
Язык : Russian
Default : Нет
Forced : Нет

Текст #3
Идентификатор : 8
Формат : UTF-8
Идентификатор кодека : S_TEXT/UTF8
Идентификатор кодека/Информация : UTF-8 Plain Text
Продолжительность : 2 ч. 37 м.
Битрейт : 33 бит/сек
Частота кадров : 0,134 кадр/сек
Count of elements : 1261
Размер потока : 38,8 Кбайт (0%)
Язык : English
Default : Нет
Forced : Нет

Меню
00:00:00.000 : en:Глава 01
00:00:10.041 : en:Глава 02
00:00:42.250 : en:Глава 03
00:05:10.625 : en:Глава 04
00:16:17.000 : en:Глава 05
00:24:29.416 : en:Глава 06
00:32:58.000 : en:Глава 07
00:36:34.750 : en:Глава 08
00:41:24.000 : en:Глава 09
00:43:40.416 : en:Глава 10
00:49:56.416 : en:Глава 11
00:56:33.416 : en:Глава 12
01:03:03.000 : en:Глава 13
01:12:10.000 : en:Глава 14
01:16:44.416 : en:Глава 15
01:20:59.208 : en:Глава 16
01:30:41.625 : en:Глава 17
01:38:38.541 : en:Глава 18
01:46:14.625 : en:Глава 19
01:54:52.208 : en:Глава 20
02:01:31.250 : en:Глава 21
02:06:24.000 : en:Глава 22
02:12:39.833 : en:Глава 23
02:20:30.000 : en:Глава 24
02:31:30.000 : en:Глава 25
02:37:56.416 : en:Глава 26
Загрузка...Cкриншот1 Банды Индостана / Thugs of Hindostan (2018) BDRip 1080p [HEVC] 10 bit от OldGamer (RG RIPS CLUB)Загрузка...Cкриншот2 Банды Индостана / Thugs of Hindostan (2018) BDRip 1080p [HEVC] 10 bit от OldGamer (RG RIPS CLUB)Загрузка...Cкриншот3 Банды Индостана / Thugs of Hindostan (2018) BDRip 1080p [HEVC] 10 bit от OldGamer (RG RIPS CLUB)Загрузка...Cкриншот4 Банды Индостана / Thugs of Hindostan (2018) BDRip 1080p [HEVC] 10 bit от OldGamer (RG RIPS CLUB)
Релиз-группа: RIPS CLUB
Сэмпл Торрент🧲 Магнет

Раздача обновлена!
Видеоряд без изменений. Замена дубляжа (был рассинхрон в промежутке 01:49:47 - 01:53:18)

Рейтинги КП и IMDB, кнопки "Позвать в чате" и "Спасибо", а также мультитрекерная статистика доступны только зарегистрированным/авторизованным пользователям!

Файлы: 1
  • Банды.Индостана.Thugs.Of.Hindostan.2018.BDRip-HEVC.1080p.mkv   8.41 ГБ
Поблагодарили: 6
Alex302, donadar, JackShredder, makss333, MIGRANT, Nuclear70
OldGamer
068518.41 ГБ

Добавление нового комментария

Добавление комментариев доступно только зарегистрированным/авторизованным пользователям.