Регистрация / Смена пароля

💬 Мини-чат

Адрес сайта поменялся с hevc-club.video на rips.club. Новый адрес анонсера - http://rips.club:2710/announce
ADVOKAT69rodina_45, буду перекодировать!
rodina_45Раздайте, пожалуйста, Царевна-лягушка (1954) BDRip 1080p [HEVC] 10 bit от ADVOKAT69
OldGamerДа всегда пожалуйста
UndervestСообщение удалено (удалил: Undervest)
StarLordOldGamer, очень жаль... Возможно сам возьмусь)
OldGamerStarLord, в планах такого нету :)
StarLordOldGamer, еще бы "Бомжа с дробовиком" в придачу к "Мачете" =))
warner98Раздайте, пожалуйста, Кошмар на улице Вязов / A Nightmare on Elm Street (2010) BDRip 1080p [HEVC] 10 bit от Cthulhu
VISРаздайте, пожалуйста, Доспехи Бога / Lung hing foo dai (1986) BDRip 1080p [HEVC] 10 bit от joker63
  • Admin
  • AlexTwitt
  • ancestor87
  • sabretooth
Отправка сообщений доступна только зарегистрированным/авторизованным пользователям.
Онлайн (за 10 мин.): 4

Гарри Поттер и тайная комната / Harry Potter and the Chamber of Secrets (2002) [Theatrical Cut] BDRip 1080p [HEVC] 10 bit от -Star-Lord-

HEVC
10 bit
Обложка Гарри Поттер и тайная комната / Harry Potter and the Chamber of Secrets (2002) [Theatrical Cut] BDRip 1080p [HEVC] 10 bit от -Star-Lord- Год: 2002
Страна: Великобритания, США, Германия
Студия: 1492 Pictures, Heyday Films, MIRACLE Productions GmbH & Co. KG, Warner Bros. Pictures
Жанр: Фэнтези, Детектив, Приключения, Семейный
Продолжительность: 02:40:56

Режиссер: Крис Коламбус / Chris Columbus
В ролях: Дэниэл Рэдклифф, Руперт Гринт, Эмма Уотсон, Алан Рикман, Ричард Гриффитс, Фиона Шоу, Гарри Меллинг, Тоби Джонс, Джим Нортон, Вероника Клиффорд, Джеймс Фелпс

Описание: Гарри Поттер переходит на второй курс Школы чародейства и волшебства Хогвартс. Эльф Добби предупреждает Гарри об опасности, которая поджидает его там, и просит больше не возвращаться в школу. Юный волшебник не следует совету эльфа и становится свидетелем таинственных событий, разворачивающихся в Хогвартсе. Вскоре Гарри и его друзья узнают о существовании Тайной Комнаты и сталкиваются с новыми приключениями, пытаясь победить темные силы.


Видео: 1920x800, 6020 Kbps
Аудио1: AC3, 6 ch, 384 Kbps - РусскийРусский, Дублированный (Лицензия)
Аудио2: AC3, 2 ch, 192 Kbps - УкраинскийУкраинский, Дублированный(Sweet.tv)
Аудио3: AC3, 2 ch, 192 Kbps - УкраинскийУкраинский, Многоголосый (Novy Kanal)
Аудио4: AC3, 2 ch, 192 Kbps - УкраинскийУкраинский, Многоголосый (1+1)
Аудио5: TrueHD, 6 ch, 1480 Kbps - АнглийскийАнглийский, Оригинал
Субтитры: Русские (форсированные, полные), украинские (форсированные х2, полные х2), английские (полные х2)

Как за пару секунд удалить ненужные аудиодорожки и субтитры (Внимание! После удаления вы не сможете поддержать раздачу)

Лог (x265 info)
x265 [info]: frame I: 2297, Avg QP:16.95 kb/s: 16315.29
x265 [info]: frame P: 43335, Avg QP:18.19 kb/s: 9600.13
x265 [info]: frame B: 185885, Avg QP:20.35 kb/s: 5057.81
x265 [info]: Weighted P-Frames: Y:12.3% UV:9.1%
x265 [info]: Weighted B-Frames: Y:14.6% UV:9.5%
x265 [info]: consecutive B-frames: 8.1% 3.9% 4.2% 32.3% 6.0% 25.5% 2.3% 15.3% 0.4% 0.6% 0.2% 1.1% 0.0% 0.0% 0.0% 0.2% 0.0%
Медиаинфо
General
Unique ID : 29467721104660829419162121072955466792 (0x162B46D253A7204FCC9B503C3CE9A428)
Complete name : Harry Potter and the Chamber of Secrets (2002) BDRip 1080p H.265 [RUS_3xUKR_ENG] [HEVC-CLUB].mkv
Format : Matroska
Format version : Version 4
File size : 9.59 GiB
Duration : 2 h 40 min
Overall bit rate mode : Variable
Overall bit rate : 8 528 kb/s
Movie name : Гарри Поттер и тайная комната / Гаррі Поттер і таємна кімната / Harry Potter and the Chamber of Secrets (2002)
Encoded date : UTC 2020-10-11 20:23:02
Writing application : mkvmerge v20.0.0 ('I Am The Sun') 64-bit
Writing library : libebml v1.3.5 + libmatroska v1.4.8
Cover : Yes
Attachments : cover.jpg / LumosCyr_0.ttf / HarryPotterCyr_0.ttf

Video
ID : 1
Format : HEVC
Format/Info : High Efficiency Video Coding
Format profile : Main 10@L4.1@High
Codec ID : V_MPEGH/ISO/HEVC
Duration : 2 h 40 min
Bit rate : 6 020 kb/s
Width : 1 920 pixels
Height : 800 pixels
Display aspect ratio : 2.40:1
Frame rate mode : Constant
Frame rate : 23.976 (24000/1001) FPS
Color space : YUV
Chroma subsampling : 4:2:0
Bit depth : 10 bits
Bits/(Pixel*Frame) : 0.163
Stream size : 6.77 GiB (71%)
Title : Гарри Поттер и тайная комната / Гаррі Поттер і таємна кімната / Harry Potter and the Chamber of Secrets (2002)
Writing library : x265 3.4+4-g3ae3d7116:[Windows][GCC 10.2.0][64 bit] 10bit
Encoding settings : cpuid=1111039 / frame-threads=3 / numa-pools=12 / wpp / no-pmode / no-pme / no-psnr / no-ssim / log-level=2 / input-csp=1 / input-res=1920x800 / interlace=0 / total-frames=231517 / level-idc=41 / high-tier=1 / uhd-bd=0 / ref=5 / no-allow-non-conformance / no-repeat-headers / annexb / no-aud / no-hrd / info / hash=0 / no-temporal-layers / open-gop / min-keyint=23 / keyint=250 / gop-lookahead=0 / bframes=16 / b-adapt=2 / b-pyramid / bframe-bias=0 / rc-lookahead=60 / lookahead-slices=0 / scenecut=40 / hist-scenecut=0 / radl=0 / no-splice / no-intra-refresh / ctu=64 / min-cu-size=8 / rect / amp / max-tu-size=32 / tu-inter-depth=4 / tu-intra-depth=4 / limit-tu=0 / rdoq-level=2 / dynamic-rd=0.00 / no-ssim-rd / signhide / tskip / nr-intra=0 / nr-inter=0 / no-constrained-intra / strong-intra-smoothing / max-merge=5 / limit-refs=0 / no-limit-modes / me=3 / subme=7 / merange=57 / temporal-mvp / no-frame-dup / no-hme / weightp / weightb / no-analyze-src-pics / deblock=-3:-3 / no-sao / no-sao-non-deblock / rd=6 / selective-sao=0 / no-early-skip / no-rskip / no-fast-intra / no-tskip-fast / no-cu-lossless / no-b-intra / no-splitrd-skip / rdpenalty=0 / psy-rd=2.00 / psy-rdoq=1.00 / no-rd-refine / no-lossless / cbqpoffs=0 / crqpoffs=0 / rc=crf / crf=20.0 / qcomp=0.65 / qpstep=4 / stats-write=0 / stats-read=0 / vbv-maxrate=50000 / vbv-bufsize=50000 / vbv-init=0.9 / crf-max=0.0 / crf-min=0.0 / ipratio=1.40 / pbratio=1.30 / aq-mode=2 / aq-strength=1.00 / no-cutree / zone-count=0 / no-strict-cbr / qg-size=32 / no-rc-grain / qpmax=69 / qpmin=0 / no-const-vbv / sar=1 / overscan=0 / videoformat=5 / range=0 / colorprim=1 / transfer=1 / colormatrix=1 / chromaloc=0 / display-window=0 / cll=0,0 / min-luma=0 / max-luma=1023 / log2-max-poc-lsb=8 / vui-timing-info / vui-hrd-info / slices=1 / no-opt-qp-pps / no-opt-ref-list-length-pps / no-multi-pass-opt-rps / scenecut-bias=0.05 / hist-threshold=0.01 / no-opt-cu-delta-qp / no-aq-motion / no-hdr10 / no-hdr10-opt / no-dhdr10-opt / no-idr-recovery-sei / analysis-reuse-level=0 / analysis-save-reuse-level=0 / analysis-load-reuse-level=0 / scale-factor=0 / refine-intra=0 / refine-inter=0 / refine-mv=1 / refine-ctu-distortion=0 / no-limit-sao / ctu-info=0 / no-lowpass-dct / refine-analysis-type=0 / copy-pic=1 / max-ausize-factor=1.0 / no-dynamic-refine / no-single-sei / no-hevc-aq / no-svt / no-field / qp-adaptation-range=1.00 / no-scenecut-aware-qpconformance-window-offsets / right=0 / bottom=0 / decoder-max-rate=0
Default : Yes
Forced : No
Color range : Limited
Color primaries : BT.709
Transfer characteristics : BT.709
Matrix coefficients : BT.709

Audio #1
ID : 2
Format : AC-3
Format/Info : Audio Coding 3
Commercial name : Dolby Digital
Codec ID : A_AC3
Duration : 2 h 40 min
Bit rate mode : Constant
Bit rate : 384 kb/s
Channel(s) : 6 channels
Channel layout : L R C LFE Ls Rs
Sampling rate : 48.0 kHz
Frame rate : 31.250 FPS (1536 SPF)
Compression mode : Lossy
Stream size : 442 MiB (5%)
Title : AC3 / 5.1 Ch / 384 kbps / DUB / Blu-Ray
Language : Russian
Service kind : Complete Main
Default : Yes
Forced : Yes

Audio #2
ID : 3
Format : AC-3
Format/Info : Audio Coding 3
Commercial name : Dolby Digital
Codec ID : A_AC3
Duration : 2 h 40 min
Bit rate mode : Constant
Bit rate : 192 kb/s
Channel(s) : 2 channels
Channel layout : L R
Sampling rate : 48.0 kHz
Frame rate : 31.250 FPS (1536 SPF)
Compression mode : Lossy
Stream size : 221 MiB (2%)
Title : AC3 / 2.0 Ch / 192 kbps / DUB / Sweet.tv
Language : Ukrainian
Service kind : Complete Main
Default : No
Forced : No

Audio #3
ID : 4
Format : AC-3
Format/Info : Audio Coding 3
Commercial name : Dolby Digital
Codec ID : A_AC3
Duration : 2 h 40 min
Bit rate mode : Constant
Bit rate : 192 kb/s
Channel(s) : 2 channels
Channel layout : L R
Sampling rate : 48.0 kHz
Frame rate : 31.250 FPS (1536 SPF)
Compression mode : Lossy
Stream size : 221 MiB (2%)
Title : AC3 / 2.0 Ch / 192 kbps / MVO / Novy Kanal
Language : Ukrainian
Service kind : Complete Main
Default : No
Forced : No

Audio #4
ID : 5
Format : AC-3
Format/Info : Audio Coding 3
Commercial name : Dolby Digital
Codec ID : A_AC3
Duration : 2 h 40 min
Bit rate mode : Constant
Bit rate : 192 kb/s
Channel(s) : 2 channels
Channel layout : L R
Sampling rate : 48.0 kHz
Frame rate : 31.250 FPS (1536 SPF)
Compression mode : Lossy
Stream size : 221 MiB (2%)
Title : AC3 / 2.0 Ch / 192 kbps / MVO / 1+1
Language : Ukrainian
Service kind : Complete Main
Default : No
Forced : No

Audio #5
ID : 6
Format : MLP FBA
Format/Info : Meridian Lossless Packing FBA
Commercial name : Dolby TrueHD
Codec ID : A_TRUEHD
Duration : 2 h 40 min
Bit rate mode : Variable
Bit rate : 1 480 kb/s
Maximum bit rate : 3 366 kb/s
Channel(s) : 6 channels
Channel layout : L R C LFE Ls Rs
Sampling rate : 48.0 kHz
Frame rate : 1 200.000 FPS (40 SPF)
Compression mode : Lossless
Stream size : 1.66 GiB (17%)
Title : TrueHD / 5.1 Ch / 1480 kbps / Original
Language : English
Default : No
Forced : No

Text #1
ID : 7
Format : UTF-8
Codec ID : S_TEXT/UTF8
Codec ID/Info : UTF-8 Plain Text
Duration : 1 h 28 min
Bit rate : 0 b/s
Count of elements : 7
Stream size : 235 Bytes (0%)
Title : Forced
Language : Russian
Default : Yes
Forced : Yes

Text #2
ID : 8
Format : UTF-8
Codec ID : S_TEXT/UTF8
Codec ID/Info : UTF-8 Plain Text
Duration : 2 h 33 min
Bit rate : 77 b/s
Count of elements : 1683
Stream size : 86.6 KiB (0%)
Title : Full
Language : Russian
Default : No
Forced : No

Text #3
ID : 9
Format : UTF-8
Codec ID : S_TEXT/UTF8
Codec ID/Info : UTF-8 Plain Text
Duration : 2 h 40 min
Bit rate : 0 b/s
Count of elements : 14
Stream size : 523 Bytes (0%)
Title : Forced
Language : Ukrainian
Default : No
Forced : No

Text #4
ID : 10
Format : ASS
Codec ID : S_TEXT/ASS
Codec ID/Info : Advanced Sub Station Alpha
Duration : 2 h 40 min
Bit rate : 0 b/s
Count of elements : 14
Compression mode : Lossless
Stream size : 780 Bytes (0%)
Title : Forced (Stylized)
Language : Ukrainian
Default : No
Forced : No

Text #5
ID : 11
Format : UTF-8
Codec ID : S_TEXT/UTF8
Codec ID/Info : UTF-8 Plain Text
Duration : 2 h 40 min
Bit rate : 75 b/s
Count of elements : 1522
Stream size : 89.2 KiB (0%)
Title : Full
Language : Ukrainian
Default : No
Forced : No

Text #6
ID : 12
Format : ASS
Codec ID : S_TEXT/ASS
Codec ID/Info : Advanced Sub Station Alpha
Duration : 2 h 40 min
Bit rate : 101 b/s
Count of elements : 1526
Compression mode : Lossless
Stream size : 120 KiB (0%)
Title : Full (Stylized)
Language : Ukrainian
Default : No
Forced : No

Text #7
ID : 13
Format : UTF-8
Codec ID : S_TEXT/UTF8
Codec ID/Info : UTF-8 Plain Text
Duration : 2 h 39 min
Bit rate : 48 b/s
Count of elements : 1510
Stream size : 56.9 KiB (0%)
Title : Full
Language : English
Default : No
Forced : No

Text #8
ID : 14
Format : ASS
Codec ID : S_TEXT/ASS
Codec ID/Info : Advanced Sub Station Alpha
Duration : 2 h 39 min
Bit rate : 74 b/s
Count of elements : 1510
Compression mode : Lossless
Stream size : 86.9 KiB (0%)
Title : Full (Stylized)
Language : English
Default : No
Forced : No

Menu
00:00:00.000 : en:In a Cage
00:03:01.014 : en:Dobby's Warning
00:07:55.558 : en:Car Rescue
00:10:40.640 : en:The Burrow
00:14:07.096 : en:To Diagon Aley
00:17:57.743 : en:Flourish and Blotts
00:22:16.126 : en:Flying to Hogwarts
00:25:49.631 : en:Whomping Willow
00:28:50.353 : en:Not Expelled...Today
00:31:07.991 : en:Mandrakes; Ron's Howler
00:35:14.195 : en:Gilderoy Lockhart
00:38:00.403 : en:Mudbloods and Murmurs
00:42:47.982 : en:Writing on the Wall
00:48:16.143 : en:About the Chamber
00:52:16.133 : en:Rogue Bludger
00:57:56.973 : en:No Longer Safe
01:03:13.873 : en:Dueling Club
01:07:50.524 : en:A Parselmouth
01:11:56.145 : en:Nothing to Tell
01:17:22.387 : en:Polyjuice Potion
01:21:33.847 : en:Harry and Ron Transformed
01:25:39.926 : en:The Diary
01:29:42.251 : en:Tom Riddle
01:33:30.354 : en:Petrified
01:37:42.898 : en:Cornelius Fudge
01:42:49.079 : en:Aragog
01:47:01.623 : en:Spider Attack
01:51:07.994 : en:Missing
01:55:26.210 : en:Chamber of Secrets
02:00:53.287 : en:Backfire
02:04:09.775 : en:Heir of Slytherin
02:09:32.306 : en:The Basilisk
02:14:32.439 : en:Healing Powers
02:18:05.944 : en:Out of the Hat
02:21:20.221 : en:Dobby's Reward
02:26:35.453 : en:Welcome Back
02:31:43.094 : en:End Credits
Загрузка...Cкриншот1 Гарри Поттер и тайная комната / Harry Potter and the Chamber of Secrets (2002) [Theatrical Cut] BDRip 1080p [HEVC] 10 bit от -Star-Lord-Загрузка...Cкриншот2 Гарри Поттер и тайная комната / Harry Potter and the Chamber of Secrets (2002) [Theatrical Cut] BDRip 1080p [HEVC] 10 bit от -Star-Lord-Загрузка...Cкриншот3 Гарри Поттер и тайная комната / Harry Potter and the Chamber of Secrets (2002) [Theatrical Cut] BDRip 1080p [HEVC] 10 bit от -Star-Lord-Загрузка...Cкриншот4 Гарри Поттер и тайная комната / Harry Potter and the Chamber of Secrets (2002) [Theatrical Cut] BDRip 1080p [HEVC] 10 bit от -Star-Lord-
Сэмпл Торрент🧲 Магнет

Рейтинги КП и IMDB, кнопки "Позвать в чате" и "Спасибо", а также мультитрекерная статистика сидов и пиров доступны только зарегистрированным/авторизованным пользователям!

Файлы: 1
  • Harry Potter and the Chamber of Secrets (2002) BDRip 1080p H.265 [RUS_3xUKR_ENG] [HEVC-CLUB].mkv   9.59 ГБ
Поблагодарили: 3
Alchemist, makss333, NoMaD
StarLord
021356129.59 ГБ

Добавление нового комментария

Добавление комментариев доступно только зарегистрированным/авторизованным пользователям.