💬 Мини-чат

OldGamerну и акустические излучатели собрать хорошие, типа Penaudio Legato Signature или похожие, тут надо тщательно собирать систему для прослушивания
OldGamerне помешает ещё посетить отоларинголога для промывки слухового аппарата от серных пробок специализированным сертифицированным раствором, это (промывка) имеет немаловажное значение
OldGamer😆🤐🤐
OldGamerи всё же лучше hi-end, с подключением кабелями типа Analysis-Plus Oval 9 из бескислородной меди и с их предварительным прогревом системой типа Nordost Vidar, иначе всё теряет смысл
XuMuKManson_Fan, не надо hi-end акустики, достаточно hi-fi. "Кристольность" на высоких частотах другая, в DTS кажется более "живым" звук. Но самая большая разница, когда сравниваешь АС3 с каким-нибудь DTS-HD MA
IRITРаздайте, пожалуйста, Байки из склепа: Демон ночи / Tales from the Crypt: Demon Knight (1995) BDRip 1080p [HEVC] 10 bit от druidblack
OldGamerManson_Fan, у меня нет hi-end акустики, поэтому не слушал, не знаю, может и есть разница. За других говорить не буду. В любом случае, продвинутым слухачам будет несложно найти, скачать и прикрепить дорожки требуемого им качества.
mafo2Manson_Fan, не все телевизоры поддерживают DTS. например, мой через встроенный плеер его не воспроизводит. можно конечно смотреть через ПК, но порой хочется и через ТВ.
Manson_FanOldGamer, "Скажите зачем релизёры звук DTS 768 kbps переделывают в AC3 640 kbps" Интересно, а разницу в качестве в фильмах кому то удавалось услышать?😕 мне вот нет
Manson_Fanникто еще не сравнивал HEVC и новый AV1?
IRITРаздайте, пожалуйста, Маньяк-полицейский 3: Знак молчания / Maniac Cop 3: Badge of Silence (1993) BDRip 1080p [HEVC] 10 bit от HANNIBAL
Spartanec1308С Днём Великой Победы!
BrooklynВсех с праздником! С Днем Великой Победы! Ура-Ура-Урааааааа
BrooklynADVOKAT69, Спасибо большое!
ADVOKAT69Операция «Ы» и другие приключения Шурика (1965) раздаю
mafo2С Днем Победы!
joker63Поздравляю всех с Днем Победы!
ADVOKAT69Admin, Спасибо деду за победу!Тебе за поздравление!
AdminADVOKAT69, Дедам спасибо.
ADVOKAT69Admin, спасибо большое!✋
  • StarLord
  • alexyak
  • diesel0000
Отправка сообщений доступна только зарегистрированным/авторизованным пользователям.
Онлайн (за 10 мин.): 3

101 далматинец / One Hundred and One Dalmatians (1961) BDRip 1080p [HEVC] 10 bit от Мичман

HEVC
10 bit
Обложка 101 далматинец / One Hundred and One Dalmatians (1961) BDRip 1080p [HEVC] 10 bit от Мичман Год: 1961
Страна: США
Студия: Walt Disney Productions, Walt Disney Animation Studios
Жанр: Мультфильм, Семейный, Приключения
Продолжительность: 01:19:16

Режиссер: Клайд Джероними, Хэмильтон Ласки, Вольфганг Райтерман
В ролях: Род Тейлор, Дж. Пэт О’Мэлли, Бетти Лу Джерсон, Марта Вентуорф, Бен Райт, Кейт Бауэр, Дэвид Фрэнкхэм, Фредерик Уорлок, Лиза Дэвис, Том Конуэй

Описание: История поиска и спасения щенят далматинских догов, которые были похищены у своих хозяев по приказу злобной фурии, Стервеллы Де Виль. Алчная модница задумала сшить себе пятнистый меховой наряд из шкурок бедных малюток. Однако животные, объединившись, ухитряются проучить ее.


Видео: 1440x1080, ~5871 Kbps
Аудио1: AC3, 6 ch, 640 Kbps - РусскийРусский, Дублированный
Аудио2: AC3, 6 ch, 640 Kbps - АнглийскийАнглийский, Оригинал
Субтитры: Русские, английские

Как за пару секунд удалить ненужные аудиодорожки и субтитры (Внимание! После удаления вы не сможете поддержать раздачу)

Лог (x265 info)
x265 [info]: 1117, Avg QP:15.92 kb/s
x265 [info]: 29141, Avg QP:17.66 kb/s
x265 [info]: 83774, Avg QP:20.01 kb/s
Медиаинфо
Общее
Уникальный идентификатор : 96898367358976050098577386696531220014 (0x48E5F25CA0BA1C92AFABDC97C04F962E)
Полное имя : R:\One Hundred and One Dalmatians (1961) BDRip-HEVC 1080p.mkv
Формат : Matroska
Версия формата : Version 4 / Version 2
Размер файла : 3,96 Гбайт
Продолжительность : 1 ч. 19 м.
Общий поток : 7155 Кбит/сек
Название фильма : One Hundred and One Dalmatians (1961)
Дата кодирования : UTC 2020-09-18 07:33:48
Программа кодирования : mkvmerge v49.0.0 ('Sick Of Losing Soulmates') 64-bit
Библиотека кодирования : libebml v1.4.0 + libmatroska v1.6.1
Обложка : Yes
Attachments : cover

Видео
Идентификатор : 1
Формат : HEVC
Формат/Информация : High Efficiency Video Coding
Профиль формата : Main 10@L4.1@High
Идентификатор кодека : V_MPEGH/ISO/HEVC
Продолжительность : 1 ч. 19 м.
Битрейт : 5871 Кбит/сек
Ширина : 1440 пикселей
Высота : 1080 пикселей
Соотношение сторон : 4:3
Режим частоты кадров : Постоянный
Частота кадров : 23,976 (23976/1000) кадра/сек
Частота кадров в оригинале : 23,976 (24000/1001) кадра/сек
Цветовое пространство : YUV
Субдискретизация насыщенности : 4:2:0
Битовая глубина : 10 бит
Бит/(Пиксели*Кадры) : 0.157
Размер потока : 3,25 Гбайт (82%)
Библиотека кодирования : x265 3.3+1-g554c887ac:[Windows][MSVC 1924][64 bit] 10bit
Настройки программы : cpuid=1111039 / frame-threads=3 / numa-pools=12 / wpp / no-pmode / no-pme / no-psnr / no-ssim / log-level=2 / input-csp=1 / input-res=1440x1080 / interlace=0 / total-frames=114032 / level-idc=41 / high-tier=1 / uhd-bd=0 / ref=5 / no-allow-non-conformance / no-repeat-headers / annexb / no-aud / no-hrd / info / hash=0 / no-temporal-layers / open-gop / min-keyint=23 / keyint=240 / gop-lookahead=0 / bframes=12 / b-adapt=2 / b-pyramid / bframe-bias=0 / rc-lookahead=60 / lookahead-slices=4 / scenecut=40 / hist-scenecut=0 / radl=0 / no-splice / no-intra-refresh / ctu=32 / min-cu-size=8 / rect / amp / max-tu-size=32 / tu-inter-depth=4 / tu-intra-depth=4 / limit-tu=1 / rdoq-level=2 / dynamic-rd=0.00 / no-ssim-rd / signhide / no-tskip / nr-intra=0 / nr-inter=0 / no-constrained-intra / no-strong-intra-smoothing / max-merge=4 / limit-refs=2 / limit-modes / me=3 / subme=7 / merange=57 / temporal-mvp / no-frame-dup / no-hme / weightp / weightb / no-analyze-src-pics / deblock=-3:-3 / no-sao / no-sao-non-deblock / rd=6 / selective-sao=0 / no-early-skip / no-rskip / no-fast-intra / no-tskip-fast / no-cu-lossless / no-b-intra / no-splitrd-skip / rdpenalty=0 / psy-rd=2.00 / psy-rdoq=1.00 / no-rd-refine / no-lossless / cbqpoffs=0 / crqpoffs=0 / rc=crf / crf=19.0 / qcomp=0.60 / qpstep=4 / stats-write=0 / stats-read=0 / vbv-maxrate=50000 / vbv-bufsize=50000 / vbv-init=0.9 / crf-max=0.0 / crf-min=0.0 / ipratio=1.40 / pbratio=1.30 / aq-mode=1 / aq-strength=1.00 / no-cutree / zone-count=0 / no-strict-cbr / qg-size=32 / no-rc-grain / qpmax=69 / qpmin=0 / no-const-vbv / sar=1 / overscan=0 / videoformat=5 / range=0 / colorprim=1 / transfer=1 / colormatrix=1 / chromaloc=0 / display-window=0 / cll=0,0 / min-luma=0 / max-luma=1023 / log2-max-poc-lsb=8 / vui-timing-info / vui-hrd-info / slices=1 / no-opt-qp-pps / no-opt-ref-list-length-pps / no-multi-pass-opt-rps / scenecut-bias=0.05 / hist-threshold=0.01 / no-opt-cu-delta-qp / no-aq-motion / no-hdr10 / no-hdr10-opt / no-dhdr10-opt / no-idr-recovery-sei / analysis-reuse-level=0 / analysis-save-reuse-level=0 / analysis-load-reuse-level=0 / scale-factor=0 / refine-intra=0 / refine-inter=0 / refine-mv=1 / refine-ctu-distortion=0 / no-limit-sao / ctu-info=0 / no-lowpass-dct / refine-analysis-type=0 / copy-pic=1 / max-ausize-factor=1.0 / no-dynamic-refine / no-single-sei / no-hevc-aq / no-svt / no-field / qp-adaptation-range=1.00 / no-scenecut-aware-qpconformance-window-offsets / right=0 / bottom=0
Default : Да
Forced : Нет
Цветовой диапазон : Limited
Основные цвета : BT.709
Характеристики трансфера : BT.709
Коэффициенты матрицы : BT.709

Аудио #1
Идентификатор : 2
Формат : AC-3
Формат/Информация : Audio Coding 3
Идентификатор кодека : A_AC3
Продолжительность : 1 ч. 19 м.
Вид битрейта : Постоянный
Битрейт : 640 Кбит/сек
Каналы : 6 каналов
Расположение каналов : Front: L C R, Side: L R, LFE
Частота : 48,0 КГц
Частота кадров : 31,250 кадров/сек (1536 SPF)
Битовая глубина : 16 бит
Метод сжатия : С потерями
Размер потока : 363 Мбайт (9%)
Заголовок : Дубляж
Язык : Russian
ServiceKind/String : Complete Main
Default : Да
Forced : Нет

Аудио #2
Идентификатор : 3
Формат : AC-3
Формат/Информация : Audio Coding 3
Идентификатор кодека : A_AC3
Продолжительность : 1 ч. 19 м.
Вид битрейта : Постоянный
Битрейт : 640 Кбит/сек
Каналы : 6 каналов
Расположение каналов : Front: L C R, Side: L R, LFE
Частота : 48,0 КГц
Частота кадров : 31,250 кадров/сек (1536 SPF)
Битовая глубина : 16 бит
Метод сжатия : С потерями
Размер потока : 363 Мбайт (9%)
Язык : English
ServiceKind/String : Complete Main
Default : Нет
Forced : Нет

Текст #1
Идентификатор : 4
Формат : UTF-8
Идентификатор кодека : S_TEXT/UTF8
Идентификатор кодека/Информация : UTF-8 Plain Text
Продолжительность : 1 ч. 18 м.
Битрейт : 117 бит/сек
ElementCount : 1124
Размер потока : 67,9 Кбайт (0%)
Язык : Russian
Default : Нет
Forced : Нет

Текст #2
Идентификатор : 5
Формат : UTF-8
Идентификатор кодека : S_TEXT/UTF8
Идентификатор кодека/Информация : UTF-8 Plain Text
Продолжительность : 1 ч. 15 м.
Битрейт : 57 бит/сек
ElementCount : 1010
Размер потока : 32,0 Кбайт (0%)
Язык : English
Default : Нет
Forced : Нет

Меню
00:00:00.000 : en:00:00:00.000
00:04:18.300 : en:00:04:18.300
00:06:31.683 : en:00:06:31.683
00:12:32.293 : en:00:12:32.293
00:16:31.866 : en:00:16:31.866
00:22:28.472 : en:00:22:28.472
00:27:21.473 : en:00:27:21.473
00:33:22.500 : en:00:33:22.500
00:37:45.263 : en:00:37:45.263
00:40:54.077 : en:00:40:54.077
00:50:11.508 : en:00:50:11.508
00:57:39.081 : en:00:57:39.081
01:04:15.477 : en:01:04:15.477
01:09:08.311 : en:01:09:08.311
01:16:06.604 : en:01:16:06.604
01:18:44.762 : en:01:18:44.762
Загрузка...Cкриншот1 101 далматинец / One Hundred and One Dalmatians (1961) BDRip 1080p [HEVC] 10 bit от МичманЗагрузка...Cкриншот2 101 далматинец / One Hundred and One Dalmatians (1961) BDRip 1080p [HEVC] 10 bit от МичманЗагрузка...Cкриншот3 101 далматинец / One Hundred and One Dalmatians (1961) BDRip 1080p [HEVC] 10 bit от МичманЗагрузка...Cкриншот4 101 далматинец / One Hundred and One Dalmatians (1961) BDRip 1080p [HEVC] 10 bit от Мичман
Сэмпл Торрент🧲 Магнет

Рейтинги КП и IMDB, кнопки "Позвать в чате" и "Спасибо", а также мультитрекерная статистика доступны только зарегистрированным/авторизованным пользователям!

Файлы: 1
  • One Hundred and One Dalmatians (1961) BDRip-HEVC 1080p.mkv   3.96 ГБ
Поблагодарили: 2
makss333, porsche_carrera
Admin
028003.96 ГБ

Добавление нового комментария

Добавление комментариев доступно только зарегистрированным/авторизованным пользователям.