Регистрация / Смена пароля

💬 Мини-чат

Адрес сайта поменялся с hevc-club.video на rips.club. Новый адрес анонсера - http://rips.club:2710/announce
ADVOKAT69rodina_45, буду перекодировать!
rodina_45Раздайте, пожалуйста, Царевна-лягушка (1954) BDRip 1080p [HEVC] 10 bit от ADVOKAT69
OldGamerДа всегда пожалуйста
UndervestСообщение удалено (удалил: Undervest)
StarLordOldGamer, очень жаль... Возможно сам возьмусь)
OldGamerStarLord, в планах такого нету :)
StarLordOldGamer, еще бы "Бомжа с дробовиком" в придачу к "Мачете" =))
warner98Раздайте, пожалуйста, Кошмар на улице Вязов / A Nightmare on Elm Street (2010) BDRip 1080p [HEVC] 10 bit от Cthulhu
VISРаздайте, пожалуйста, Доспехи Бога / Lung hing foo dai (1986) BDRip 1080p [HEVC] 10 bit от joker63
  • Admin
  • makss333
  • yri150461
Отправка сообщений доступна только зарегистрированным/авторизованным пользователям.
Онлайн (за 10 мин.): 3

Битва при Сарагахри / Kesari (2019) BDRip 1080p [HEVC] 10 bit от OldGamer (RG RIPS CLUB)

HEVC
10 bit
Обложка Битва при Сарагахри / Kesari (2019) BDRip 1080p [HEVC] 10 bit от OldGamer (RG RIPS CLUB) Год: 2019
Страна: Индия
Студия: Dharma Productions, Hari Om Entertainment, Azure Entertainment
Жанр: Боевик, Драма, Военный, История
Продолжительность: 02:33:49

Режиссер: Анураг Сингх
В ролях: Акшай Кумар, Паринити Чопра, Сувиндер Вики, Ванш Бхардвай, Сумит Башран, Ажит Сингх, Сандип Нахар, Harwinder Singh Aujla, Ракеш Шарма, Adhrit Sharma

Описание: Британская Индия, 12 сентября 1897 года. Отряд сикхов Британской Индийской армии на армейском посту в составе 21-го человека подвергается нападению десятитысячного войска пуштунов.


Исходник: Blu-Ray Remux 1080p
Видео: 1920x816 (2.35:1), 5930 Кбит/сек, HEVC (Main10@L.4.1@High)
Аудио1: AC3, 2 ch, 192 Kbps - РусскийРусский, Двухголосый (OnisFilms)
Аудио2: AC3, 6 ch, 640 Kbps - РусскийРусский, Авторский (Андрей Важенин)
Аудио3: AC3, 6 ch, 448 Kbps - HindiHindi, Original
Субтитры: Русские форсированные (SRT)

Как за пару секунд удалить ненужные аудиодорожки и субтитры (Внимание! После удаления вы не сможете поддержать раздачу)

Лог (x265 info)
x265 [info]: frame I: 925, Avg QP:17.55 kb/s: 27421.12
x265 [info]: frame P: 42966, Avg QP:19.03 kb/s: 12939.80
x265 [info]: frame B: 177617, Avg QP:20.78 kb/s: 4121.27
x265 [info]: Weighted P-Frames: Y:5.2% UV:3.6%
x265 [info]: Weighted B-Frames: Y:2.9% UV:1.8%
x265 [info]: consecutive B-frames: 2.6% 5.0% 9.7% 34.5% 12.1% 18.2% 5.2% 6.1% 2.6% 1.5% 1.1% 0.7% 0.3% 0.2% 0.1% 0.2%
x265 [info]: encoded 221508 frames in 117231.19s (1.89 fps), 5929.10 kb/s, Avg QP:20.43
Медиаинфо
Общее
Уникальный идентификатор : 120606615329115285458294652107794654403 (0x5ABBFD3BE81CF594428E9F2B7573A4C3)
Полное имя : \\..\Битва.при.Сарагахри.Kesari.2019.BDRip-HEVC.1080p.mkv
Формат : Matroska
Версия формата : Version 4
Размер файла : 7,75 Гбайт
Продолжительность : 2 ч. 33 м.
Общий поток : 7 212 Кбит/сек
Название фильма : Битва.при.Сарагахри.Kesari.2019.BDRip-HEVC.1080p
Дата кодирования : UTC 2020-10-10 03:36:03
Программа кодирования : mkvmerge v51.0.0 ('I Wish') 64-bit
Библиотека кодирования : libebml v1.4.0 + libmatroska v1.6.2

Видео
Идентификатор : 1
Формат : HEVC
Формат/Информация : High Efficiency Video Coding
Профиль формата : Main 10@L4.1@High
Идентификатор кодека : V_MPEGH/ISO/HEVC
Продолжительность : 2 ч. 33 м.
Битрейт : 5 930 Кбит/сек
Ширина : 1 920 пикселей
Высота : 816 пикселей
Соотношение сторон : 2,35:1
Режим частоты кадров : Постоянный
Частота кадров : 24,000 кадра/сек
Цветовое пространство : YUV
Субдискретизация насыщенности : 4:2:0
Битовая глубина : 10 бит
Бит/(Пиксели*Кадры) : 0.158
Размер потока : 6,37 Гбайт (82%)
Заголовок : Kesari / Rip by OldGamer
Библиотека кодирования : x265 3.4+4-g3ae3d7116:[Windows][GCC 10.2.0][64 bit] 10bit
Настройки программы : cpuid=1111039 / frame-threads=3 / numa-pools=8 / wpp / no-pmode / no-pme / no-psnr / no-ssim / log-level=2 / input-csp=1 / input-res=1920x816 / interlace=0 / total-frames=221508 / level-idc=41 / high-tier=1 / uhd-bd=0 / ref=5 / no-allow-non-conformance / no-repeat-headers / annexb / no-aud / no-hrd / info / hash=0 / no-temporal-layers / open-gop / min-keyint=23 / keyint=240 / gop-lookahead=0 / bframes=15 / b-adapt=2 / b-pyramid / bframe-bias=0 / rc-lookahead=60 / lookahead-slices=0 / scenecut=40 / hist-scenecut=0 / radl=0 / no-splice / no-intra-refresh / ctu=64 / min-cu-size=8 / rect / amp / max-tu-size=32 / tu-inter-depth=4 / tu-intra-depth=4 / limit-tu=1 / rdoq-level=2 / dynamic-rd=0.00 / no-ssim-rd / signhide / no-tskip / nr-intra=0 / nr-inter=0 / no-constrained-intra / no-strong-intra-smoothing / max-merge=5 / limit-refs=3 / no-limit-modes / me=3 / subme=7 / merange=57 / temporal-mvp / no-frame-dup / no-hme / weightp / weightb / no-analyze-src-pics / deblock=-3:-3 / no-sao / no-sao-non-deblock / rd=6 / selective-sao=0 / no-early-skip / rskip / no-fast-intra / no-tskip-fast / no-cu-lossless / b-intra / no-splitrd-skip / rdpenalty=0 / psy-rd=2.00 / psy-rdoq=1.00 / no-rd-refine / no-lossless / cbqpoffs=0 / crqpoffs=0 / rc=crf / crf=19.0 / qcomp=0.70 / qpstep=4 / stats-write=0 / stats-read=0 / vbv-maxrate=50000 / vbv-bufsize=50000 / vbv-init=0.9 / crf-max=0.0 / crf-min=0.0 / ipratio=1.40 / pbratio=1.30 / aq-mode=1 / aq-strength=1.00 / no-cutree / zone-count=1 / zones: / start-frame=213596 / end-frame=221487 / qp=36 / no-strict-cbr / qg-size=32 / no-rc-grain / qpmax=69 / qpmin=0 / no-const-vbv / sar=1 / overscan=0 / videoformat=5 / range=0 / colorprim=2 / transfer=2 / colormatrix=2 / chromaloc=0 / display-window=0 / cll=0,0 / min-luma=0 / max-luma=1023 / log2-max-poc-lsb=8 / vui-timing-info / vui-hrd-info / slices=1 / no-opt-qp-pps / no-opt-ref-list-length-pps / no-multi-pass-opt-rps / scenecut-bias=0.00 / hist-threshold=0.01 / no-opt-cu-delta-qp / no-aq-motion / no-hdr10 / no-hdr10-opt / no-dhdr10-opt / no-idr-recovery-sei / analysis-reuse-level=0 / analysis-save-reuse-level=0 / analysis-load-reuse-level=0 / scale-factor=0 / refine-intra=0 / refine-inter=0 / refine-mv=1 / refine-ctu-distortion=0 / no-limit-sao / ctu-info=0 / no-lowpass-dct / refine-analysis-type=0 / copy-pic=1 / max-ausize-factor=1.0 / no-dynamic-refine / no-single-sei / no-hevc-aq / no-svt / no-field / qp-adaptation-range=1.00 / no-scenecut-aware-qpconformance-window-offsets / right=0 / bottom=0 / decoder-max-rate=0
Язык : English
Default : Да
Forced : Нет

Аудио #1
Идентификатор : 2
Формат : AC-3
Формат/Информация : Audio Coding 3
Коммерческое название : Dolby Digital
Идентификатор кодека : A_AC3
Продолжительность : 2 ч. 33 м.
Вид битрейта : Постоянный
Битрейт : 192 Кбит/сек
Каналы : 2 канала
Channel layout : L R
Частота : 48,0 КГц
Частота кадров : 31,250 кадров/сек (1536 SPF)
Метод сжатия : С потерями
Размер потока : 211 Мбайт (3%)
Заголовок : Любительский двухголосый (OnisFilms)
Язык : Russian
Service kind : Complete Main
Default : Да
Forced : Нет

Аудио #2
Идентификатор : 3
Формат : AC-3
Формат/Информация : Audio Coding 3
Коммерческое название : Dolby Digital
Идентификатор кодека : A_AC3
Продолжительность : 2 ч. 33 м.
Вид битрейта : Постоянный
Битрейт : 640 Кбит/сек
Каналы : 6 каналов
Channel layout : L R C LFE Ls Rs
Частота : 48,0 КГц
Частота кадров : 31,250 кадров/сек (1536 SPF)
Метод сжатия : С потерями
Размер потока : 704 Мбайт (9%)
Заголовок : Авторский (Андрей Важенин)
Язык : Russian
Service kind : Complete Main
Default : Нет
Forced : Нет

Аудио #3
Идентификатор : 4
Формат : AC-3
Формат/Информация : Audio Coding 3
Коммерческое название : Dolby Digital
Идентификатор кодека : A_AC3
Продолжительность : 2 ч. 33 м.
Вид битрейта : Постоянный
Битрейт : 448 Кбит/сек
Каналы : 6 каналов
Channel layout : L R C LFE Ls Rs
Частота : 48,0 КГц
Частота кадров : 31,250 кадров/сек (1536 SPF)
Метод сжатия : С потерями
Размер потока : 493 Мбайт (6%)
Язык : Hindi
Service kind : Complete Main
Default : Нет
Forced : Нет

Текст
Идентификатор : 5
Формат : UTF-8
Идентификатор кодека : S_TEXT/UTF8
Идентификатор кодека/Информация : UTF-8 Plain Text
Продолжительность : 1 ч. 58 м.
Битрейт : 6 бит/сек
Count of elements : 92
Размер потока : 5,79 Кбайт (0%)
Заголовок : На песни
Язык : Russian
Default : Нет
Forced : Нет

Меню
00:00:00.000 : en:Chapter 01
00:10:52.541 : en:Chapter 02
00:27:04.958 : en:Chapter 03
00:31:50.750 : en:Chapter 04
00:43:10.458 : en:Chapter 05
00:56:37.875 : en:Chapter 06
00:59:25.208 : en:Chapter 07
01:05:40.708 : en:Chapter 08
01:10:18.250 : en:Chapter 09
01:13:37.250 : en:Chapter 10
01:15:07.750 : en:Chapter 11
01:21:55.958 : en:Chapter 12
01:31:45.916 : en:Chapter 13
01:37:59.416 : en:Chapter 14
01:40:14.166 : en:Chapter 15
01:48:34.541 : en:Chapter 16
01:53:09.291 : en:Chapter 17
02:06:11.583 : en:Chapter 18
02:07:13.166 : en:Chapter 19
02:10:16.708 : en:Chapter 20
02:19:27.625 : en:Chapter 21
02:21:00.000 : en:Chapter 22
02:24:59.666 : en:Chapter 23
02:28:42.625 : en:Chapter 24
Загрузка...Cкриншот1 Битва при Сарагахри / Kesari (2019) BDRip 1080p [HEVC] 10 bit от OldGamer (RG RIPS CLUB)Загрузка...Cкриншот2 Битва при Сарагахри / Kesari (2019) BDRip 1080p [HEVC] 10 bit от OldGamer (RG RIPS CLUB)Загрузка...Cкриншот3 Битва при Сарагахри / Kesari (2019) BDRip 1080p [HEVC] 10 bit от OldGamer (RG RIPS CLUB)Загрузка...Cкриншот4 Битва при Сарагахри / Kesari (2019) BDRip 1080p [HEVC] 10 bit от OldGamer (RG RIPS CLUB)
Сэмпл Торрент🧲 Магнет

Рейтинги КП и IMDB, кнопки "Позвать в чате" и "Спасибо", а также мультитрекерная статистика сидов и пиров доступны только зарегистрированным/авторизованным пользователям!

Файлы: 1
  • Битва.при.Сарагахри.Kesari.2019.BDRip-HEVC.1080p.mkv   7.75 ГБ
Поблагодарили: 4
aquarius, makss333, Temperest, ШУЗЕР
OldGamer
011307.75 ГБ

Добавление нового комментария

Добавление комментариев доступно только зарегистрированным/авторизованным пользователям.