Регистрация / Смена пароля

💬 Мини-чат

Адрес сайта поменялся с hevc-club.video на rips.club. Новый адрес анонсера - http://rips.club:2710/announce
ADVOKAT69rodina_45, буду перекодировать!
rodina_45Раздайте, пожалуйста, Царевна-лягушка (1954) BDRip 1080p [HEVC] 10 bit от ADVOKAT69
OldGamerДа всегда пожалуйста
UndervestСообщение удалено (удалил: Undervest)
StarLordOldGamer, очень жаль... Возможно сам возьмусь)
OldGamerStarLord, в планах такого нету :)
StarLordOldGamer, еще бы "Бомжа с дробовиком" в придачу к "Мачете" =))
warner98Раздайте, пожалуйста, Кошмар на улице Вязов / A Nightmare on Elm Street (2010) BDRip 1080p [HEVC] 10 bit от Cthulhu
VISРаздайте, пожалуйста, Доспехи Бога / Lung hing foo dai (1986) BDRip 1080p [HEVC] 10 bit от joker63
  • Admin
  • joker63
  • porsche_carrera
Отправка сообщений доступна только зарегистрированным/авторизованным пользователям.
Онлайн (за 10 мин.): 3

Побег / Prison Break (2006) [2 сезон] BDRip 1080p [HEVC] 10 bit от OldGamer (RG RIPS CLUB)

HEVC
10 bit
Обложка Побег / Prison Break (2006) [2 сезон] BDRip 1080p [HEVC] 10 bit от OldGamer (RG RIPS CLUB) Год: 2006
Страна: Великобритания, США
Студия: 20th Century Studios, Original Film
Жанр: Боевик, Триллер, Драма, Криминал
Продолжительность: 16:02:10

Режиссер: Бобби Рот, Кевин Хукс, Майя Врвило
В ролях: Вентворт Миллер, Доминик Пёрселл, Амори Ноласко, Роберт Неппер, Сара Уэйн Кэллис, Уэйд Уильямс, Марк Фойерстин, Уильям Фихтнер, Пол Адельштейн, Марина Бенедикт

Описание: После побега из тюрьмы "Фокс Ривер" группу отъявленных рецидивистов, возглавляемую Линкольном и Майклом, разыскивают по всем США. Беглецы пытаются скрыться, проникнув на международный рейс, отыскать миллион долларов и рискуют всем, чтобы разоблачить коварный заговор правительства. Для этой восьмерки сложнее всего - это дожить до того дня, когда им уже не нужно будет убегать и прятаться.


Исходник: Blu-Ray Remux 1080p
Видео: 1920x1080 (16:9), 5491-9117 Кбит/сек, HEVC (Main10@L.4.1@High)
Аудио1: AC3, 6 ch, 448 Kbps - РусскийРусский, Дублированный (Ren-TV)
Аудио2: AC3, 6 ch, 384 Kbps - РусскийРусский, Многоголосый (Novafilm)
Аудио3: AC3, 6 ch, 448 Kbps - РусскийРусский, Многоголосый (Ren-TV)
Аудио4: AC3, 6 ch, 640 Kbps - EnglishEnglish, Original
Субтитры: Русские полные (SRT), English full (SRT)

Как за пару секунд удалить ненужные аудиодорожки и субтитры (Внимание! После удаления вы не сможете поддержать раздачу)

Лог (x265 info)
x265 [info]: frame I: 264, Avg QP:18.07 kb/s: 15751.66
x265 [info]: frame P: 12463, Avg QP:19.34 kb/s: 11750.21
x265 [info]: frame B: 49215, Avg QP:21.46 kb/s: 3994.08
x265 [info]: Weighted P-Frames: Y:5.0% UV:3.7%
x265 [info]: Weighted B-Frames: Y:4.2% UV:3.0%
x265 [info]: consecutive B-frames: 2.8% 4.3% 5.9% 33.6% 11.9% 34.5% 3.8% 1.8% 0.3% 0.3% 0.2% 0.3% 0.4%
x265 [info]: encoded 61942 frames in 73065.42s (0.85 fps), 5604.76 kb/s, Avg QP:21.02
Медиаинфо
Общее
Уникальный идентификатор : 146968663871841659250447312833131483743 (0x6E912293897A030077AA92EF68CE925F)
Полное имя : \\..\Побег.Prison.Break.BDRip-HEVC.1080p\Побег.Prison.Break.S02.BDRip-HEVC.1080p\Prison.Break.S02E02.Otis.mkv
Формат : Matroska
Версия формата : Version 4
Размер файла : 2,26 Гбайт
Продолжительность : 43 м. 5 с.
Общий поток : 7 523 Кбит/сек
Название фильма : Prison.Break.S02E02.Otis
Дата кодирования : UTC 2020-10-07 05:00:14
Программа кодирования : mkvmerge v51.0.0 ('I Wish') 64-bit
Библиотека кодирования : libebml v1.4.0 + libmatroska v1.6.2

Видео
Идентификатор : 1
Формат : HEVC
Формат/Информация : High Efficiency Video Coding
Профиль формата : Main 10@L4.1@High
Идентификатор кодека : V_MPEGH/ISO/HEVC
Продолжительность : 43 м. 3 с.
Битрейт : 5 606 Кбит/сек
Ширина : 1 920 пикселей
Высота : 1 080 пикселей
Соотношение сторон : 16:9
Режим частоты кадров : Постоянный
Частота кадров : 23,976 (24000/1001) кадра/сек
Цветовое пространство : YUV
Субдискретизация насыщенности : 4:2:0
Битовая глубина : 10 бит
Бит/(Пиксели*Кадры) : 0.113
Размер потока : 1,69 Гбайт (74%)
Заголовок : Prison.Break.S02E02.Otis / Rip by OldGamer
Библиотека кодирования : x265 3.4+4-g3ae3d7116:[Windows][GCC 10.2.0][64 bit] 10bit
Настройки программы : cpuid=1111039 / frame-threads=3 / numa-pools=12 / wpp / no-pmode / no-pme / no-psnr / no-ssim / log-level=2 / input-csp=1 / input-res=1920x1080 / interlace=0 / total-frames=61942 / level-idc=41 / high-tier=1 / uhd-bd=0 / ref=5 / no-allow-non-conformance / no-repeat-headers / annexb / no-aud / no-hrd / info / hash=0 / no-temporal-layers / open-gop / min-keyint=23 / keyint=240 / gop-lookahead=0 / bframes=12 / b-adapt=2 / b-pyramid / bframe-bias=0 / rc-lookahead=60 / lookahead-slices=0 / scenecut=40 / hist-scenecut=0 / radl=0 / no-splice / no-intra-refresh / ctu=64 / min-cu-size=8 / rect / amp / max-tu-size=32 / tu-inter-depth=4 / tu-intra-depth=4 / limit-tu=1 / rdoq-level=2 / dynamic-rd=0.00 / no-ssim-rd / signhide / no-tskip / nr-intra=0 / nr-inter=0 / no-constrained-intra / no-strong-intra-smoothing / max-merge=5 / limit-refs=3 / no-limit-modes / me=3 / subme=7 / merange=57 / temporal-mvp / no-frame-dup / no-hme / weightp / weightb / no-analyze-src-pics / deblock=-3:-3 / no-sao / no-sao-non-deblock / rd=6 / selective-sao=0 / no-early-skip / rskip / no-fast-intra / no-tskip-fast / no-cu-lossless / b-intra / no-splitrd-skip / rdpenalty=0 / psy-rd=2.00 / psy-rdoq=1.00 / no-rd-refine / no-lossless / cbqpoffs=0 / crqpoffs=0 / rc=crf / crf=20.4 / qcomp=0.60 / qpstep=4 / stats-write=0 / stats-read=0 / vbv-maxrate=50000 / vbv-bufsize=50000 / vbv-init=0.9 / crf-max=0.0 / crf-min=0.0 / ipratio=1.40 / pbratio=1.30 / aq-mode=2 / aq-strength=0.80 / no-cutree / zone-count=0 / no-strict-cbr / qg-size=32 / no-rc-grain / qpmax=69 / qpmin=0 / no-const-vbv / sar=1 / overscan=0 / videoformat=5 / range=0 / colorprim=2 / transfer=2 / colormatrix=2 / chromaloc=0 / display-window=0 / cll=0,0 / min-luma=0 / max-luma=1023 / log2-max-poc-lsb=8 / vui-timing-info / vui-hrd-info / slices=1 / no-opt-qp-pps / no-opt-ref-list-length-pps / no-multi-pass-opt-rps / scenecut-bias=0.00 / hist-threshold=0.01 / no-opt-cu-delta-qp / no-aq-motion / no-hdr10 / no-hdr10-opt / no-dhdr10-opt / no-idr-recovery-sei / analysis-reuse-level=0 / analysis-save-reuse-level=0 / analysis-load-reuse-level=0 / scale-factor=0 / refine-intra=0 / refine-inter=0 / refine-mv=1 / refine-ctu-distortion=0 / no-limit-sao / ctu-info=0 / no-lowpass-dct / refine-analysis-type=0 / copy-pic=1 / max-ausize-factor=1.0 / no-dynamic-refine / no-single-sei / no-hevc-aq / no-svt / no-field / qp-adaptation-range=1.00 / no-scenecut-aware-qpconformance-window-offsets / right=0 / bottom=0 / decoder-max-rate=0
Язык : English
Default : Да
Forced : Нет

Аудио #1
Идентификатор : 2
Формат : AC-3
Формат/Информация : Audio Coding 3
Коммерческое название : Dolby Digital
Идентификатор кодека : A_AC3
Продолжительность : 43 м. 4 с.
Вид битрейта : Постоянный
Битрейт : 448 Кбит/сек
Каналы : 6 каналов
Channel layout : L R C LFE Ls Rs
Частота : 48,0 КГц
Частота кадров : 31,250 кадров/сек (1536 SPF)
Метод сжатия : С потерями
Размер потока : 138 Мбайт (6%)
Заголовок : Dub (Ren-TV)
Язык : Russian
Service kind : Complete Main
Default : Да
Forced : Нет

Аудио #2
Идентификатор : 3
Формат : AC-3
Формат/Информация : Audio Coding 3
Коммерческое название : Dolby Digital
Идентификатор кодека : A_AC3
Продолжительность : 43 м. 5 с.
Вид битрейта : Постоянный
Битрейт : 384 Кбит/сек
Каналы : 6 каналов
Channel layout : L R C LFE Ls Rs
Частота : 48,0 КГц
Частота кадров : 31,250 кадров/сек (1536 SPF)
Метод сжатия : С потерями
Размер потока : 118 Мбайт (5%)
Заголовок : MVO (Novafilm)
Язык : Russian
Service kind : Complete Main
Default : Нет
Forced : Нет

Аудио #3
Идентификатор : 4
Формат : AC-3
Формат/Информация : Audio Coding 3
Коммерческое название : Dolby Digital
Идентификатор кодека : A_AC3
Продолжительность : 43 м. 3 с.
Вид битрейта : Постоянный
Битрейт : 448 Кбит/сек
Каналы : 6 каналов
Channel layout : L R C LFE Ls Rs
Частота : 48,0 КГц
Частота кадров : 31,250 кадров/сек (1536 SPF)
Метод сжатия : С потерями
Размер потока : 138 Мбайт (6%)
Заголовок : MVO (Ren-TV)
Язык : Russian
Service kind : Complete Main
Default : Нет
Forced : Нет

Аудио #4
Идентификатор : 5
Формат : AC-3
Формат/Информация : Audio Coding 3
Коммерческое название : Dolby Digital
Идентификатор кодека : A_AC3
Продолжительность : 43 м. 3 с.
Вид битрейта : Постоянный
Битрейт : 640 Кбит/сек
Каналы : 6 каналов
Channel layout : L R C LFE Ls Rs
Частота : 48,0 КГц
Частота кадров : 31,250 кадров/сек (1536 SPF)
Метод сжатия : С потерями
Размер потока : 197 Мбайт (9%)
Язык : English
Service kind : Complete Main
Default : Нет
Forced : Нет

Текст #1
Идентификатор : 6
Формат : UTF-8
Идентификатор кодека : S_TEXT/UTF8
Идентификатор кодека/Информация : UTF-8 Plain Text
Продолжительность : 42 м. 15 с.
Битрейт : 96 бит/сек
Count of elements : 460
Размер потока : 30,0 Кбайт (0%)
Язык : Russian
Default : Нет
Forced : Нет

Текст #2
Идентификатор : 7
Формат : UTF-8
Идентификатор кодека : S_TEXT/UTF8
Идентификатор кодека/Информация : UTF-8 Plain Text
Продолжительность : 42 м. 16 с.
Битрейт : 54 бит/сек
Count of elements : 446
Размер потока : 16,7 Кбайт (0%)
Язык : English
Default : Нет
Forced : Нет
Загрузка...Cкриншот1 Побег / Prison Break (2006) [2 сезон] BDRip 1080p [HEVC] 10 bit от OldGamer (RG RIPS CLUB)Загрузка...Cкриншот2 Побег / Prison Break (2006) [2 сезон] BDRip 1080p [HEVC] 10 bit от OldGamer (RG RIPS CLUB)Загрузка...Cкриншот3 Побег / Prison Break (2006) [2 сезон] BDRip 1080p [HEVC] 10 bit от OldGamer (RG RIPS CLUB)Загрузка...Cкриншот4 Побег / Prison Break (2006) [2 сезон] BDRip 1080p [HEVC] 10 bit от OldGamer (RG RIPS CLUB)
Сэмпл Торрент🧲 Магнет

Рейтинги КП и IMDB, кнопки "Позвать в чате" и "Спасибо", а также мультитрекерная статистика сидов и пиров доступны только зарегистрированным/авторизованным пользователям!

Файлы: 22
  • Побег.Prison.Break.S02.BDRip-HEVC.1080p
    • Prison.Break.S02E01.Manhunt.mkv   2.66 ГБ
    • Prison.Break.S02E02.Otis.mkv   2.26 ГБ
    • Prison.Break.S02E03.Scan.mkv   2.6 ГБ
    • Prison.Break.S02E04.First.Down.mkv   2.46 ГБ
    • Prison.Break.S02E05.Map.1213.mkv   2.46 ГБ
    • Prison.Break.S02E06.Subdivision.mkv   2.26 ГБ
    • Prison.Break.S02E07.Buried.mkv   2.39 ГБ
    • Prison.Break.S02E08.Dead.Fall.mkv   2.73 ГБ
    • Prison.Break.S02E09.Unearthed.mkv   2.91 ГБ
    • Prison.Break.S02E10.Rendezvous.mkv   2.55 ГБ
    • Prison.Break.S02E11.Bolshoi.Booze.mkv   3.39 ГБ
    • Prison.Break.S02E12.Disconnect.mkv   3.34 ГБ
    • Prison.Break.S02E13.The.Killing.Box.mkv   2.75 ГБ
    • Prison.Break.S02E14.John.Doe.mkv   2.53 ГБ
    • Prison.Break.S02E15.The.Message.mkv   2.9 ГБ
    • Prison.Break.S02E16.Chicago.mkv   2.61 ГБ
    • Prison.Break.S02E17.Bad.Blood.mkv   2.5 ГБ
    • Prison.Break.S02E18.Wash.mkv   2.35 ГБ
    • Prison.Break.S02E19.Sweet.Caroline.mkv   2.3 ГБ
    • Prison.Break.S02E20.Panama.mkv   2.3 ГБ
    • Prison.Break.S02E21.Fin.del.camino.mkv   2.53 ГБ
    • Prison.Break.S02E22.Sona.mkv   2.65 ГБ
Поблагодарили: 2
anderb, Kiran
OldGamer
1620 (22)  57.43 ГБ

Добавление нового комментария

Добавление комментариев доступно только зарегистрированным/авторизованным пользователям.
Аватар AlexTwitt
  AlexTwitt  
Вообще не качается